<?xml version="1.0" standalone="no"?>
<!DOCTYPE svg PUBLIC "-//W3C//DTD SVG 1.1//EN" "http://www.w3.org/Graphics/SVG/1.1/DTD/svg11.dtd" >
<svg xmlns="http://www.w3.org/2000/svg" xmlns:xlink="http://www.w3.org/1999/xlink" version="1.1">
<metadata>
Created by FontForge 20170731 at Wed Feb 16 15:57:27 2022
 By Aleksey,,,
Copyright 2014 The Nunito Project Authors (https://github.com/googlefonts/nunito)
</metadata>
<defs>
<font id="Nunito-Italic" horiz-adv-x="0" >
  <font-face 
    font-family="Nunito"
    font-weight="400"
    font-style="italic"
    font-stretch="normal"
    units-per-em="1000"
    panose-1="0 0 0 0 0 0 0 0 0 0"
    ascent="800"
    descent="-200"
    x-height="486"
    cap-height="705"
    bbox="-295 -277 1349.33 1047"
    underline-thickness="28"
    underline-position="-122"
    slope="-9"
    unicode-range="U+000D-FB02"
  />
<missing-glyph horiz-adv-x="500" 
d="M50 -180v885h400v-885h-400zM100 -130h300v785h-300v-785z" />
    <glyph glyph-name="fi" unicode="fi" horiz-adv-x="559" 
d="M103 -7q-19 0 -27.5 12.5t-5.5 35.5l61 382h-60q-16 0 -24 6.5t-8 18.5q0 18 10.5 28t28.5 10h74l-13 -11l7 49q13 81 64 128.5t141 52.5l29 2q14 1 22 -4.5t11 -15t0.5 -19t-9 -16.5t-17.5 -8l-30 -2q-57 -4 -89 -33.5t-41 -86.5l-7 -44l-7 8h268q19 0 28 -10.5t5 -32.5
l-65 -410q-2 -20 -13.5 -30t-32.5 -10q-19 0 -28 12.5t-6 35.5l61 382h-218l-62 -390q-7 -40 -47 -40zM502 603q-22 0 -34 12t-10 33q2 26 17.5 40t42.5 14q22 0 34.5 -11.5t10.5 -33.5q-2 -26 -17.5 -40t-43.5 -14z" />
    <glyph glyph-name="fl" unicode="fl" horiz-adv-x="629" 
d="M103 -7q-19 0 -27.5 12.5t-5.5 35.5l61 382h-60q-16 0 -24 6.5t-8 18.5q0 18 10.5 28t28.5 10h74l-13 -11l7 49q13 81 64 128.5t141 52.5l31 2q14 1 21.5 -4.5t10.5 -15t0.5 -19t-9 -16.5t-17.5 -8l-30 -2q-58 -4 -90 -33.5t-41 -86.5l-7 -44l-7 8h113q16 0 24 -6t8 -18
q0 -19 -10.5 -29t-28.5 -10h-107l-62 -390q-7 -40 -47 -40zM519 -9q-71 0 -104 42.5t-20 125.5l82 513q3 20 14.5 30t31.5 10q19 0 28 -12.5t5 -35.5l-80 -505q-9 -53 8 -76t57 -23q14 0 21.5 1.5t12.5 1.5q8 0 12 -5t4 -19q0 -19 -9 -29.5t-23 -14.5q-8 -1 -19.5 -2.5
t-20.5 -1.5z" />
    <glyph glyph-name=".notdef" horiz-adv-x="500" 
d="M50 -180v885h400v-885h-400zM100 -130h300v785h-300v-785z" />
    <glyph glyph-name=".null" 
 />
    <glyph glyph-name="nonmarkingreturn" horiz-adv-x="333" 
 />
    <glyph glyph-name="NULL" 
 />
    <glyph glyph-name="NULL" 
 />
    <glyph glyph-name="CR" unicode="&#xd;" horiz-adv-x="258" 
 />
    <glyph glyph-name="space" unicode=" " horiz-adv-x="258" 
 />
    <glyph glyph-name="exclam" unicode="!" horiz-adv-x="228" 
d="M107 181q-12 0 -19 7.5t-5 23.5l51 452q3 24 16 36t36 12q24 0 35.5 -15t5.5 -42l-91 -448q-3 -11 -10 -18.5t-19 -7.5zM85 -4q-24 0 -39.5 15.5t-15.5 39.5t15.5 39.5t39.5 15.5q26 0 40.5 -15.5t14.5 -39.5t-14.5 -39.5t-40.5 -15.5z" />
    <glyph glyph-name="quotedbl" unicode="&#x22;" horiz-adv-x="392" 
d="M142 421q-13 0 -20.5 7.5t-6.5 26.5l18 216q2 17 14 29t33 12q15 0 25.5 -6t15 -17.5t0.5 -27.5l-48 -210q-3 -15 -11.5 -22.5t-19.5 -7.5zM313 421q-13 0 -20.5 7.5t-6.5 26.5l18 216q2 17 14 29t33 12q15 0 25.5 -6t15 -17.5t0.5 -27.5l-48 -210q-3 -15 -11.5 -22.5
t-19.5 -7.5z" />
    <glyph glyph-name="numbersign" unicode="#" horiz-adv-x="600" 
d="M82 -7q-17 0 -22 12t2 31l56 157l21 -11h-78q-6 0 -14.5 2t-14 7.5t-5.5 16.5q0 15 9.5 24t27.5 9h93l-25 -8l89 251l18 -12h-112q-7 0 -14.5 2t-13 7.5t-5.5 17.5q0 15 9 23.5t27 8.5h129l-26 -12l57 163q6 15 16 22.5t23 7.5q16 0 21.5 -11.5t-2.5 -31.5l-48 -138h159
l53 151q5 15 15.5 22.5t24.5 7.5q16 0 21.5 -11.5t-2.5 -31.5l-52 -150l-21 12h77q7 0 15 -1.5t13.5 -7t5.5 -17.5q0 -15 -9.5 -24t-27.5 -9h-92l26 12l-89 -251l-19 8h111q8 0 15.5 -2t13 -7.5t5.5 -16.5q0 -15 -9.5 -24t-27.5 -9h-128l26 11l-62 -170q-5 -15 -15 -22.5
t-24 -7.5q-16 0 -21 12t2 31l52 146h-159l-56 -159q-6 -15 -15.5 -22.5t-23.5 -7.5zM197 241h160l82 231h-160z" />
    <glyph glyph-name="dollar" unicode="$" horiz-adv-x="600" 
d="M255 -122q-17 0 -25.5 10.5t-5.5 30.5l15 92l12 -15q-61 3 -114.5 20.5t-91.5 46.5q-12 8 -16 19.5t-1 23t11 19.5t20 8.5t26 -8.5q40 -28 89 -42.5t115 -14.5q48 0 86.5 13.5t61 40.5t22.5 66q0 30 -12 51.5t-39.5 37.5t-76.5 28l-89 24q-70 18 -111.5 59.5t-41.5 118.5
q0 67 36.5 112t97.5 68.5t135 22.5l-11 -11l15 94q3 14 12.5 21.5t24.5 7.5q14 0 24 -9t6 -29l-13 -87l-7 9q46 -7 88 -26t75 -50q9 -7 11.5 -17.5t-1 -20.5t-11.5 -17t-19 -7t-26 10q-37 31 -80.5 45t-94.5 14q-82 0 -130.5 -32t-48.5 -93q0 -50 25 -75t75 -38l89 -23
q95 -26 138 -69.5t43 -110.5q0 -64 -34.5 -108t-92 -67.5t-125.5 -24.5l17 16l-16 -105q-2 -13 -12 -21t-24 -8z" />
    <glyph glyph-name="percent" unicode="%" horiz-adv-x="930" 
d="M263 -2q-9 -12 -19.5 -16t-20 -1t-15.5 11t-6 19t9 23l488 669q9 12 20 15.5t20.5 1.5t15.5 -10t6 -19t-8 -23zM239 282q-69 0 -108 43t-39 118q0 74 23 135.5t68.5 98t110.5 36.5q70 0 109 -43.5t39 -119.5q0 -74 -23 -135t-68 -97t-112 -36zM239 339q44 0 73 28.5
t44 76t16 103.5q2 57 -20 82.5t-58 25.5q-43 0 -72 -28.5t-44 -75.5t-17 -104q-1 -57 21 -82.5t57 -25.5zM670 -9q-70 0 -109 43.5t-39 118.5q0 74 23.5 135t68.5 97.5t110 36.5q70 0 109 -43.5t39 -118.5t-23 -136t-68 -97t-111 -36zM669 49q45 0 73.5 28.5t43.5 76
t17 103.5q1 57 -20.5 82.5t-57.5 25.5q-44 0 -73 -28.5t-44 -75.5t-17 -104q-1 -57 21 -82.5t57 -25.5z" />
    <glyph glyph-name="ampersand" unicode="&#x26;" horiz-adv-x="693" 
d="M253 -9q-63 0 -108.5 19t-70.5 54.5t-25 83.5q0 41 15.5 76.5t42 65t59.5 53.5t66 42l36 20l-13 -17q-33 43 -47.5 80t-14.5 70q0 53 24 92.5t67 61.5t100 22q65 0 104 -36t39 -93q0 -48 -24.5 -85t-66 -67t-93.5 -60l2 22l154 -210h-15q20 27 35 57.5t27.5 67t22.5 78.5
q4 16 13.5 24t25.5 8q18 0 27 -10t4 -29q-12 -52 -28 -95.5t-36.5 -81t-47.5 -72.5l-2 24l83 -109q10 -13 9 -25.5t-11 -20.5t-27 -8q-9 0 -18 3t-16 11l-69 94h21q-46 -52 -107.5 -81t-136.5 -29zM260 58q63 0 111 24t86 70l-4 -25l-175 232l29 -4l-33 -19q-41 -24 -74 -50
t-51.5 -57t-18.5 -71q0 -48 33 -74t97 -26zM380 651q-50 0 -80 -30t-30 -76q0 -20 4.5 -37t16.5 -37.5t33 -49.5l-20 1q56 31 89.5 55.5t48.5 49.5t15 54q0 32 -21 51t-56 19z" />
    <glyph glyph-name="quotesingle" unicode="'" horiz-adv-x="221" 
d="M142 421q-13 0 -20.5 7.5t-6.5 26.5l18 216q2 17 14 29t33 12q15 0 25.5 -6t15 -17.5t0.5 -27.5l-48 -210q-3 -15 -11.5 -22.5t-19.5 -7.5z" />
    <glyph glyph-name="parenleft" unicode="(" horiz-adv-x="317" 
d="M141 -157q-21 72 -31.5 140.5t-10.5 135.5q0 109 23 212.5t62.5 196.5t91.5 166q11 14 24.5 16.5t24.5 -3.5t15 -19t-4 -29q-48 -84 -81.5 -173.5t-51.5 -185t-18 -201.5q0 -38 3 -77t8.5 -79t12.5 -81q3 -19 -5 -31t-21 -15t-25 3.5t-17 23.5z" />
    <glyph glyph-name="parenright" unicode=")" horiz-adv-x="317" 
d="M47 -166q-10 -14 -23.5 -17t-25 3t-15.5 18.5t5 28.5q47 85 80.5 174t51.5 185t18 201q0 38 -3 77t-8 79.5t-13 80.5q-2 19 6 31t20.5 15t25 -3.5t16.5 -23.5q21 -71 31.5 -140t10.5 -136q0 -108 -22 -211t-62 -194.5t-93 -167.5z" />
    <glyph glyph-name="asterisk" unicode="*" horiz-adv-x="450" 
d="M174 368q-13 7 -14.5 20t7.5 28l70 110l11 -16l-131 -5q-18 0 -28.5 7.5t-10.5 22.5q0 14 10.5 21.5t28.5 6.5l131 -5l-11 -15l-69 111q-10 15 -8 28t14 20t24.5 1t20.5 -22l57 -110h-10l57 110q9 16 21.5 22t24.5 -1q13 -8 14 -21t-9 -28l-69 -110l-11 15l131 5
q18 1 28.5 -6.5t10.5 -21.5q0 -15 -10.5 -22.5t-28.5 -7.5l-131 5l11 16l69 -110q9 -15 8.5 -27.5t-13.5 -19.5q-13 -8 -25.5 -2t-20.5 21l-57 110h10l-58 -110q-8 -16 -20 -22t-24 2z" />
    <glyph glyph-name="plus" unicode="+" horiz-adv-x="600" 
d="M268 33q-15 0 -22.5 10.5t-4.5 28.5l29 184h-181q-15 0 -24 6.5t-9 18.5q0 17 10 27t27 10h187l28 185q3 15 11.5 23.5t25.5 8.5q16 0 23 -10t4 -28l-28 -179h180q17 0 25.5 -6.5t8.5 -19.5q0 -17 -10 -26.5t-27 -9.5h-187l-30 -190q-2 -16 -10.5 -24.5t-25.5 -8.5z" />
    <glyph glyph-name="comma" unicode="," horiz-adv-x="228" 
d="M74 -97q-12 -11 -23 -11t-17.5 6.5t-6.5 17.5t11 22q21 20 30.5 38.5t12.5 40.5l7 -21q-26 0 -42 15.5t-16 39.5t14.5 39.5t39.5 15.5t38.5 -16.5t13.5 -45.5q0 -26 -7 -51t-21 -47.5t-34 -42.5z" />
    <glyph glyph-name="hyphen" unicode="-" horiz-adv-x="424" 
d="M104 233q-18 0 -26.5 7t-8.5 19q0 17 9.5 29t28.5 12h222q18 0 26.5 -7t8.5 -20q0 -17 -10 -28.5t-28 -11.5h-222z" />
    <glyph glyph-name="period" unicode="." horiz-adv-x="228" 
d="M85 -4q-24 0 -39.5 15.5t-15.5 39.5t15.5 39.5t39.5 15.5q26 0 40.5 -15.5t14.5 -39.5t-14.5 -39.5t-40.5 -15.5z" />
    <glyph glyph-name="slash" unicode="/" horiz-adv-x="283" 
d="M10 -37q-7 -13 -16.5 -17.5t-19.5 -2.5t-17.5 8.5t-9.5 17t4 22.5l352 735q6 12 15.5 17t20 3t18 -8.5t10 -17t-3.5 -23.5z" />
    <glyph glyph-name="zero" unicode="0" horiz-adv-x="600" 
d="M289 -9q-109 0 -165.5 66.5t-56.5 192.5q0 144 34 248t97 160t149 56q109 0 165 -66.5t56 -191.5q0 -144 -34 -248.5t-97 -160.5t-148 -56zM293 62q88 0 140.5 105.5t52.5 306.5q1 85 -34.5 127t-108.5 42q-88 0 -141 -105t-53 -307q0 -85 35.5 -127t108.5 -42z" />
    <glyph glyph-name="one" unicode="1" horiz-adv-x="600" 
d="M123 0q-18 0 -28.5 8t-10.5 23q0 18 12 28.5t31 10.5h131l90 568l43 -4l-152 -93q-14 -8 -26 -6.5t-19.5 9t-10 18t2.5 21.5t19 19l154 95q14 8 24.5 11.5t21.5 3.5q17 0 25 -11t5 -31l-95 -600h114q18 0 28 -7t10 -23q0 -18 -11.5 -29t-31.5 -11h-326z" />
    <glyph glyph-name="two" unicode="2" horiz-adv-x="600" 
d="M99 0q-19 0 -30 8t-11 26q0 12 7 22.5t21 24.5l255 238q58 53 95 106t37 113q0 49 -32.5 76t-93.5 27q-40 0 -81 -14t-85 -45q-13 -9 -24.5 -8.5t-19 8t-10.5 18t1 22t16 19.5q45 34 101.5 53.5t114.5 19.5q60 0 104 -21t68 -58.5t24 -86.5q0 -56 -22 -104t-59.5 -91.5
t-84.5 -85.5l-242 -221l-1 24h328q19 0 28.5 -7t9.5 -22q0 -19 -11 -30t-32 -11h-371z" />
    <glyph glyph-name="three" unicode="3" horiz-adv-x="600" 
d="M278 -9q-55 0 -113 14t-107 52q-12 8 -15.5 20t-0.5 22.5t10.5 18t19 9t23.5 -7.5q44 -33 89 -44t94 -11q44 0 80 17t57 49.5t21 77.5q0 52 -35 83t-101 31h-64q-18 0 -28.5 8.5t-10.5 22.5q0 19 12 29.5t31 10.5h66q46 0 83.5 17t59.5 48.5t22 75.5q0 49 -34.5 78
t-90.5 29q-43 0 -87.5 -14t-84.5 -43q-13 -9 -24 -8.5t-19 7.5t-10.5 17.5t1.5 21.5t17 20q46 37 103 54.5t112 17.5q63 0 107 -23t67.5 -61.5t23.5 -86.5q1 -48 -20.5 -87.5t-59 -66t-86.5 -35.5v11q65 -14 98.5 -57.5t33.5 -103.5q0 -61 -31.5 -109.5t-85.5 -76
t-123 -27.5z" />
    <glyph glyph-name="four" unicode="4" horiz-adv-x="600" 
d="M380 -7q-20 0 -29 12t-6 32l18 114h-281q-22 0 -33 9.5t-11 24.5q0 12 6.5 23.5t18.5 26.5l382 450q11 14 21.5 19.5t25.5 5.5q18 0 27.5 -12.5t5.5 -34.5l-70 -442h73q18 0 26.5 -7.5t8.5 -20.5q0 -19 -10 -30.5t-32 -11.5h-76l-19 -118q-2 -20 -13.5 -30t-32.5 -10z
M373 221l62 388h25l-347 -409l2 21h258z" />
    <glyph glyph-name="five" unicode="5" horiz-adv-x="600" 
d="M287 -9q-50 0 -104.5 15t-101.5 52q-12 9 -15.5 20.5t-0.5 22.5t11 18t19 8t23 -8q43 -33 83 -44t86 -11q50 0 90 22t63 60.5t23 87.5q0 61 -35.5 98.5t-96.5 37.5q-44 0 -80.5 -17t-68.5 -51q-10 -9 -19.5 -14t-21.5 -5q-16 0 -25 9.5t-7 28.5l56 347q3 19 14 28t29 9
h335q18 0 28 -7.5t10 -22.5q0 -19 -11.5 -29.5t-31.5 -10.5h-297l-45 -281h-24q32 42 81.5 64.5t100.5 22.5q53 0 96 -22.5t69 -67t26 -110.5q0 -75 -35 -131t-94 -87.5t-129 -31.5z" />
    <glyph glyph-name="six" unicode="6" horiz-adv-x="600" 
d="M306 -9q-71 0 -123 31.5t-80 90.5t-28 139q0 97 21 181t62 147t101.5 98.5t140.5 35.5q50 0 98.5 -19.5t84.5 -55.5q11 -10 13 -21.5t-2 -21.5t-12.5 -17t-19.5 -6.5t-23 11.5q-28 28 -66 42.5t-79 14.5q-69 0 -121 -41.5t-82.5 -118.5t-36.5 -183l-2 -30h-10
q9 54 40.5 93t76 60t93.5 21q57 0 100.5 -26t68 -71t24.5 -101q0 -72 -31 -129.5t-85 -90.5t-123 -33zM302 61q50 0 86.5 23.5t57 64t20.5 89.5q0 40 -17.5 70t-48 47t-70.5 17q-48 0 -85.5 -23.5t-58 -63.5t-20.5 -90q0 -39 18 -69.5t48.5 -47.5t69.5 -17z" />
    <glyph glyph-name="seven" unicode="7" horiz-adv-x="600" 
d="M136 -7q-16 0 -26 8.5t-10 22.5t10 30l412 616l-1 -36h-354q-19 0 -29.5 8t-10.5 23q0 20 11.5 30t30.5 10h391q23 0 33 -8.5t10 -23.5q0 -13 -6 -24.5t-16 -27.5l-398 -599q-11 -15 -22 -22t-25 -7z" />
    <glyph glyph-name="eight" unicode="8" horiz-adv-x="600" 
d="M270 -9q-68 0 -120 20.5t-81.5 59.5t-29.5 91q0 55 25 100.5t68 73.5t96 31l-2 -12q-56 13 -87 53.5t-31 98.5q0 66 33.5 112t92 70t132.5 24q64 0 112.5 -20.5t75.5 -58t27 -88.5q0 -50 -22.5 -91.5t-61.5 -69t-88 -33.5l3 13q60 -9 97 -50.5t37 -105.5
q0 -70 -35.5 -119t-97.5 -74t-143 -25zM274 59q90 0 141.5 39t51.5 115q0 55 -42.5 82.5t-111.5 27.5q-89 0 -142 -38.5t-53 -113.5q0 -56 43 -84t113 -28zM325 391q52 0 91.5 18t62.5 51t23 78q0 52 -37.5 79.5t-101.5 27.5q-82 0 -129 -36.5t-47 -107.5q0 -53 37.5 -81.5
t100.5 -28.5z" />
    <glyph glyph-name="nine" unicode="9" horiz-adv-x="600" 
d="M238 -9q-49 0 -99 19.5t-87 55.5q-11 10 -13.5 21t1.5 21.5t12.5 17t20 6t22.5 -10.5q30 -27 68.5 -42t80.5 -15q68 0 118.5 41.5t81.5 118.5t37 183l2 30h10q-9 -54 -40.5 -93t-76 -60t-93.5 -21q-57 0 -100.5 26t-68.5 71.5t-25 100.5q0 73 31.5 130t85 90t122.5 33
q71 0 123 -31.5t80 -90t28 -139.5q0 -95 -20 -179t-60.5 -147.5t-100.5 -99.5t-140 -36zM304 333q50 0 86.5 23.5t57 64t20.5 89.5q0 40 -17.5 70t-48 47.5t-70.5 17.5q-48 0 -85 -24t-57.5 -64t-20.5 -90q0 -39 17.5 -69.5t48 -47.5t69.5 -17z" />
    <glyph glyph-name="colon" unicode=":" horiz-adv-x="228" 
d="M85 -4q-24 0 -39.5 15.5t-15.5 39.5t15.5 39.5t39.5 15.5q26 0 40.5 -15.5t14.5 -39.5t-14.5 -39.5t-40.5 -15.5zM146 380q-24 0 -39.5 16t-15.5 39q0 25 15.5 40t39.5 15q26 0 40 -15t14 -40q0 -23 -14 -39t-40 -16z" />
    <glyph glyph-name="semicolon" unicode=";" horiz-adv-x="228" 
d="M74 -97q-12 -11 -23 -11t-17.5 6.5t-6.5 17.5t11 22q21 20 30.5 38.5t12.5 40.5l7 -21q-26 0 -42 15.5t-16 39.5t14.5 39.5t39.5 15.5t38.5 -16t13.5 -46q0 -26 -7 -51t-21 -47.5t-34 -42.5zM146 380q-24 0 -39.5 16t-15.5 39q0 25 15.5 40t39.5 15q26 0 40 -15t14 -40
q0 -23 -14 -39t-40 -16z" />
    <glyph glyph-name="less" unicode="&#x3c;" horiz-adv-x="600" 
d="M480 50l-388 189q-36 16 -36 43q0 17 10 28.5t27 18.5l455 193q12 5 22 2t16 -10.5t6.5 -17.5t-4.5 -19t-17 -14l-479 -200l7 40l408 -197q12 -5 16.5 -14.5t2.5 -19t-8 -17t-15.5 -9.5t-22.5 4z" />
    <glyph glyph-name="equal" unicode="=" horiz-adv-x="600" 
d="M105 356q-16 0 -25 6.5t-9 18.5q0 17 10 27t27 10h432q16 0 24.5 -6.5t8.5 -19.5q0 -17 -9.5 -26.5t-27.5 -9.5h-431zM73 157q-15 0 -24 6.5t-9 18.5q0 17 10 26.5t27 9.5h432q16 0 24.5 -6.5t8.5 -18.5q0 -17 -10 -26.5t-27 -9.5h-432z" />
    <glyph glyph-name="greater" unicode="&#x3e;" horiz-adv-x="600" 
d="M66 53q-12 -5 -22 -2t-16 10.5t-6.5 17t4.5 18.5t17 14l479 200l-7 -41l-408 198q-12 6 -16.5 15t-3 19t7 17.5t15.5 9.5t22 -4l390 -190q36 -17 36 -43q0 -16 -10 -27.5t-27 -19.5z" />
    <glyph glyph-name="question" unicode="?" horiz-adv-x="443" 
d="M201 180q-15 0 -21 10t-4 26q5 35 15.5 64t33 59t63.5 67q35 30 56 53.5t31 46t10 49.5q0 37 -24.5 61.5t-77.5 24.5q-44 0 -83.5 -14t-74.5 -41q-14 -9 -26 -9t-19.5 7t-10 17.5t2 22t17.5 21.5q42 34 97.5 51.5t108.5 17.5q56 0 94.5 -20t58.5 -54t20 -75
q0 -39 -16.5 -73.5t-45 -65t-66.5 -60.5q-37 -30 -59 -57t-33.5 -51.5t-17.5 -49.5q-3 -14 -9.5 -21t-19.5 -7zM177 -4q-25 0 -40.5 15.5t-15.5 39.5t15.5 39.5t40.5 15.5t39.5 -15.5t14.5 -39.5t-14.5 -39.5t-39.5 -15.5z" />
    <glyph glyph-name="at" unicode="@" horiz-adv-x="946" 
d="M495 -163q-95 0 -173 30.5t-134 87.5t-86.5 137.5t-30.5 180.5q0 98 31.5 179t90 139.5t138.5 90.5t178 32q115 0 202 -46.5t136 -129.5t49 -194q0 -87 -24 -151t-66.5 -99t-100.5 -35q-59 0 -90 34.5t-26 93.5l18 -5q-25 -60 -70.5 -91.5t-97.5 -31.5q-76 0 -119 48.5
t-43 133.5q0 73 28 130.5t77 90.5t111 33q55 0 89.5 -27t45.5 -76h-12l11 67q7 32 38 32q16 0 23.5 -9.5t4.5 -27.5l-39 -227q-2 -13 -3.5 -25t-1.5 -22q0 -33 15 -50t46 -17q38 0 67 29t45.5 81t16.5 121q0 95 -41.5 165t-116 109t-173.5 39q-112 0 -196 -48t-130.5 -134.5
t-46.5 -201.5q0 -119 44 -204t125 -130.5t191 -45.5q74 0 133.5 21t101.5 57q15 11 26.5 9.5t18 -11t5 -21.5t-14.5 -23q-48 -42 -117 -65t-153 -23zM449 117q44 0 79 27t55 74t20 107q0 56 -25 84t-77 28q-44 0 -79.5 -25t-55.5 -69t-20 -102q0 -60 27 -92t76 -32z" />
    <glyph glyph-name="A" unicode="A" horiz-adv-x="729" 
d="M40 -7q-15 0 -25 7.5t-12.5 19.5t6.5 27l382 636q9 15 20.5 22t27.5 7q17 0 27.5 -8.5t15.5 -24.5l176 -630q6 -19 3 -31.5t-12 -18.5t-22 -6q-18 0 -28.5 10t-15.5 29l-44 165l32 -17h-426l41 16l-104 -177q-7 -13 -17.5 -19.5t-24.5 -6.5zM427 609l-219 -374l-22 14
h366l-23 -15l-100 375h-2z" />
    <glyph glyph-name="B" unicode="B" horiz-adv-x="676" 
d="M98 0q-23 0 -34 13t-8 36l98 615q3 21 15.5 31t32.5 10h226q73 0 120.5 -20.5t70.5 -57.5t23 -87q0 -79 -48.5 -128.5t-129.5 -61.5v15q67 -11 105 -53t38 -104q0 -103 -65 -155.5t-184 -52.5h-260zM139 66h219q83 0 125 37t42 108q0 56 -37 84.5t-106 28.5h-202z
M191 390h201q78 0 123.5 36.5t45.5 105.5q0 52 -35 79.5t-109 27.5h-187z" />
    <glyph glyph-name="C" unicode="C" horiz-adv-x="673" 
d="M382 -9q-90 0 -158.5 34.5t-107.5 104.5t-39 177q0 87 25 161t72.5 129t115 86t151.5 31q63 0 117.5 -18.5t94.5 -53.5q12 -10 15 -22t-1 -23t-12.5 -19t-19.5 -8.5t-23 8.5q-39 33 -81 47t-93 14q-85 0 -146 -43t-94 -117.5t-33 -169.5q0 -86 27 -140t77 -78.5
t121 -24.5q46 0 86 13.5t80 44.5q13 9 24.5 8t19.5 -8.5t11 -18t-1 -22.5t-16 -21q-46 -36 -100 -53.5t-112 -17.5z" />
    <glyph glyph-name="D" unicode="D" horiz-adv-x="742" 
d="M98 0q-23 0 -34.5 13t-7.5 36l98 615q3 21 15.5 31t32.5 10h166q160 0 247 -77t87 -218q0 -85 -24 -159t-73 -130.5t-124 -88.5t-179 -32h-204zM142 70h162q84 0 143.5 26.5t96.5 73.5t54 108.5t17 130.5q0 110 -62.5 168t-185.5 58h-135z" />
    <glyph glyph-name="E" unicode="E" horiz-adv-x="583" 
d="M98 0q-24 0 -34.5 12.5t-7.5 36.5l98 615q3 21 15.5 31t32.5 10h369q18 0 27.5 -7t9.5 -20q0 -21 -11.5 -31.5t-29.5 -10.5h-337l-39 -244h310q18 0 27 -7t9 -20q0 -21 -11.5 -31.5t-28.5 -10.5h-317l-41 -254h331q18 0 27.5 -7t9.5 -21q0 -20 -11.5 -30.5t-29.5 -10.5
h-368z" />
    <glyph glyph-name="F" unicode="F" horiz-adv-x="548" 
d="M94 -7q-23 0 -32.5 13t-6.5 36l99 622q3 21 15.5 31t32.5 10h355q18 0 27.5 -7t9.5 -21q0 -19 -10.5 -30t-30.5 -11h-320l-40 -246h294q18 0 27.5 -7t9.5 -21q0 -19 -11 -30t-30 -11h-300l-46 -286q-7 -42 -43 -42z" />
    <glyph glyph-name="G" unicode="G" horiz-adv-x="726" 
d="M391 -9q-98 0 -168.5 35t-108.5 103t-38 167q0 93 25.5 169.5t73.5 132t116 86t155 30.5q64 0 120 -17.5t94 -51.5q13 -10 16.5 -23t0 -24t-11.5 -19t-20 -9t-26 10q-35 31 -80 45.5t-98 14.5q-87 0 -149 -43t-95.5 -120t-33.5 -179q0 -119 60.5 -176.5t176.5 -57.5
q49 0 90.5 9t78.5 23l-25 -43l40 249h-143q-18 0 -28 7.5t-10 20.5q0 18 11.5 27.5t29.5 9.5h180q19 0 29 -11t6 -31l-41 -261q-2 -16 -9 -25.5t-21 -14.5q-39 -15 -92 -24t-105 -9z" />
    <glyph glyph-name="H" unicode="H" horiz-adv-x="761" 
d="M90 -7q-21 0 -30 13t-5 37l100 627q3 21 14.5 31.5t31.5 10.5q21 0 30 -13t5 -37l-43 -269h422l45 277q3 21 14 31.5t32 10.5q20 0 29 -12.5t6 -37.5l-100 -627q-3 -20 -14 -31t-32 -11t-30 13t-5 37l44 279h-422l-46 -287q-3 -20 -14 -31t-32 -11z" />
    <glyph glyph-name="I" unicode="I" horiz-adv-x="257" 
d="M91 -7q-21 0 -30.5 13t-5.5 37l100 627q3 21 14.5 31.5t31.5 10.5q21 0 30 -12.5t5 -37.5l-100 -627q-3 -20 -13.5 -31t-31.5 -11z" />
    <glyph glyph-name="J" unicode="J" horiz-adv-x="324" 
d="M-6 -6q-20 -1 -31 8t-10 26q0 17 9 26t26 10l32 2q54 4 85.5 36t41.5 94l75 477q4 20 15 29.5t31 9.5t29.5 -12t5.5 -34l-76 -480q-9 -58 -32.5 -98.5t-65 -63.5t-104.5 -28z" />
    <glyph glyph-name="K" unicode="K" horiz-adv-x="625" 
d="M91 -7q-20 0 -29.5 12.5t-6.5 36.5l100 629q4 21 15 31t31 10t29.5 -12.5t5.5 -35.5l-44 -279h2l376 308q12 10 20.5 14.5t21.5 4.5q16 0 25.5 -10t9 -23.5t-13.5 -24.5l-385 -317v43l309 -330q11 -11 10.5 -24.5t-10.5 -23t-27 -9.5q-14 0 -23.5 6.5t-21.5 19.5
l-299 315h-2l-47 -301q-3 -20 -14 -30t-32 -10z" />
    <glyph glyph-name="L" unicode="L" horiz-adv-x="543" 
d="M95 0q-22 0 -32 12t-7 34l100 628q3 20 14 29t30 9q21 0 30.5 -12t6.5 -34l-94 -594h321q18 0 28 -7.5t10 -21.5q0 -21 -12 -32t-31 -11h-364z" />
    <glyph glyph-name="M" unicode="M" horiz-adv-x="856" 
d="M91 -2q-19 0 -27.5 11t-6.5 31l101 635q4 19 14 28t27 9q16 0 24.5 -7.5t15.5 -24.5l188 -512h-28l357 519q10 13 20 19t25 6q19 0 27.5 -11.5t5.5 -31.5l-101 -635q-2 -18 -12 -27t-28 -9t-27.5 11t-6.5 31l88 556h24l-327 -474q-7 -11 -15 -15.5t-20 -4.5
q-14 0 -22 6.5t-14 20.5l-174 466h21l-89 -561q-2 -18 -12 -27t-28 -9z" />
    <glyph glyph-name="N" unicode="N" horiz-adv-x="739" 
d="M88 -7q-18 0 -27 12t-6 34l101 637q4 19 14 27.5t25 8.5q16 0 24.5 -6.5t16.5 -20.5l338 -585h-21l91 574q3 20 14 29t30 9q18 0 26 -12t5 -34l-101 -636q-3 -18 -12 -27.5t-24 -9.5q-16 0 -25.5 7t-18.5 21l-338 584h21l-91 -574q-2 -19 -12.5 -28.5t-29.5 -9.5z" />
    <glyph glyph-name="O" unicode="O" horiz-adv-x="767" 
d="M368 -9q-88 0 -153.5 35t-102 103t-36.5 165q0 89 24 165.5t69.5 133.5t112 89t152.5 32q89 0 154.5 -35t101.5 -102.5t36 -164.5q0 -90 -24 -166.5t-69.5 -133.5t-112 -89t-152.5 -32zM370 64q87 0 147 45.5t91 124t31 177.5q0 116 -55.5 173t-152.5 57
q-86 0 -146 -45.5t-91 -123.5t-31 -177q0 -117 55 -174t152 -57z" />
    <glyph glyph-name="P" unicode="P" horiz-adv-x="633" 
d="M91 -7q-20 0 -29.5 13t-6.5 35l99 624q4 21 15.5 30.5t31.5 9.5h214q108 0 167 -48t59 -142q0 -107 -67.5 -170.5t-195.5 -63.5h-202l-40 -247q-3 -21 -13.5 -31t-31.5 -10zM187 350h195q87 0 132 41t45 119q0 66 -38.5 96.5t-112.5 30.5h-176z" />
    <glyph glyph-name="Q" unicode="Q" horiz-adv-x="767" 
d="M583 -140q7 -16 4.5 -28.5t-12 -19.5t-21 -8t-23 5t-18.5 21l-46 101q-14 30 -41 45t-70 15l72 29q42 -2 69 -18t48 -60zM368 -9q-88 0 -153.5 35t-102 103t-36.5 165q0 89 24 165.5t69.5 133.5t112 89t152.5 32q89 0 154.5 -35t101.5 -102.5t36 -164.5q0 -90 -24 -166.5
t-69.5 -133.5t-112 -89t-152.5 -32zM370 64q87 0 147 45.5t91 124t31 177.5q0 116 -55.5 173t-152.5 57q-86 0 -146 -45.5t-91 -123.5t-31 -177q0 -117 55 -174t152 -57z" />
    <glyph glyph-name="R" unicode="R" horiz-adv-x="669" 
d="M90 -7q-20 0 -29 13t-5 36l98 622q4 21 16 31t32 10h210q114 0 171.5 -50.5t57.5 -139.5q0 -71 -33.5 -119.5t-91.5 -72t-132 -22.5v13h16q44 0 72 -25t45 -71l65 -170q7 -17 5.5 -29.5t-11 -19t-26.5 -6.5q-16 0 -26 8.5t-17 27.5l-73 190q-16 43 -42 61t-76 18h-138
l-41 -264q-3 -20 -14.5 -30.5t-32.5 -10.5zM189 363h200q80 0 125 38t45 109q0 63 -37 95t-119 32h-171z" />
    <glyph glyph-name="S" unicode="S" horiz-adv-x="615" 
d="M297 -9q-45 0 -89 7t-84 22t-73 40q-13 8 -16.5 19t-1 22.5t10 19.5t19.5 9t26 -8q48 -33 101.5 -45.5t113.5 -12.5q81 0 130 33.5t49 91.5q0 40 -29 68.5t-102 44.5l-103 25q-70 17 -112 58t-42 118q0 48 20.5 87t56.5 66.5t84 42.5t102 15q58 0 119 -17t107 -56
q11 -8 14.5 -19.5t1 -22.5t-10.5 -18t-20 -7.5t-27 9.5q-39 31 -87.5 44.5t-98.5 13.5t-91 -16.5t-64 -46t-23 -70.5q0 -50 25.5 -74.5t75.5 -37.5l104 -24q94 -22 138.5 -66.5t44.5 -107.5q0 -50 -21 -89t-58 -65t-85.5 -39.5t-104.5 -13.5z" />
    <glyph glyph-name="T" unicode="T" horiz-adv-x="602" 
d="M263 -7q-20 0 -29 13t-5 36l93 592h-219q-18 0 -28.5 8t-10.5 22q0 20 12 30.5t31 10.5h528q19 0 29 -7.5t10 -21.5q0 -20 -11.5 -31t-31.5 -11h-227l-95 -600q-2 -20 -13.5 -30.5t-32.5 -10.5z" />
    <glyph glyph-name="U" unicode="U" horiz-adv-x="728" 
d="M335 -9q-66 0 -117.5 19t-84 57.5t-44 96t0.5 133.5l60 376q4 20 15 29.5t31 9.5t29.5 -12t5.5 -35l-59 -375q-18 -113 25 -169.5t142 -56.5t155 50t74 159l64 400q3 20 14.5 29.5t30.5 9.5q20 0 29.5 -12t5.5 -35l-62 -396q-15 -91 -53 -153t-103 -93.5t-159 -31.5z" />
    <glyph glyph-name="V" unicode="V" horiz-adv-x="688" 
d="M306 -7q-19 0 -30.5 10t-17.5 30l-171 621q-4 16 -0.5 27t13 17.5t23.5 6.5q16 0 26 -8.5t16 -28.5l163 -602h-33l358 609q10 16 20.5 23t27.5 7t26 -7.5t10.5 -20t-7.5 -26.5l-373 -626q-10 -16 -21.5 -24t-29.5 -8z" />
    <glyph glyph-name="W" unicode="W" horiz-adv-x="1101" 
d="M273 -7q-18 0 -28 10.5t-14 31.5l-119 626q-5 24 6 37.5t32 13.5q16 0 26 -9t14 -30l110 -603h-35l308 609q9 17 20.5 25t27.5 8q15 0 24.5 -10t13.5 -33l111 -599h-31l307 611q8 16 18.5 23.5t25.5 7.5q25 0 33 -16t-3 -39l-321 -631q-9 -17 -20.5 -25t-30.5 -8
q-17 0 -27.5 10.5t-14.5 31.5l-108 575h21l-296 -584q-9 -17 -20 -25t-30 -8z" />
    <glyph glyph-name="X" unicode="X" horiz-adv-x="650" 
d="M43 -7q-16 0 -25.5 9t-9.5 23.5t12 28.5l287 322v-31l-179 307q-9 16 -7.5 29.5t12 22t26.5 8.5q15 0 23.5 -7t18.5 -24l158 -277h-19l245 283q12 13 22 19t25 6t25 -9t10.5 -23t-11.5 -28l-276 -311v38l191 -326q10 -15 8 -28.5t-12.5 -22.5t-26.5 -9t-24.5 7.5
t-18.5 23.5l-171 295h27l-264 -301q-12 -13 -22 -19t-24 -6z" />
    <glyph glyph-name="Y" unicode="Y" horiz-adv-x="596" 
d="M258 -7q-19 0 -27.5 13t-6.5 35l52 324l8 -57l-194 344q-8 16 -7 29.5t11 22t26 8.5t25 -7t18 -24l164 -290h-22l262 296q12 14 22 19.5t24 5.5q15 0 24.5 -9t10 -23t-12.5 -28l-305 -344l28 57l-53 -331q-6 -41 -47 -41z" />
    <glyph glyph-name="Z" unicode="Z" horiz-adv-x="589" 
d="M50 0q-13 0 -22 7t-12 18t1.5 25.5t17.5 29.5l501 586l1 -32h-391q-18 0 -27.5 8t-9.5 21q0 22 12 32t30 10h431q17 0 27 -7t12.5 -18t-2.5 -25.5t-18 -28.5l-502 -586l-2 31h407q18 0 28 -7t10 -21q0 -22 -12 -32.5t-30 -10.5h-450z" />
    <glyph glyph-name="bracketleft" unicode="[" horiz-adv-x="315" 
d="M93 -180q-21 0 -33.5 14.5t-9.5 35.5l127 802q3 14 13.5 23.5t25.5 9.5h126q19 0 30 -8t11 -22q0 -18 -10.5 -26t-28.5 -8h-91l-120 -757h90q17 0 23.5 -7.5t6.5 -19.5q0 -16 -10 -26.5t-29 -10.5h-121z" />
    <glyph glyph-name="backslash" unicode="\" horiz-adv-x="283" 
d="M186 -32l-122 743q-2 13 3 22t14 13.5t19 4t18 -7.5t10 -22l123 -744q2 -13 -3 -22.5t-14 -14t-19.5 -3t-18.5 8.5t-10 22z" />
    <glyph glyph-name="bracketright" unicode="]" horiz-adv-x="315" 
d="M-21 -180q-19 0 -29.5 8t-10.5 22q0 18 10.5 26t27.5 8h91l120 757h-89q-18 0 -24.5 8t-6.5 19q0 17 10 27t29 10h121q21 0 33.5 -14.5t9.5 -35.5l-127 -802q-2 -14 -12.5 -23.5t-26.5 -9.5h-126z" />
    <glyph glyph-name="asciicircum" unicode="^" horiz-adv-x="600" 
d="M77 133q-20 0 -26 14t5 32l261 428q9 16 19.5 21.5t25.5 5.5q29 0 38 -34l125 -423q6 -20 -2 -32t-26 -12q-15 0 -21.5 8.5t-10.5 20.5l-126 433h40l-266 -439q-6 -10 -14 -16.5t-22 -6.5z" />
    <glyph glyph-name="underscore" unicode="_" horiz-adv-x="500" 
d="M1 -53q-16 0 -23.5 6t-7.5 17q0 15 10 22.5t23 7.5h411q16 0 23 -6.5t7 -16.5q0 -14 -10 -22t-23 -8h-410z" />
    <glyph glyph-name="grave" unicode="`" horiz-adv-x="392" 
d="M293 558l-107 153q-9 14 -8 25t9 18.5t19.5 9.5t23 -3.5t19.5 -20.5l90 -156q6 -13 3 -22.5t-11.5 -14.5t-19 -3t-18.5 14z" />
    <glyph glyph-name="a" unicode="a" horiz-adv-x="530" 
d="M199 -9q-42 0 -78.5 19t-58.5 52t-22 75q0 52 28.5 83.5t89.5 46.5t157 15h80l-8 -53h-61q-77 0 -121.5 -8t-63.5 -27t-19 -52q0 -44 29.5 -67t67.5 -23q37 0 68.5 16t53.5 47.5t29 74.5l19 122q10 58 -14.5 88t-88.5 30q-37 0 -70 -7t-66 -26q-13 -7 -24 -6t-18 8.5
t-8 17.5t5 20t21 18q38 21 82.5 30.5t86.5 9.5q68 0 108.5 -25.5t55.5 -71.5t5 -108l-41 -257q-2 -20 -13.5 -30t-30.5 -10q-18 0 -26.5 12t-5.5 34l13 81l8 -10q-13 -40 -39.5 -66.5t-60.5 -39.5t-69 -13z" />
    <glyph glyph-name="b" unicode="b" horiz-adv-x="583" 
d="M295 -9q-58 0 -104 29.5t-63 89.5l8 12l-13 -88q-3 -20 -14 -30.5t-31 -10.5q-19 0 -28 12.5t-6 35.5l100 630q3 21 15 31t31 10t28 -12.5t6 -35.5l-45 -281h-11q26 52 73.5 82t109.5 30q57 0 99.5 -25t65.5 -72t23 -111q0 -80 -28.5 -147.5t-83 -108t-132.5 -40.5z
M285 56q56 0 94 31t58 83t20 114q0 72 -35 109t-96 37q-55 0 -93.5 -31t-58.5 -82t-20 -115q0 -71 35 -108.5t96 -37.5z" />
    <glyph glyph-name="c" unicode="c" horiz-adv-x="463" 
d="M258 -9q-72 0 -119 27t-70.5 76t-23.5 113q0 54 15 105.5t47 92.5t81 65.5t117 24.5q38 0 73.5 -10t61.5 -28q14 -8 20 -19.5t4 -22t-8.5 -18t-16.5 -8.5t-21 6q-25 18 -52 26t-58 8q-49 0 -83 -19t-55.5 -51t-31.5 -71.5t-10 -79.5q0 -68 32.5 -109.5t107.5 -41.5
q24 0 50 7.5t52 24.5q10 7 20 5.5t16.5 -8.5t8.5 -16.5t-1.5 -19.5t-15.5 -18q-27 -19 -66 -30t-74 -11z" />
    <glyph glyph-name="d" unicode="d" horiz-adv-x="583" 
d="M231 -9q-56 0 -98 25.5t-65.5 72.5t-23.5 110q0 81 28.5 148.5t83 107.5t132.5 40q58 0 104 -29t63 -90l-7 1l47 296q3 20 14.5 29.5t31.5 9.5q19 0 28 -12t5 -35l-100 -631q-3 -20 -14.5 -30.5t-31.5 -10.5q-19 0 -27.5 13t-4.5 36l12 75l7 -14q-26 -51 -73.5 -81.5
t-110.5 -30.5zM257 56q56 0 94 31t58 83t20 114q0 72 -35 109t-96 37q-55 0 -93.5 -31t-58.5 -82t-20 -115q0 -71 35 -108.5t96 -37.5z" />
    <glyph glyph-name="e" unicode="e" horiz-adv-x="532" 
d="M270 -9q-69 0 -120 26t-78.5 74.5t-27.5 114.5q0 79 32 144.5t90 105t138 39.5q57 0 95.5 -20t61.5 -54t30 -77.5t2 -89.5q-2 -17 -9 -22.5t-22 -5.5h-355l8 53h328l-18 -13q7 47 -3 85t-39 61t-80 23q-54 0 -90 -24.5t-56.5 -62.5t-27.5 -79l-4 -24q-14 -85 26 -137
t123 -52q36 0 70 9t64 29q14 9 24.5 8.5t17 -7t8 -16t-3 -20t-16.5 -19.5q-34 -24 -80 -36.5t-88 -12.5z" />
    <glyph glyph-name="f" unicode="f" horiz-adv-x="333" 
d="M103 -7q-19 0 -27.5 12.5t-5.5 35.5l61 382h-60q-16 0 -24 6.5t-8 18.5q0 18 10.5 28t28.5 10h74l-13 -11l7 49q13 81 64 128.5t141 52.5l31 2q14 1 21.5 -4.5t10.5 -15t0.5 -19t-9 -16.5t-17.5 -8l-30 -2q-58 -4 -90 -33.5t-41 -86.5l-7 -44l-7 8h113q16 0 24 -6t8 -18
q0 -19 -10.5 -29t-28.5 -10h-107l-62 -390q-7 -40 -47 -40z" />
    <glyph glyph-name="g" unicode="g" horiz-adv-x="586" 
d="M248 -189q-58 0 -108.5 16t-90.5 42q-11 7 -14.5 17t-0.5 19.5t10 16.5t17.5 8.5t22.5 -5.5q35 -23 72 -36t83 -13q64 0 104 32t51 101l19 115l8 -1q-25 -52 -72.5 -82t-110.5 -30q-58 0 -101.5 24.5t-68 69.5t-24.5 105q0 56 16.5 107.5t48.5 91.5t77.5 63t103.5 23
q60 0 106 -29t63 -90l-10 -13l14 91q4 20 15.5 29.5t31.5 9.5q18 0 26.5 -12t5.5 -35l-69 -433q-16 -100 -72 -151t-153 -51zM259 77q57 0 95.5 30t58.5 80t20 107q0 64 -35 100t-98 36q-56 0 -95 -30.5t-59 -79.5t-20 -106q0 -66 35 -101.5t98 -35.5z" />
    <glyph glyph-name="h" unicode="h" horiz-adv-x="568" 
d="M77 -7q-19 0 -28 13t-5 36l99 629q4 21 15.5 31t31.5 10q19 0 28 -12t5 -35l-46 -289h-11q25 57 73.5 88t115.5 31q54 0 90.5 -21.5t52 -66t4.5 -113.5l-40 -260q-3 -20 -15 -30.5t-32 -10.5q-19 0 -28 12.5t-6 35.5l40 253q12 68 -11 101.5t-79 33.5q-73 0 -116 -45
t-55 -120l-36 -230q-6 -41 -47 -41z" />
    <glyph glyph-name="i" unicode="i" horiz-adv-x="232" 
d="M76 -7q-19 0 -27.5 12.5t-5.5 35.5l66 412q3 20 14.5 30t31.5 10q19 0 28 -12t5 -35l-65 -413q-3 -20 -14.5 -30t-32.5 -10zM175 603q-24 0 -36 12t-10 33q1 26 17.5 40t43.5 14q24 0 36 -11.5t10 -33.5q-2 -26 -18 -40t-43 -14z" />
    <glyph glyph-name="j" unicode="j" horiz-adv-x="236" 
d="M-83 -191q-14 0 -22.5 6t-11 15.5t0 19t9.5 16t20 7.5q52 1 84 27.5t41 84.5l74 468q4 20 15 30t31 10q19 0 28 -12t6 -35l-73 -456q-9 -62 -34 -101t-66.5 -58.5t-101.5 -21.5zM175 603q-23 0 -35 12t-11 33q2 26 18.5 40t43.5 14q24 0 36 -11.5t10 -33.5
q-2 -26 -18 -40t-44 -14z" />
    <glyph glyph-name="k" unicode="k" horiz-adv-x="500" 
d="M77 -7q-19 0 -28 12.5t-5 34.5l100 633q3 20 14.5 29.5t31.5 9.5q19 0 28 -12.5t5 -35.5l-62 -394h2l240 201q13 11 23 16.5t24 5.5q16 0 24 -9.5t6 -23t-15 -25.5l-248 -210l3 47l205 -220q12 -13 11.5 -26.5t-9.5 -23t-25 -9.5t-26.5 7.5t-24.5 23.5l-194 206h-2
l-32 -198q-5 -39 -46 -39z" />
    <glyph glyph-name="l" unicode="l" horiz-adv-x="296" 
d="M186 -9q-71 0 -104 42.5t-20 125.5l82 513q3 20 14.5 30t31.5 10q19 0 28 -12.5t5 -35.5l-80 -505q-9 -53 8 -76t57 -23q14 0 21.5 1.5t12.5 1.5q8 0 12 -5t4 -19q0 -19 -9 -29.5t-23 -14.5q-8 -1 -19.5 -2.5t-20.5 -1.5z" />
    <glyph glyph-name="m" unicode="m" horiz-adv-x="856" 
d="M78 -7q-19 0 -27.5 12t-5.5 35l66 414q4 20 15 29.5t30 9.5t27.5 -12.5t5.5 -33.5l-13 -84l-9 12q27 59 72 89.5t102 30.5q58 0 94.5 -31t44.5 -92l-12 3q24 57 71 88.5t111 31.5q51 0 86 -21.5t49 -66.5t3 -113l-41 -262q-2 -19 -14 -29t-32 -10q-19 0 -28 12t-6 35
l40 258q10 65 -10 98t-71 33q-61 0 -101 -44t-52 -121l-37 -232q-2 -19 -14 -29t-32 -10t-28.5 12t-5.5 35l41 258q10 65 -10 98t-71 33q-61 0 -101 -44t-53 -121l-36 -232q-6 -39 -48 -39z" />
    <glyph glyph-name="n" unicode="n" horiz-adv-x="568" 
d="M77 -6q-19 0 -27.5 13t-5.5 35l65 411q4 20 15.5 30t31.5 10q18 0 26.5 -11.5t4.5 -33.5l-13 -84l-8 12q25 57 73.5 88t115.5 31q54 0 90.5 -21.5t52 -66t4.5 -113.5l-41 -261q-2 -20 -14 -29.5t-32 -9.5q-19 0 -28 12.5t-6 34.5l40 253q12 68 -11 101.5t-79 33.5
q-73 0 -116 -45t-55 -120l-36 -230q-6 -40 -47 -40z" />
    <glyph glyph-name="o" unicode="o" horiz-adv-x="556" 
d="M255 -9q-65 0 -112.5 26t-73 74t-25.5 114q0 62 18.5 114.5t52.5 92.5t80.5 61.5t105.5 21.5q65 0 112.5 -26t72.5 -73.5t25 -114.5q0 -62 -18 -114.5t-52 -92t-81 -61.5t-105 -22zM258 56q55 0 93.5 31t58 83t19.5 114q0 72 -34.5 109t-96.5 37q-55 0 -93.5 -31
t-58.5 -82t-20 -115q0 -71 35 -108.5t97 -37.5z" />
    <glyph glyph-name="p" unicode="p" horiz-adv-x="583" 
d="M48 -187q-19 0 -28 12.5t-5 34.5l94 592q3 21 14.5 31t31.5 10q19 0 27.5 -12t4.5 -35l-12 -76l-7 14q27 52 74 81.5t109 29.5q57 0 99.5 -25t65.5 -72t23 -111q0 -80 -28.5 -147.5t-83 -108t-132.5 -40.5q-58 0 -104 29.5t-63 89.5h8l-42 -258q-2 -20 -13.5 -29.5
t-32.5 -9.5zM285 56q56 0 94 31t58 83t20 114q0 72 -35 109t-96 37q-55 0 -93.5 -31t-58.5 -82t-20 -115q0 -71 35 -108.5t96 -37.5z" />
    <glyph glyph-name="q" unicode="q" horiz-adv-x="583" 
d="M399 -187q-19 0 -27.5 12.5t-5.5 34.5l38 243h11q-26 -51 -73.5 -81.5t-109.5 -30.5q-57 0 -99 25.5t-65.5 72.5t-23.5 110q0 81 28.5 148.5t83.5 107.5t133 40q58 0 103.5 -29t62.5 -90l-8 -12l14 89q4 21 14.5 30.5t30.5 9.5q19 0 28 -12t6 -35l-94 -592
q-3 -20 -15 -30.5t-32 -10.5zM257 56q56 0 94 31t58 83t20 114q0 72 -35 109t-96 37q-55 0 -93.5 -31t-58.5 -82t-20 -115q0 -71 35 -108.5t96 -37.5z" />
    <glyph glyph-name="r" unicode="r" horiz-adv-x="358" 
d="M77 -7q-19 0 -27.5 12t-5.5 35l65 414q4 20 15.5 29.5t30.5 9.5q18 0 27 -12t6 -34l-12 -77h-11q21 60 70.5 92t111.5 34q22 1 30 -5.5t8 -22.5q0 -21 -10 -30.5t-32 -12.5l-20 -1q-80 -7 -115 -48t-46 -108l-38 -236q-2 -19 -14 -29t-33 -10z" />
    <glyph glyph-name="s" unicode="s" horiz-adv-x="481" 
d="M223 -9q-48 0 -91.5 11.5t-75.5 30.5q-12 7 -16.5 17.5t-3 20.5t8 17t17 8t23.5 -6q32 -19 67 -28t72 -9q54 0 84.5 21.5t30.5 60.5q0 25 -16.5 41.5t-48.5 23.5l-94 23q-50 12 -78.5 43.5t-28.5 77.5q0 43 24 77.5t69 54t106 19.5q40 0 81 -11.5t68 -32.5
q12 -9 16.5 -19.5t2.5 -20t-9 -15.5t-17.5 -6.5t-23.5 7.5q-25 19 -56 27.5t-65 8.5q-56 0 -88 -23t-32 -62q0 -24 15 -41.5t45 -24.5l95 -23q53 -13 82.5 -42.5t29.5 -76.5q0 -70 -53 -109.5t-140 -39.5z" />
    <glyph glyph-name="t" unicode="t" horiz-adv-x="350" 
d="M238 -9q-57 0 -93.5 22t-51 61t-6.5 93l41 256h-62q-17 0 -26.5 7t-9.5 20q0 18 12 27t31 9h65l18 118q4 19 15 28.5t30 9.5q20 0 29 -12t6 -34l-17 -110h120q18 0 27 -6t9 -20q0 -17 -10.5 -27t-29.5 -10h-127l-39 -248q-9 -61 13 -88t69 -27q21 0 33 4t20 4
q10 0 15 -5.5t5 -19.5q0 -20 -6.5 -29t-19.5 -14q-11 -4 -28.5 -6.5t-31.5 -2.5z" />
    <glyph glyph-name="u" unicode="u" horiz-adv-x="561" 
d="M211 -9q-52 0 -88.5 22t-52 66.5t-4.5 113.5l41 262q4 20 15 29t30 9q20 0 29.5 -11.5t5.5 -33.5l-40 -255q-11 -68 11 -101.5t77 -33.5q70 0 112.5 45t53.5 120l36 232q4 20 15 29t30 9q21 0 30 -11t6 -33l-66 -417q-6 -39 -44 -39q-19 0 -28 11t-6 33l13 87l9 -12
q-25 -58 -73 -89.5t-112 -31.5z" />
    <glyph glyph-name="v" unicode="v" horiz-adv-x="515" 
d="M221 -7q-21 0 -32.5 10.5t-17.5 31.5l-109 400q-4 17 -1 30t13 20.5t26 7.5q17 0 26 -8t14 -29l99 -396h-27l232 405q9 15 18.5 21.5t25.5 6.5t25.5 -7.5t10 -19.5t-8.5 -27l-243 -413q-10 -17 -22 -25t-29 -8z" />
    <glyph glyph-name="w" unicode="w" horiz-adv-x="841" 
d="M205 -7q-17 0 -29.5 10t-16.5 31l-84 400q-4 18 -1 31t13 20.5t24 7.5q18 0 26 -8.5t11 -28.5l76 -396h-25l211 405q8 15 19 21.5t26 6.5t26 -8t15 -27l78 -398h-23l207 403q9 17 19 23.5t26 6.5t24.5 -7t9 -19t-6.5 -26l-219 -415q-9 -16 -22 -24.5t-30 -8.5t-29.5 10.5
t-17.5 30.5l-80 389h33l-207 -396q-9 -17 -22 -25.5t-31 -8.5z" />
    <glyph glyph-name="x" unicode="x" horiz-adv-x="525" 
d="M45 -7q-17 0 -26 8.5t-9 21.5t11 24l211 221l-1 -38l-132 205q-10 17 -8.5 30t11.5 20.5t23 7.5t23.5 -6t19.5 -20l113 -178h-22l168 182q11 12 20 17t24 5q17 0 26 -8.5t8.5 -20.5t-10.5 -24l-196 -208l-1 37l141 -217q12 -16 9.5 -29.5t-12.5 -21.5t-23 -8t-24 7
t-19 19l-122 192l25 -2l-185 -194q-11 -11 -20 -16.5t-23 -5.5z" />
    <glyph glyph-name="y" unicode="y" horiz-adv-x="514" 
d="M119 -187q-16 0 -24.5 8t-8.5 20.5t8 26.5l93 157l-5 -35l-120 446q-5 17 -2 30t13.5 20t25.5 7q18 0 26.5 -8t13.5 -29l99 -397h-28l233 405q9 15 19 22t25 7q16 0 25.5 -7.5t10.5 -20t-8 -27.5l-352 -595q-8 -15 -18 -22.5t-26 -7.5z" />
    <glyph glyph-name="z" unicode="z" horiz-adv-x="463" 
d="M55 0q-13 0 -21.5 5.5t-12.5 14.5t-1 19.5t12 21.5l342 383l3 -20h-262q-16 0 -24.5 7t-8.5 19q0 17 10 26.5t27 9.5h304q13 0 22 -5.5t12 -14.5t-0.5 -20.5t-14.5 -23.5l-341 -382l-3 23h275q34 0 34 -26q0 -17 -10 -27t-27 -10h-315z" />
    <glyph glyph-name="braceleft" unicode="{" horiz-adv-x="352" 
d="M202 -180q-41 0 -66.5 12.5t-35 35t-4.5 54.5l35 227q8 47 -7.5 62.5t-52.5 17.5q-11 1 -18 9t-7 19q0 16 9 27t22 12q42 1 62.5 18t27.5 62l36 227q9 50 37 76t76 26h67q19 0 27 -8.5t8 -22.5q0 -15 -10 -24t-25 -9h-50q-21 0 -33.5 -11t-16.5 -34l-36 -228
q-5 -36 -22.5 -60t-40 -35.5t-43.5 -11.5v4q21 0 39.5 -12t28.5 -35.5t4 -60.5l-35 -229q-4 -23 4.5 -33.5t30.5 -10.5h43q14 0 23 -8t9 -21q0 -17 -8.5 -26t-26.5 -9h-51z" />
    <glyph glyph-name="bar" unicode="|" horiz-adv-x="265" 
d="M64 -187q-19 0 -27.5 12.5t-5.5 35.5l129 811q3 21 14.5 30.5t31.5 9.5q19 0 28 -12t5 -36l-128 -811q-6 -40 -47 -40z" />
    <glyph glyph-name="braceright" unicode="}" horiz-adv-x="352" 
d="M-24 -180q-19 0 -27.5 8.5t-8.5 22.5q0 16 10.5 24.5t25.5 8.5h50q21 0 33 11t16 34l36 228q6 37 23.5 60.5t40 35t42.5 11.5v-4q-20 0 -39 12t-28.5 36t-4.5 60l35 229q4 23 -4.5 33.5t-30.5 10.5h-43q-13 0 -22.5 8t-9.5 21q0 18 8.5 26.5t27.5 8.5h50q42 0 67 -12
t35 -35t5 -55l-36 -227q-7 -47 8 -62.5t52 -17.5q13 -1 19 -8.5t6 -19.5q0 -16 -8.5 -27t-22.5 -12q-42 0 -62 -17.5t-28 -62.5l-36 -227q-8 -49 -36.5 -75.5t-76.5 -26.5h-66z" />
    <glyph glyph-name="asciitilde" unicode="~" horiz-adv-x="600" 
d="M420 217q-35 0 -66 14t-59 29q-27 16 -50.5 26.5t-46.5 10.5q-28 0 -47 -14t-34 -34q-8 -11 -19.5 -12.5t-21 4t-12.5 16t6 24.5q24 39 54 58t70 19q35 0 67.5 -14.5t60.5 -30.5q27 -14 49 -25t44 -11q30 0 49 14.5t33 33.5q8 11 19 12.5t21 -4t12.5 -16t-5.5 -24.5
q-25 -38 -55 -57t-69 -19z" />
    <glyph glyph-name="uni00A0" unicode="&#xa0;" horiz-adv-x="258" 
 />
    <glyph glyph-name="exclamdown" unicode="&#xa1;" horiz-adv-x="228" 
d="M50 -187q-24 0 -36 15t-6 41l86 414q3 12 10 19t19 7q13 0 19 -7.5t5 -23.5l-46 -416q-2 -24 -15 -36.5t-36 -12.5zM146 380q-24 0 -39.5 16t-15.5 39q0 25 15.5 40t39.5 15q26 0 40 -15t14 -40q0 -23 -14 -39t-40 -16z" />
    <glyph glyph-name="cent" unicode="&#xa2;" horiz-adv-x="600" 
d="M255 -122q-14 0 -23 9t-6 29l16 100l10 -16q-55 10 -91 38.5t-53.5 72t-17.5 96.5q0 51 14 99.5t43 88.5t75 66t110 30l-20 -27l18 118q3 15 12.5 23t24.5 8q14 0 24 -9t7 -29l-17 -108l-11 25q38 -2 73.5 -14t58.5 -31q11 -7 14.5 -17.5t0.5 -19.5t-10 -15t-18 -6.5
t-23 6.5q-23 16 -49.5 23.5t-58.5 7.5q-50 0 -85.5 -19t-57 -50.5t-32 -70.5t-10.5 -78q0 -65 33.5 -106t112.5 -41q24 0 51 7.5t52 24.5q12 7 21.5 5.5t16 -8.5t8.5 -17t-2 -20t-16 -16q-36 -25 -80.5 -35t-78.5 -6l18 17l-16 -104q-2 -15 -12 -23t-26 -8z" />
    <glyph glyph-name="sterling" unicode="&#xa3;" horiz-adv-x="600" 
d="M50 0q-21 0 -31.5 9.5t-10.5 22.5q0 19 12.5 28.5t31.5 9.5h90l-27 -21l47 292l15 -18h-86q-19 0 -26.5 7.5t-7.5 19.5q0 14 11 24t27 10h83l-14 -26l25 152q11 68 39.5 113t77 68t118.5 23q52 0 99.5 -16.5t79.5 -47.5q12 -9 14.5 -20.5t-1 -21.5t-12 -16.5t-19.5 -6
t-22 9.5q-30 28 -64 38.5t-74 10.5q-66 0 -105 -33t-49 -97l-24 -150l-9 20h160q19 0 26.5 -8t7.5 -19q0 -15 -11 -24.5t-26 -9.5h-154l-40 -253h286q21 0 30.5 -9t9.5 -22q0 -17 -12.5 -28t-31.5 -11h-433z" />
    <glyph glyph-name="currency" unicode="&#xa4;" horiz-adv-x="600" 
d="M51 -11q-9 9 -9 22t9 22l59 60q-23 32 -36.5 71t-13.5 81q0 43 13 82t37 70l-59 61q-9 9 -9 21t9 22q9 9 21.5 9t22.5 -11l58 -59q30 25 68 39t80 14t79 -13.5t68 -37.5l55 57q10 11 23.5 11.5t22.5 -9.5q10 -9 10 -22t-11 -23l-57 -58q24 -32 37.5 -71t13.5 -82
t-13.5 -82t-38.5 -71l58 -59q10 -10 10 -22.5t-10 -21.5q-8 -8 -21 -8t-22 10l-57 58q-30 -24 -67.5 -38t-79.5 -14t-80 14t-69 38l-58 -59q-9 -9 -21.5 -9.5t-21.5 8.5zM301 67q46 0 84 24t60 64.5t22 89.5t-22 89.5t-60 65t-84 23.5q-46 0 -84.5 -24t-61 -64.5
t-22.5 -89.5t22.5 -89.5t60.5 -64.5t85 -24z" />
    <glyph glyph-name="yen" unicode="&#xa5;" horiz-adv-x="600" 
d="M261 -7q-20 0 -29 12.5t-6 35.5l21 134h-154q-17 0 -26 7.5t-9 20.5q0 14 10.5 23t24.5 9h164l15 93h-154q-18 0 -26.5 7.5t-8.5 20.5q0 14 10.5 23t24.5 9h138l-2 -14l-158 280q-8 15 -6 28t12 21.5t26 8.5q15 0 23 -6.5t16 -23.5l162 -292h-21l259 298q10 13 19 18.5
t23 5.5q15 0 24.5 -9t11 -22t-10.5 -27l-245 -280l2 14h127q18 0 26.5 -7.5t8.5 -20.5q0 -14 -10 -23t-25 -9h-164l-14 -93h154q18 0 26.5 -7.5t8.5 -20.5q0 -14 -10.5 -23t-24.5 -9h-164l-23 -142q-6 -40 -46 -40z" />
    <glyph glyph-name="brokenbar" unicode="&#xa6;" horiz-adv-x="265" 
d="M152 365q-19 0 -28 12.5t-5 35.5l41 259q4 21 15.5 30.5t31.5 9.5q19 0 28 -12t5 -36l-41 -259q-7 -40 -47 -40zM65 -187q-19 0 -28 12.5t-5 35.5l41 259q4 21 15.5 30.5t31.5 9.5q19 0 28 -12t5 -35l-41 -260q-6 -40 -47 -40z" />
    <glyph glyph-name="section" unicode="&#xa7;" horiz-adv-x="545" 
d="M203 -189q-57 0 -104 13t-81 37q-13 8 -17 18t-1.5 20t10 16.5t18 7t23.5 -7.5q30 -21 67.5 -31.5t82.5 -10.5t77 16t49.5 43.5t17.5 62.5q0 39 -17.5 61.5t-57.5 46.5l-100 60q-37 23 -62.5 47.5t-38.5 52.5t-13 57q0 44 23 83t65 67l-3 -12q-6 15 -10 31.5t-4 36.5
q0 57 30.5 99t80.5 65.5t110 23.5q49 0 91.5 -11.5t80.5 -38.5q13 -8 17 -18.5t1 -19.5t-10.5 -15.5t-18.5 -6.5t-23 8q-27 19 -63.5 29.5t-72.5 10.5q-44 0 -76.5 -16t-49.5 -43.5t-17 -62.5q0 -39 17 -62.5t58 -48.5l97 -57q39 -23 65 -48t38.5 -52t12.5 -57
q0 -44 -23 -83.5t-66 -66.5l2 14q8 -14 12 -31t4 -38q0 -57 -30.5 -99.5t-80 -66t-110.5 -23.5zM130 332q0 -32 22 -58.5t65 -52.5l88 -53q29 -18 48.5 -35t31.5 -36l-11 2q23 21 35 46t12 48q0 32 -22.5 58.5t-66.5 52.5l-85 50q-28 17 -48 34.5t-32 37.5l12 2
q-25 -21 -37 -46.5t-12 -49.5z" />
    <glyph glyph-name="dieresis" unicode="&#xa8;" horiz-adv-x="467" 
d="M379 606q-19 0 -29.5 9.5t-10.5 27.5q0 26 14 41t40 15q20 0 30 -10t10 -27q0 -26 -14 -41t-40 -15zM205 606q-20 0 -30.5 9.5t-10.5 27.5q0 26 14.5 41t39.5 15q20 0 30.5 -10t10.5 -27q0 -26 -14 -41t-40 -15z" />
    <glyph glyph-name="copyright" unicode="&#xa9;" horiz-adv-x="815" 
d="M425 -9q-76 0 -142 27.5t-115.5 77t-77 115.5t-27.5 142q0 77 27.5 142.5t77 114.5t115 76.5t142.5 27.5t142.5 -27.5t114.5 -76.5t76.5 -114.5t27.5 -142.5q0 -76 -27.5 -142t-76.5 -115.5t-114.5 -77t-142.5 -27.5zM425 35q67 0 124.5 24t100 67.5t66.5 101t24 125.5
t-24 125.5t-66.5 100.5t-100 67t-124.5 24q-68 0 -125.5 -24t-100 -67t-66.5 -100.5t-24 -125.5t24 -125.5t66.5 -101t100 -67.5t125.5 -24zM438 137q-97 0 -152.5 60t-55.5 159q0 98 55.5 155t152.5 57q34 0 68 -10.5t60 -31.5q9 -6 12 -14.5t1 -17t-8.5 -14.5t-15.5 -7
t-20 6q-24 17 -47 23.5t-46 6.5q-66 0 -103 -40.5t-37 -113.5t37 -115.5t103 -42.5q23 0 46.5 6.5t48.5 24.5q13 9 23.5 5.5t16 -13.5t3.5 -21.5t-13 -18.5q-26 -21 -60.5 -32t-68.5 -11z" />
    <glyph glyph-name="ordfeminine" unicode="&#xaa;" horiz-adv-x="327" 
d="M168 411q-42 0 -70.5 26.5t-28.5 63.5q0 44 41.5 65t128.5 21h65l-6 -36h-52q-66 0 -93 -11t-27 -37q0 -22 15.5 -36t39.5 -14q23 0 44.5 10.5t36 29t18.5 41.5l11 69q5 34 -14 50t-54 16q-21 0 -41 -5t-39 -14q-12 -5 -20.5 -2t-11.5 11.5t0.5 17.5t15.5 14
q21 11 46.5 17t53.5 6q42 0 70.5 -15.5t41 -44t6.5 -66.5l-25 -151q-4 -26 -29 -26q-14 0 -20 8t-4 21l5 30h-3q-16 -28 -41.5 -43.5t-59.5 -15.5z" />
    <glyph glyph-name="guillemotleft" unicode="&#xab;" horiz-adv-x="441" 
d="M163 91q-14 -6 -27.5 -0.5t-19.5 20.5l-53 127q-5 12 -4 26.5t11 28.5l106 138q8 10 19.5 12.5t22.5 -2.5q14 -7 15.5 -21.5t-11.5 -33.5l-87 -124l44 -127q5 -16 1 -27.5t-17 -16.5zM344 91q-14 -6 -27.5 -0.5t-19.5 20.5l-53 127q-5 12 -4 26.5t11 28.5l106 138
q8 10 19.5 12.5t22.5 -2.5q14 -7 15.5 -21.5t-11.5 -33.5l-87 -124l44 -127q5 -16 1 -27.5t-17 -16.5z" />
    <glyph glyph-name="logicalnot" unicode="&#xac;" horiz-adv-x="600" 
d="M496 142q-16 0 -22.5 10.5t-3.5 28.5l28 177h-393q-15 0 -24 6.5t-9 18.5q0 17 10 27t27 10h412q23 0 34.5 -14t8.5 -37l-32 -197q-4 -30 -36 -30z" />
    <glyph glyph-name="uni00AD" unicode="&#xad;" horiz-adv-x="424" 
d="M104 233q-18 0 -26.5 7t-8.5 19q0 17 9.5 29t28.5 12h222q18 0 26.5 -7t8.5 -20q0 -17 -10 -28.5t-28 -11.5h-222z" />
    <glyph glyph-name="registered" unicode="&#xae;" horiz-adv-x="815" 
d="M425 -9q-76 0 -142 27.5t-115.5 77t-77 115.5t-27.5 142q0 77 27.5 142.5t77 114.5t115 76.5t142.5 27.5t142.5 -27.5t114.5 -76.5t76.5 -114.5t27.5 -142.5q0 -76 -27.5 -142t-76.5 -115.5t-114.5 -77t-142.5 -27.5zM425 35q67 0 124.5 24t100 67.5t66.5 101t24 125.5
t-24 125.5t-66.5 100.5t-100 67t-124.5 24q-68 0 -125.5 -24t-100 -67t-66.5 -100.5t-24 -125.5t24 -125.5t66.5 -101t100 -67.5t125.5 -24zM314 136q-33 0 -33 35v353q0 19 10 29.5t30 10.5h131q68 0 104.5 -32.5t36.5 -89.5q0 -58 -36.5 -88.5t-102.5 -30.5l12 10
q31 0 51 -13t33 -49l35 -92q7 -20 -3 -31.5t-28 -11.5q-12 0 -20 7.5t-11 18.5l-42 109q-9 26 -27.5 34.5t-44.5 8.5h-75l13 10v-153q0 -35 -33 -35zM347 368h97q42 0 63 17t21 54t-20.5 54t-63.5 17h-97v-142z" />
    <glyph glyph-name="macron" unicode="&#xaf;" horiz-adv-x="510" 
d="M195 625q-30 0 -30 23q0 15 9 23.5t24 8.5h247q30 0 30 -23q0 -14 -8.5 -23t-24.5 -9h-247z" />
    <glyph glyph-name="degree" unicode="&#xb0;" horiz-adv-x="371" 
d="M236 415q-42 0 -75.5 19.5t-53 52.5t-19.5 75t19.5 75.5t53 53t76.5 19.5q42 0 75 -19t52.5 -52.5t19.5 -76.5q0 -42 -19.5 -75.5t-52.5 -52.5t-76 -19zM236 469q40 0 65 26.5t25 66.5q0 41 -25 67t-65 26q-38 0 -63.5 -26t-25.5 -67q0 -40 25.5 -66.5t63.5 -26.5z" />
    <glyph glyph-name="plusminus" unicode="&#xb1;" horiz-adv-x="600" 
d="M283 120q-16 0 -23.5 10.5t-4.5 28.5l22 138h-181q-15 0 -24 7t-9 19q0 17 10 26.5t27 9.5h188l21 145q3 15 11.5 23.5t25.5 8.5q16 0 23 -10.5t4 -27.5l-21 -139h179q17 0 25.5 -6.5t8.5 -18.5q0 -17 -10 -27t-27 -10h-187l-22 -144q-3 -15 -11 -24t-25 -9zM49 0
q-16 0 -25 6.5t-9 18.5q0 18 10 27.5t28 9.5h431q17 0 25.5 -6.5t8.5 -18.5q0 -17 -10 -27t-27 -10h-432z" />
    <glyph glyph-name="uni00B2" unicode="&#xb2;" horiz-adv-x="380" 
d="M93 282q-16 0 -24 7.5t-8 19.5q0 10 5 18t14 16l150 136q32 30 52.5 58.5t21.5 58.5q1 26 -16.5 40t-49.5 14q-24 0 -46.5 -7t-44.5 -20q-13 -7 -23 -3.5t-15 13.5t-1.5 21t16.5 19q29 18 62 27t67 9q39 0 67 -14t43 -37.5t14 -53.5q-1 -47 -28.5 -84t-76.5 -79
l-136 -121v21h184q32 0 32 -25q0 -16 -9.5 -25t-25.5 -9h-224z" />
    <glyph glyph-name="uni00B3" unicode="&#xb3;" horiz-adv-x="380" 
d="M202 278q-34 0 -70.5 9t-63.5 29q-13 8 -15 19.5t4 21t17 13t25 -6.5q22 -15 48 -20.5t55 -5.5q35 0 60 18.5t26 53.5q1 28 -18 42.5t-56 14.5h-48q-15 0 -23.5 6.5t-8.5 18.5q0 15 9.5 24.5t26.5 9.5h50q38 0 64.5 18.5t26.5 52.5q1 26 -17.5 40t-51.5 14q-30 0 -54 -8
t-43 -21q-13 -7 -23 -3.5t-14.5 13.5t-1.5 21t16 19q26 16 58.5 27t71.5 11q60 0 94 -29t34 -73q-1 -42 -30.5 -73.5t-74.5 -39.5v8q40 -9 60.5 -35t20.5 -62q-1 -37 -21.5 -65.5t-55 -45t-77.5 -16.5z" />
    <glyph glyph-name="acute" unicode="&#xb4;" horiz-adv-x="354" 
d="M198 555q-9 -10 -19 -11t-17.5 4t-9.5 14.5t6 21.5l107 161q10 15 21.5 18.5t21.5 0.5t17 -11.5t7 -19.5t-9 -23z" />
    <glyph glyph-name="uni00B5" unicode="&#xb5;" horiz-adv-x="600" 
d="M66 -187q-19 0 -27.5 12t-5.5 35l95 594q4 21 15 30t31 9q19 0 28.5 -12t5.5 -34l-40 -254q-11 -68 11.5 -101.5t76.5 -33.5q70 0 112.5 45.5t53.5 119.5l37 231q3 20 14.5 29.5t31.5 9.5q19 0 27.5 -12t5.5 -34l-65 -415q-6 -39 -45 -39q-18 0 -27.5 11t-6.5 27l12 81h8
q-21 -57 -63.5 -89t-100.5 -32q-42 0 -72.5 16.5t-44.5 48.5l6 2l-27 -205q-2 -20 -13.5 -30t-32.5 -10z" />
    <glyph glyph-name="paragraph" unicode="&#xb6;" horiz-adv-x="588" 
d="M208 -187q-16 0 -22.5 10t-4.5 28l72 459q-52 0 -90.5 23t-58.5 61.5t-20 86.5q0 67 28 117t79.5 78.5t117.5 28.5h220q21 0 31 -11.5t7 -33.5l-129 -815q-5 -32 -38 -32q-15 0 -22 10t-4 28l125 792h-128l-126 -798q-5 -32 -37 -32z" />
    <glyph glyph-name="periodcentered" unicode="&#xb7;" horiz-adv-x="228" 
d="M119 211q-25 0 -40 15.5t-15 39.5t15 39.5t40 15.5t39.5 -15.5t14.5 -39.5t-14.5 -39.5t-39.5 -15.5z" />
    <glyph glyph-name="cedilla" unicode="&#xb8;" horiz-adv-x="399" 
d="M124 -192q-18 0 -35.5 2.5t-33.5 7.5q-12 4 -16 13t-1 18.5t11 14t21 0.5q11 -5 25 -7t30 -2q28 0 45 10t17 29q0 12 -8.5 19t-26.5 7q-7 0 -16.5 -1t-18.5 -4q-8 -2 -13.5 -2t-9.5 4q-3 4 -3.5 8.5t2.5 12.5l26 82h51l-25 -75l-24 6q13 3 24.5 5t21.5 2q34 0 55 -16
t21 -47q0 -39 -34 -63t-85 -24z" />
    <glyph glyph-name="uni00B9" unicode="&#xb9;" horiz-adv-x="380" 
d="M125 282q-31 0 -31 26q0 15 9.5 24t25.5 9h68l48 305l44 1l-102 -58q-15 -8 -27.5 -4.5t-18 14.5t-1.5 23.5t20 21.5l92 51q8 5 18 8.5t21 3.5q14 0 19.5 -6t6.5 -14t0 -15l-53 -331h46q32 0 32 -25q0 -14 -9.5 -24t-25.5 -10h-182z" />
    <glyph glyph-name="ordmasculine" unicode="&#xba;" horiz-adv-x="339" 
d="M214 412q-41 0 -72.5 17t-49.5 48.5t-18 73.5q0 50 21 86.5t55 56.5t76 20q41 0 72.5 -17.5t49.5 -48t18 -73.5q0 -50 -20.5 -87t-55 -56.5t-76.5 -19.5zM215 457q41 0 66.5 30.5t25.5 88.5q0 44 -22 68t-60 24q-41 0 -67 -30t-26 -88q0 -44 22.5 -68.5t60.5 -24.5z" />
    <glyph glyph-name="guillemotright" unicode="&#xbb;" horiz-adv-x="441" 
d="M48 90q-13 7 -14.5 21.5t11.5 33.5l87 124l-44 128q-5 16 -1 27.5t16 15.5q15 6 28 0.5t20 -19.5l53 -127q5 -12 4 -27t-12 -28l-105 -138q-8 -11 -19.5 -13.5t-23.5 2.5zM229 90q-13 7 -14.5 21.5t11.5 33.5l87 124l-44 128q-5 16 -1 27.5t16 15.5q15 6 28 0.5t20 -19.5
l53 -127q5 -12 4 -27t-12 -28l-105 -138q-8 -11 -19.5 -13.5t-23.5 2.5z" />
    <glyph glyph-name="onequarter" unicode="&#xbc;" horiz-adv-x="893" 
d="M125 282q-31 0 -31 26q0 15 9.5 24t25.5 9h68l48 305l44 1l-102 -58q-15 -8 -27.5 -4.5t-18 14.5t-1.5 23.5t20 21.5l92 51q8 5 18 8.5t21 3.5q14 0 19.5 -6t6.5 -14t0 -15l-53 -331h46q32 0 32 -25q0 -14 -9.5 -24t-25.5 -10h-182zM264 -2q-8 -11 -18 -14t-19 -0.5
t-14.5 9.5t-5.5 17t9 21l497 676q8 11 17.5 14.5t18.5 1t14.5 -10t5.5 -17.5t-9 -21zM736 -3q-16 0 -24 7.5t-5 24.5l9 54h-154q-15 0 -26 6t-11 21q0 9 4.5 17.5t10.5 15.5l218 259q8 10 18 17t27 7t24 -9t4 -26l-39 -249h31q11 0 19 -6.5t8 -18.5q0 -13 -9 -23.5
t-24 -10.5h-34l-9 -56q-2 -15 -12 -22.5t-26 -7.5zM725 142l32 204h20l-186 -221l-1 17h135z" />
    <glyph glyph-name="onehalf" unicode="&#xbd;" horiz-adv-x="937" 
d="M125 282q-31 0 -31 26q0 15 9.5 24t25.5 9h68l48 305l44 1l-102 -58q-15 -8 -27.5 -4.5t-18 14.5t-1.5 23.5t20 21.5l92 51q8 5 18 8.5t21 3.5q14 0 19.5 -6t6.5 -14t0 -15l-53 -331h46q32 0 32 -25q0 -14 -9.5 -24t-25.5 -10h-182zM264 -2q-8 -11 -18 -14t-19 -0.5
t-14.5 9.5t-5.5 17t9 21l497 676q8 11 17.5 14.5t18.5 1t14.5 -10t5.5 -17.5t-9 -21zM605 0q-16 0 -24 7.5t-8 19.5q0 10 5 18t14 16l150 136q32 30 52.5 58.5t21.5 58.5q1 26 -16.5 40t-49.5 14q-24 0 -46.5 -7t-44.5 -20q-13 -7 -23 -3.5t-15 13.5t-1.5 21t16.5 19
q29 18 62 27t67 9q39 0 67 -14t43 -37.5t14 -53.5q-1 -47 -28.5 -84t-76.5 -79l-136 -121v21h184q32 0 32 -25q0 -16 -9.5 -25t-25.5 -9h-224z" />
    <glyph glyph-name="threequarters" unicode="&#xbe;" horiz-adv-x="893" 
d="M202 278q-34 0 -70.5 9t-63.5 29q-13 8 -15 19.5t4 21t17 13t25 -6.5q22 -15 48 -20.5t55 -5.5q35 0 60 18.5t26 53.5q1 28 -18 42.5t-56 14.5h-48q-15 0 -23.5 6.5t-8.5 18.5q0 15 9.5 24.5t26.5 9.5h50q38 0 64.5 18.5t26.5 52.5q1 26 -17.5 40t-51.5 14q-30 0 -54 -8
t-43 -21q-13 -7 -23 -3.5t-14.5 13.5t-1.5 21t16 19q26 16 58.5 27t71.5 11q60 0 94 -29t34 -73q-1 -42 -30.5 -73.5t-74.5 -39.5v8q40 -9 60.5 -35t20.5 -62q-1 -37 -21.5 -65.5t-55 -45t-77.5 -16.5zM264 -2q-8 -11 -18 -14t-19 -0.5t-14.5 9.5t-5.5 17t9 21l497 676
q8 11 17.5 14.5t18.5 1t14.5 -10t5.5 -17.5t-9 -21zM736 -3q-16 0 -24 7.5t-5 24.5l9 54h-154q-15 0 -26 6t-11 21q0 9 4.5 17.5t10.5 15.5l218 259q8 10 18 17t27 7t24 -9t4 -26l-39 -249h31q11 0 19 -6.5t8 -18.5q0 -13 -9 -23.5t-24 -10.5h-34l-9 -56q-2 -15 -12 -22.5
t-26 -7.5zM725 142l32 204h20l-186 -221l-1 17h135z" />
    <glyph glyph-name="questiondown" unicode="&#xbf;" horiz-adv-x="443" 
d="M150 -189q-52 0 -90.5 19t-60 51.5t-21.5 71.5q0 55 32.5 97.5t84.5 81.5q37 27 60.5 51.5t37 49.5t19.5 52q3 12 9.5 18t18.5 6q14 0 21 -8t4 -24q-6 -36 -17.5 -65t-34.5 -56t-62 -59q-41 -32 -65 -62t-24 -69q0 -35 25 -58.5t73 -23.5q49 0 89.5 12t75.5 36
q16 9 27.5 8t18.5 -8.5t9 -18t-3 -22t-17 -19.5q-43 -30 -97 -45.5t-113 -15.5zM266 380q-25 0 -40.5 16t-15.5 39q0 25 15.5 40t40.5 15t39.5 -15t14.5 -40q0 -23 -14.5 -39t-39.5 -16z" />
    <glyph glyph-name="Agrave" unicode="&#xc0;" horiz-adv-x="729" 
d="M40 -7q-15 0 -25 7.5t-12.5 19.5t6.5 27l382 636q9 15 20.5 22t27.5 7q17 0 27.5 -8.5t15.5 -24.5l176 -630q6 -19 3 -31.5t-12 -18.5t-22 -6q-18 0 -28.5 10t-15.5 29l-44 165l32 -17h-426l41 16l-104 -177q-7 -13 -17.5 -19.5t-24.5 -6.5zM427 609l-219 -374l-22 14
h366l-23 -15l-100 375h-2zM413 771l-91 120q-10 12 -9 23.5t8 19.5t18 11.5t22.5 -0.5t19.5 -18l77 -126q7 -11 4 -21t-11.5 -15.5t-18.5 -4.5t-19 11z" />
    <glyph glyph-name="Aacute" unicode="&#xc1;" horiz-adv-x="729" 
d="M40 -7q-15 0 -25 7.5t-12.5 19.5t6.5 27l382 636q9 15 20.5 22t27.5 7q17 0 27.5 -8.5t15.5 -24.5l176 -630q6 -19 3 -31.5t-12 -18.5t-22 -6q-18 0 -28.5 10t-15.5 29l-44 165l32 -17h-426l41 16l-104 -177q-7 -13 -17.5 -19.5t-24.5 -6.5zM427 609l-219 -374l-22 14
h366l-23 -15l-100 375h-2zM485 769q-10 -9 -20 -9.5t-17.5 5t-9.5 15t6 19.5l99 130q9 13 21 16t22.5 -0.5t17 -11t6 -18.5t-10.5 -23z" />
    <glyph glyph-name="Acircumflex" unicode="&#xc2;" horiz-adv-x="729" 
d="M40 -7q-15 0 -25 7.5t-12.5 19.5t6.5 27l382 636q9 15 20.5 22t27.5 7q17 0 27.5 -8.5t15.5 -24.5l176 -630q6 -19 3 -31.5t-12 -18.5t-22 -6q-18 0 -28.5 10t-15.5 29l-44 165l32 -17h-426l41 16l-104 -177q-7 -13 -17.5 -19.5t-24.5 -6.5zM427 609l-219 -374l-22 14
h366l-23 -15l-100 375h-2zM344 767q-9 -9 -19.5 -10t-18 4t-9 13.5t6.5 19.5l100 122q12 15 25.5 23t31.5 8t29 -8.5t21 -25.5l73 -119q8 -12 4.5 -21.5t-12.5 -13.5t-20.5 -1.5t-19.5 13.5l-81 113z" />
    <glyph glyph-name="Atilde" unicode="&#xc3;" horiz-adv-x="729" 
d="M40 -7q-15 0 -25 7.5t-12.5 19.5t6.5 27l382 636q9 15 20.5 22t27.5 7q17 0 27.5 -8.5t15.5 -24.5l176 -630q6 -19 3 -31.5t-12 -18.5t-22 -6q-18 0 -28.5 10t-15.5 29l-44 165l32 -17h-426l41 16l-104 -177q-7 -13 -17.5 -19.5t-24.5 -6.5zM427 609l-219 -374l-22 14
h366l-23 -15l-100 375h-2zM262 781q-10 1 -15.5 8.5t-2.5 20.5q16 56 47.5 82.5t74.5 26.5q27 0 51 -11.5t45.5 -26.5t41.5 -26.5t40 -11.5q25 0 43.5 15.5t27.5 46.5q4 10 10.5 15t17.5 4t16.5 -8.5t1.5 -21.5q-14 -55 -46 -81.5t-76 -26.5q-27 0 -51 11.5t-45 26t-41 26.5
t-40 12q-25 0 -43.5 -15.5t-28.5 -46.5q-3 -10 -9.5 -15t-18.5 -4z" />
    <glyph glyph-name="Adieresis" unicode="&#xc4;" horiz-adv-x="729" 
d="M40 -7q-15 0 -25 7.5t-12.5 19.5t6.5 27l382 636q9 15 20.5 22t27.5 7q17 0 27.5 -8.5t15.5 -24.5l176 -630q6 -19 3 -31.5t-12 -18.5t-22 -6q-18 0 -28.5 10t-15.5 29l-44 165l32 -17h-426l41 16l-104 -177q-7 -13 -17.5 -19.5t-24.5 -6.5zM427 609l-219 -374l-22 14
h366l-23 -15l-100 375h-2zM542 802q-19 0 -30 10t-11 27q0 27 14.5 41.5t39.5 14.5q20 0 30.5 -9.5t10.5 -27.5q0 -26 -14 -41t-40 -15zM368 802q-19 0 -29.5 10t-10.5 27q0 27 14 41.5t40 14.5q19 0 29.5 -9.5t10.5 -27.5q0 -26 -14 -41t-40 -15z" />
    <glyph glyph-name="Aring" unicode="&#xc5;" horiz-adv-x="729" 
d="M40 -7q-15 0 -25 7.5t-12.5 19.5t6.5 27l382 636q9 15 20.5 22t27.5 7q17 0 27.5 -8.5t15.5 -24.5l176 -630q6 -19 3 -31.5t-12 -18.5t-22 -6q-18 0 -28.5 10t-15.5 29l-44 165l32 -17h-426l41 16l-104 -177q-7 -13 -17.5 -19.5t-24.5 -6.5zM427 609l-219 -374l-22 14
h366l-23 -15l-100 375h-2zM464 758q-33 0 -60 15.5t-42.5 42t-15.5 58.5q0 33 15.5 58.5t42.5 41t60 15.5q34 0 60.5 -15.5t42.5 -41t16 -58.5q0 -32 -16 -58.5t-42.5 -42t-60.5 -15.5zM464 801q32 0 52 21t20 52q0 30 -20 51t-52 21q-31 0 -51.5 -21t-20.5 -51
q0 -31 20.5 -52t51.5 -21z" />
    <glyph glyph-name="AE" unicode="&#xc6;" horiz-adv-x="981" 
d="M7 -7q-17 0 -26 8.5t-9 21t10 24.5l486 636q9 12 20.5 17t26.5 5h455q17 0 26.5 -7t9.5 -20q0 -21 -11 -31.5t-29 -10.5h-424l24 29l16 -295l-28 22h345q18 0 27.5 -7t9.5 -20q0 -21 -11.5 -31.5t-29.5 -10.5h-337l25 22l16 -304l-29 28h300q17 0 26.5 -7t9.5 -21
q0 -19 -11 -30t-30 -11h-299q-37 0 -40 37l-8 167l26 -24h-390l36 22l-139 -184q-10 -14 -20.5 -19.5t-23.5 -5.5zM494 608l-285 -379l-6 20h331l-18 -22l-20 381h-2z" />
    <glyph glyph-name="Ccedilla" unicode="&#xc7;" horiz-adv-x="673" 
d="M382 -9q-90 0 -158.5 34.5t-107.5 104.5t-39 177q0 87 25 161t72.5 129t115 86t151.5 31q63 0 117.5 -18.5t94.5 -53.5q12 -10 15 -22t-1 -23t-12.5 -19t-19.5 -8.5t-23 8.5q-39 33 -81 47t-93 14q-85 0 -146 -43t-94 -117.5t-33 -169.5q0 -86 27 -140t77 -78.5
t121 -24.5q46 0 86 13.5t80 44.5q13 9 24.5 8t19.5 -8.5t11 -18t-1 -22.5t-16 -21q-46 -36 -100 -53.5t-112 -17.5zM348 -192q-18 0 -35.5 2.5t-33.5 7.5q-12 4 -16 13t-1 18.5t11 14t21 0.5q11 -5 25 -7t30 -2q28 0 45 10t17 29q0 12 -8.5 19t-26.5 7q-7 0 -16.5 -1
t-18.5 -4q-8 -2 -13.5 -2t-9.5 4q-3 4 -3.5 8.5t2.5 12.5l26 82h51l-25 -75l-24 6q13 3 24.5 5t21.5 2q34 0 55 -16t21 -47q0 -39 -34 -63t-85 -24z" />
    <glyph glyph-name="Egrave" unicode="&#xc8;" horiz-adv-x="583" 
d="M98 0q-24 0 -34.5 12.5t-7.5 36.5l98 615q3 21 15.5 31t32.5 10h369q18 0 27.5 -7t9.5 -20q0 -21 -11.5 -31.5t-29.5 -10.5h-337l-39 -244h310q18 0 27 -7t9 -20q0 -21 -11.5 -31.5t-28.5 -10.5h-317l-41 -254h331q18 0 27.5 -7t9.5 -21q0 -20 -11.5 -30.5t-29.5 -10.5
h-368zM372 771l-91 120q-10 12 -9 23.5t8 19.5t18 11.5t22.5 -0.5t19.5 -18l77 -126q7 -11 4 -21t-11.5 -15.5t-18.5 -4.5t-19 11z" />
    <glyph glyph-name="Eacute" unicode="&#xc9;" horiz-adv-x="583" 
d="M98 0q-24 0 -34.5 12.5t-7.5 36.5l98 615q3 21 15.5 31t32.5 10h369q18 0 27.5 -7t9.5 -20q0 -21 -11.5 -31.5t-29.5 -10.5h-337l-39 -244h310q18 0 27 -7t9 -20q0 -21 -11.5 -31.5t-28.5 -10.5h-317l-41 -254h331q18 0 27.5 -7t9.5 -21q0 -20 -11.5 -30.5t-29.5 -10.5
h-368zM444 769q-10 -9 -20 -9.5t-17.5 5t-9.5 15t6 19.5l99 130q9 13 21 16t22.5 -0.5t17 -11t6 -18.5t-10.5 -23z" />
    <glyph glyph-name="Ecircumflex" unicode="&#xca;" horiz-adv-x="583" 
d="M98 0q-24 0 -34.5 12.5t-7.5 36.5l98 615q3 21 15.5 31t32.5 10h369q18 0 27.5 -7t9.5 -20q0 -21 -11.5 -31.5t-29.5 -10.5h-337l-39 -244h310q18 0 27 -7t9 -20q0 -21 -11.5 -31.5t-28.5 -10.5h-317l-41 -254h331q18 0 27.5 -7t9.5 -21q0 -20 -11.5 -30.5t-29.5 -10.5
h-368zM303 767q-9 -9 -19.5 -10t-18 4t-9 13.5t6.5 19.5l100 122q12 15 25.5 23t31.5 8t29 -8.5t21 -25.5l73 -119q8 -12 4.5 -21.5t-12.5 -13.5t-20.5 -1.5t-19.5 13.5l-81 113z" />
    <glyph glyph-name="Edieresis" unicode="&#xcb;" horiz-adv-x="583" 
d="M98 0q-24 0 -34.5 12.5t-7.5 36.5l98 615q3 21 15.5 31t32.5 10h369q18 0 27.5 -7t9.5 -20q0 -21 -11.5 -31.5t-29.5 -10.5h-337l-39 -244h310q18 0 27 -7t9 -20q0 -21 -11.5 -31.5t-28.5 -10.5h-317l-41 -254h331q18 0 27.5 -7t9.5 -21q0 -20 -11.5 -30.5t-29.5 -10.5
h-368zM501 802q-19 0 -30 10t-11 27q0 27 14.5 41.5t39.5 14.5q20 0 30.5 -9.5t10.5 -27.5q0 -26 -14 -41t-40 -15zM327 802q-19 0 -29.5 10t-10.5 27q0 27 14 41.5t40 14.5q19 0 29.5 -9.5t10.5 -27.5q0 -26 -14 -41t-40 -15z" />
    <glyph glyph-name="Igrave" unicode="&#xcc;" horiz-adv-x="257" 
d="M91 -7q-21 0 -30.5 13t-5.5 37l100 627q3 21 14.5 31.5t31.5 10.5q21 0 30 -12.5t5 -37.5l-100 -627q-3 -20 -13.5 -31t-31.5 -11zM176 771l-91 120q-10 12 -9 23.5t8 19.5t18 11.5t22.5 -0.5t19.5 -18l77 -126q7 -11 4 -21t-11.5 -15.5t-18.5 -4.5t-19 11z" />
    <glyph glyph-name="Iacute" unicode="&#xcd;" horiz-adv-x="257" 
d="M91 -7q-21 0 -30.5 13t-5.5 37l100 627q3 21 14.5 31.5t31.5 10.5q21 0 30 -12.5t5 -37.5l-100 -627q-3 -20 -13.5 -31t-31.5 -11zM248 769q-10 -9 -20 -9.5t-17.5 5t-9.5 15t6 19.5l99 130q9 13 21 16t22.5 -0.5t17 -11t6 -18.5t-10.5 -23z" />
    <glyph glyph-name="Icircumflex" unicode="&#xce;" horiz-adv-x="257" 
d="M91 -7q-21 0 -30.5 13t-5.5 37l100 627q3 21 14.5 31.5t31.5 10.5q21 0 30 -12.5t5 -37.5l-100 -627q-3 -20 -13.5 -31t-31.5 -11zM107 767q-9 -9 -19.5 -10t-18 4t-9 13.5t6.5 19.5l100 122q12 15 25.5 23t31.5 8t29 -8.5t21 -25.5l73 -119q8 -12 4.5 -21.5t-12.5 -13.5
t-20.5 -1.5t-19.5 13.5l-81 113z" />
    <glyph glyph-name="Idieresis" unicode="&#xcf;" horiz-adv-x="257" 
d="M91 -7q-21 0 -30.5 13t-5.5 37l100 627q3 21 14.5 31.5t31.5 10.5q21 0 30 -12.5t5 -37.5l-100 -627q-3 -20 -13.5 -31t-31.5 -11zM305 802q-19 0 -30 10t-11 27q0 27 14.5 41.5t39.5 14.5q20 0 30.5 -9.5t10.5 -27.5q0 -26 -14 -41t-40 -15zM131 802q-19 0 -29.5 10
t-10.5 27q0 27 14 41.5t40 14.5q19 0 29.5 -9.5t10.5 -27.5q0 -26 -14 -41t-40 -15z" />
    <glyph glyph-name="Eth" unicode="&#xd0;" horiz-adv-x="742" 
d="M98 0q-23 0 -34.5 13t-7.5 36l98 615q3 21 15.5 31t32.5 10h166q160 0 247 -77t87 -218q0 -85 -24 -159t-73 -130.5t-124 -88.5t-179 -32h-204zM142 70h162q84 0 143.5 26.5t96.5 73.5t54 108.5t17 130.5q0 110 -62.5 168t-185.5 58h-135zM45 326q-17 0 -26 7t-9 20
q0 18 10.5 27.5t28.5 9.5h307q17 0 26 -6.5t9 -19.5q0 -18 -10.5 -28t-28.5 -10h-307z" />
    <glyph glyph-name="Ntilde" unicode="&#xd1;" horiz-adv-x="739" 
d="M88 -7q-18 0 -27 12t-6 34l101 637q4 19 14 27.5t25 8.5q16 0 24.5 -6.5t16.5 -20.5l338 -585h-21l91 574q3 20 14 29t30 9q18 0 26 -12t5 -34l-101 -636q-3 -18 -12 -27.5t-24 -9.5q-16 0 -25.5 7t-18.5 21l-338 584h21l-91 -574q-2 -19 -12.5 -28.5t-29.5 -9.5z
M265 781q-10 1 -15.5 8.5t-2.5 20.5q16 56 47.5 82.5t74.5 26.5q27 0 51 -11.5t45.5 -26.5t41.5 -26.5t40 -11.5q25 0 43.5 15.5t27.5 46.5q4 10 10.5 15t17.5 4t16.5 -8.5t1.5 -21.5q-14 -55 -46 -81.5t-76 -26.5q-27 0 -51 11.5t-45 26t-41 26.5t-40 12q-25 0 -43.5 -15.5
t-28.5 -46.5q-3 -10 -9.5 -15t-18.5 -4z" />
    <glyph glyph-name="Ograve" unicode="&#xd2;" horiz-adv-x="767" 
d="M368 -9q-88 0 -153.5 35t-102 103t-36.5 165q0 89 24 165.5t69.5 133.5t112 89t152.5 32q89 0 154.5 -35t101.5 -102.5t36 -164.5q0 -90 -24 -166.5t-69.5 -133.5t-112 -89t-152.5 -32zM370 64q87 0 147 45.5t91 124t31 177.5q0 116 -55.5 173t-152.5 57
q-86 0 -146 -45.5t-91 -123.5t-31 -177q0 -117 55 -174t152 -57zM420 771l-91 120q-10 12 -9 23.5t8 19.5t18 11.5t22.5 -0.5t19.5 -18l77 -126q7 -11 4 -21t-11.5 -15.5t-18.5 -4.5t-19 11z" />
    <glyph glyph-name="Oacute" unicode="&#xd3;" horiz-adv-x="767" 
d="M368 -9q-88 0 -153.5 35t-102 103t-36.5 165q0 89 24 165.5t69.5 133.5t112 89t152.5 32q89 0 154.5 -35t101.5 -102.5t36 -164.5q0 -90 -24 -166.5t-69.5 -133.5t-112 -89t-152.5 -32zM370 64q87 0 147 45.5t91 124t31 177.5q0 116 -55.5 173t-152.5 57
q-86 0 -146 -45.5t-91 -123.5t-31 -177q0 -117 55 -174t152 -57zM492 769q-10 -9 -20 -9.5t-17.5 5t-9.5 15t6 19.5l99 130q9 13 21 16t22.5 -0.5t17 -11t6 -18.5t-10.5 -23z" />
    <glyph glyph-name="Ocircumflex" unicode="&#xd4;" horiz-adv-x="767" 
d="M368 -9q-88 0 -153.5 35t-102 103t-36.5 165q0 89 24 165.5t69.5 133.5t112 89t152.5 32q89 0 154.5 -35t101.5 -102.5t36 -164.5q0 -90 -24 -166.5t-69.5 -133.5t-112 -89t-152.5 -32zM370 64q87 0 147 45.5t91 124t31 177.5q0 116 -55.5 173t-152.5 57
q-86 0 -146 -45.5t-91 -123.5t-31 -177q0 -117 55 -174t152 -57zM351 767q-9 -9 -19.5 -10t-18 4t-9 13.5t6.5 19.5l100 122q12 15 25.5 23t31.5 8t29 -8.5t21 -25.5l73 -119q8 -12 4.5 -21.5t-12.5 -13.5t-20.5 -1.5t-19.5 13.5l-81 113z" />
    <glyph glyph-name="Otilde" unicode="&#xd5;" horiz-adv-x="767" 
d="M368 -9q-88 0 -153.5 35t-102 103t-36.5 165q0 89 24 165.5t69.5 133.5t112 89t152.5 32q89 0 154.5 -35t101.5 -102.5t36 -164.5q0 -90 -24 -166.5t-69.5 -133.5t-112 -89t-152.5 -32zM370 64q87 0 147 45.5t91 124t31 177.5q0 116 -55.5 173t-152.5 57
q-86 0 -146 -45.5t-91 -123.5t-31 -177q0 -117 55 -174t152 -57zM269 781q-10 1 -15.5 8.5t-2.5 20.5q16 56 47.5 82.5t74.5 26.5q27 0 51 -11.5t45.5 -26.5t41.5 -26.5t40 -11.5q25 0 43.5 15.5t27.5 46.5q4 10 10.5 15t17.5 4t16.5 -8.5t1.5 -21.5q-14 -55 -46 -81.5
t-76 -26.5q-27 0 -51 11.5t-45 26t-41 26.5t-40 12q-25 0 -43.5 -15.5t-28.5 -46.5q-3 -10 -9.5 -15t-18.5 -4z" />
    <glyph glyph-name="Odieresis" unicode="&#xd6;" horiz-adv-x="767" 
d="M368 -9q-88 0 -153.5 35t-102 103t-36.5 165q0 89 24 165.5t69.5 133.5t112 89t152.5 32q89 0 154.5 -35t101.5 -102.5t36 -164.5q0 -90 -24 -166.5t-69.5 -133.5t-112 -89t-152.5 -32zM370 64q87 0 147 45.5t91 124t31 177.5q0 116 -55.5 173t-152.5 57
q-86 0 -146 -45.5t-91 -123.5t-31 -177q0 -117 55 -174t152 -57zM549 802q-19 0 -30 10t-11 27q0 27 14.5 41.5t39.5 14.5q20 0 30.5 -9.5t10.5 -27.5q0 -26 -14 -41t-40 -15zM375 802q-19 0 -29.5 10t-10.5 27q0 27 14 41.5t40 14.5q19 0 29.5 -9.5t10.5 -27.5
q0 -26 -14 -41t-40 -15z" />
    <glyph glyph-name="multiply" unicode="&#xd7;" horiz-adv-x="600" 
d="M118 67q-13 -11 -25.5 -10t-20.5 10t-8.5 21.5t10.5 22.5l190 175l-157 172q-9 10 -9.5 19.5t5 18t14 13t18.5 2.5t20 -12l155 -170l188 172q13 12 25.5 11t20.5 -10t8.5 -21.5t-11.5 -23.5l-189 -174l158 -174q8 -9 9 -19t-4.5 -18t-14 -12.5t-19 -2.5t-19.5 12
l-156 171z" />
    <glyph glyph-name="Oslash" unicode="&#xd8;" horiz-adv-x="767" 
d="M368 -9q-88 0 -153.5 35t-102 103t-36.5 165q0 89 24 165.5t69.5 133.5t112 89t152.5 32q89 0 154.5 -35t101.5 -102.5t36 -164.5q0 -90 -24 -166.5t-69.5 -133.5t-112 -89t-152.5 -32zM370 64q87 0 147 45.5t91 124t31 177.5q0 116 -55.5 173t-152.5 57
q-86 0 -146 -45.5t-91 -123.5t-31 -177q0 -117 55 -174t152 -57zM162 -20q-7 -10 -16.5 -12.5t-18.5 1t-15 10.5t-6 17t8 21l55 74l27 37l360 486l27 37l55 73q8 10 18 13t19 -0.5t14.5 -11t5.5 -17.5t-8 -20l-54 -74l-27 -37l-360 -485l-28 -38z" />
    <glyph glyph-name="Ugrave" unicode="&#xd9;" horiz-adv-x="728" 
d="M335 -9q-66 0 -117.5 19t-84 57.5t-44 96t0.5 133.5l60 376q4 20 15 29.5t31 9.5t29.5 -12t5.5 -35l-59 -375q-18 -113 25 -169.5t142 -56.5t155 50t74 159l64 400q3 20 14.5 29.5t30.5 9.5q20 0 29.5 -12t5.5 -35l-62 -396q-15 -91 -53 -153t-103 -93.5t-159 -31.5z
M411 771l-91 120q-10 12 -9 23.5t8 19.5t18 11.5t22.5 -0.5t19.5 -18l77 -126q7 -11 4 -21t-11.5 -15.5t-18.5 -4.5t-19 11z" />
    <glyph glyph-name="Uacute" unicode="&#xda;" horiz-adv-x="728" 
d="M335 -9q-66 0 -117.5 19t-84 57.5t-44 96t0.5 133.5l60 376q4 20 15 29.5t31 9.5t29.5 -12t5.5 -35l-59 -375q-18 -113 25 -169.5t142 -56.5t155 50t74 159l64 400q3 20 14.5 29.5t30.5 9.5q20 0 29.5 -12t5.5 -35l-62 -396q-15 -91 -53 -153t-103 -93.5t-159 -31.5z
M483 769q-10 -9 -20 -9.5t-17.5 5t-9.5 15t6 19.5l99 130q9 13 21 16t22.5 -0.5t17 -11t6 -18.5t-10.5 -23z" />
    <glyph glyph-name="Ucircumflex" unicode="&#xdb;" horiz-adv-x="728" 
d="M335 -9q-66 0 -117.5 19t-84 57.5t-44 96t0.5 133.5l60 376q4 20 15 29.5t31 9.5t29.5 -12t5.5 -35l-59 -375q-18 -113 25 -169.5t142 -56.5t155 50t74 159l64 400q3 20 14.5 29.5t30.5 9.5q20 0 29.5 -12t5.5 -35l-62 -396q-15 -91 -53 -153t-103 -93.5t-159 -31.5z
M342 767q-9 -9 -19.5 -10t-18 4t-9 13.5t6.5 19.5l100 122q12 15 25.5 23t31.5 8t29 -8.5t21 -25.5l73 -119q8 -12 4.5 -21.5t-12.5 -13.5t-20.5 -1.5t-19.5 13.5l-81 113z" />
    <glyph glyph-name="Udieresis" unicode="&#xdc;" horiz-adv-x="728" 
d="M335 -9q-66 0 -117.5 19t-84 57.5t-44 96t0.5 133.5l60 376q4 20 15 29.5t31 9.5t29.5 -12t5.5 -35l-59 -375q-18 -113 25 -169.5t142 -56.5t155 50t74 159l64 400q3 20 14.5 29.5t30.5 9.5q20 0 29.5 -12t5.5 -35l-62 -396q-15 -91 -53 -153t-103 -93.5t-159 -31.5z
M540 802q-19 0 -30 10t-11 27q0 27 14.5 41.5t39.5 14.5q20 0 30.5 -9.5t10.5 -27.5q0 -26 -14 -41t-40 -15zM366 802q-19 0 -29.5 10t-10.5 27q0 27 14 41.5t40 14.5q19 0 29.5 -9.5t10.5 -27.5q0 -26 -14 -41t-40 -15z" />
    <glyph glyph-name="Yacute" unicode="&#xdd;" horiz-adv-x="596" 
d="M258 -7q-19 0 -27.5 13t-6.5 35l52 324l8 -57l-194 344q-8 16 -7 29.5t11 22t26 8.5t25 -7t18 -24l164 -290h-22l262 296q12 14 22 19.5t24 5.5q15 0 24.5 -9t10 -23t-12.5 -28l-305 -344l28 57l-53 -331q-6 -41 -47 -41zM409 769q-10 -9 -20 -9.5t-17.5 5t-9.5 15
t6 19.5l99 130q9 13 21 16t22.5 -0.5t17 -11t6 -18.5t-10.5 -23z" />
    <glyph glyph-name="Thorn" unicode="&#xde;" horiz-adv-x="634" 
d="M89 -7q-20 0 -29 13t-5 36l99 626q4 21 16 31.5t32 10.5t29.5 -11t6.5 -29l-15 -92h172q108 0 167 -48t59 -141q0 -108 -67.5 -171.5t-196.5 -63.5h-201l-20 -120q-3 -20 -14.5 -30.5t-32.5 -10.5zM166 223h197q86 0 131 41t45 119q0 66 -38 96.5t-113 30.5h-176z" />
    <glyph glyph-name="germandbls" unicode="&#xdf;" horiz-adv-x="615" 
d="M378 -9q-46 0 -91 12.5t-74 33.5q-12 8 -16 18t-2 20.5t9 17.5t17.5 8t22.5 -7q28 -18 62 -28.5t70 -10.5q55 0 84.5 20.5t29.5 59.5q0 25 -19 46t-75 40q-67 23 -94 52t-27 71q0 27 9 48t30.5 43t58.5 49q32 24 50 46t18 55q0 27 -19.5 46.5t-58.5 19.5
q-71 0 -112.5 -41t-54.5 -119l-73 -459q-2 -19 -13.5 -29t-30.5 -10q-20 0 -29.5 12t-5.5 34l70 444q18 112 79.5 171.5t171.5 59.5q48 0 82.5 -16.5t53.5 -44t19 -59.5q0 -49 -25 -80.5t-67 -65.5q-25 -19 -41.5 -33.5t-25.5 -29t-9 -32.5q0 -23 19.5 -41t71.5 -35
q60 -21 92 -51.5t32 -82.5q0 -48 -23.5 -82t-66.5 -52t-99 -18z" />
    <glyph glyph-name="agrave" unicode="&#xe0;" horiz-adv-x="530" 
d="M199 -9q-42 0 -78.5 19t-58.5 52t-22 75q0 52 28.5 83.5t89.5 46.5t157 15h80l-8 -53h-61q-77 0 -121.5 -8t-63.5 -27t-19 -52q0 -44 29.5 -67t67.5 -23q37 0 68.5 16t53.5 47.5t29 74.5l19 122q10 58 -14.5 88t-88.5 30q-37 0 -70 -7t-66 -26q-13 -7 -24 -6t-18 8.5
t-8 17.5t5 20t21 18q38 21 82.5 30.5t86.5 9.5q68 0 108.5 -25.5t55.5 -71.5t5 -108l-41 -257q-2 -20 -13.5 -30t-30.5 -10q-18 0 -26.5 12t-5.5 34l13 81l8 -10q-13 -40 -39.5 -66.5t-60.5 -39.5t-69 -13zM280 558l-107 153q-9 14 -8 25t9 18.5t19.5 9.5t23 -3.5
t19.5 -20.5l90 -156q6 -13 3 -22.5t-11.5 -14.5t-19 -3t-18.5 14z" />
    <glyph glyph-name="aacute" unicode="&#xe1;" horiz-adv-x="530" 
d="M199 -9q-42 0 -78.5 19t-58.5 52t-22 75q0 52 28.5 83.5t89.5 46.5t157 15h80l-8 -53h-61q-77 0 -121.5 -8t-63.5 -27t-19 -52q0 -44 29.5 -67t67.5 -23q37 0 68.5 16t53.5 47.5t29 74.5l19 122q10 58 -14.5 88t-88.5 30q-37 0 -70 -7t-66 -26q-13 -7 -24 -6t-18 8.5
t-8 17.5t5 20t21 18q38 21 82.5 30.5t86.5 9.5q68 0 108.5 -25.5t55.5 -71.5t5 -108l-41 -257q-2 -20 -13.5 -30t-30.5 -10q-18 0 -26.5 12t-5.5 34l13 81l8 -10q-13 -40 -39.5 -66.5t-60.5 -39.5t-69 -13zM348 555q-9 -10 -19 -11t-17.5 4t-9.5 14.5t6 21.5l107 161
q10 15 21.5 18.5t21.5 0.5t17 -11.5t7 -19.5t-9 -23z" />
    <glyph glyph-name="acircumflex" unicode="&#xe2;" horiz-adv-x="530" 
d="M199 -9q-42 0 -78.5 19t-58.5 52t-22 75q0 52 28.5 83.5t89.5 46.5t157 15h80l-8 -53h-61q-77 0 -121.5 -8t-63.5 -27t-19 -52q0 -44 29.5 -67t67.5 -23q37 0 68.5 16t53.5 47.5t29 74.5l19 122q10 58 -14.5 88t-88.5 30q-37 0 -70 -7t-66 -26q-13 -7 -24 -6t-18 8.5
t-8 17.5t5 20t21 18q38 21 82.5 30.5t86.5 9.5q68 0 108.5 -25.5t55.5 -71.5t5 -108l-41 -257q-2 -20 -13.5 -30t-30.5 -10q-18 0 -26.5 12t-5.5 34l13 81l8 -10q-13 -40 -39.5 -66.5t-60.5 -39.5t-69 -13zM448 580q6 -12 2 -21t-13.5 -13t-19 -1.5t-14.5 12.5l-72 142
l-106 -143q-7 -10 -17 -12t-18 2.5t-10.5 13.5t5.5 21l99 153q11 17 23.5 24.5t28.5 7.5q15 0 26.5 -8t18.5 -24z" />
    <glyph glyph-name="atilde" unicode="&#xe3;" horiz-adv-x="530" 
d="M199 -9q-42 0 -78.5 19t-58.5 52t-22 75q0 52 28.5 83.5t89.5 46.5t157 15h80l-8 -53h-61q-77 0 -121.5 -8t-63.5 -27t-19 -52q0 -44 29.5 -67t67.5 -23q37 0 68.5 16t53.5 47.5t29 74.5l19 122q10 58 -14.5 88t-88.5 30q-37 0 -70 -7t-66 -26q-13 -7 -24 -6t-18 8.5
t-8 17.5t5 20t21 18q38 21 82.5 30.5t86.5 9.5q68 0 108.5 -25.5t55.5 -71.5t5 -108l-41 -257q-2 -20 -13.5 -30t-30.5 -10q-18 0 -26.5 12t-5.5 34l13 81l8 -10q-13 -40 -39.5 -66.5t-60.5 -39.5t-69 -13zM164 588q-11 1 -16.5 8.5t-2.5 18.5q6 27 17 48t25 35t32 21t38 7
q24 0 41.5 -11.5t32 -26t29 -26.5t33.5 -12q22 0 38.5 16.5t25.5 45.5q3 10 10.5 15t17.5 4q11 -1 16.5 -8t2.5 -19q-8 -35 -24.5 -60t-38 -38t-48.5 -13q-25 0 -43 11.5t-32.5 26.5t-29 26.5t-32.5 11.5q-22 0 -39 -16.5t-25 -44.5q-3 -11 -10 -16t-18 -4z" />
    <glyph glyph-name="adieresis" unicode="&#xe4;" horiz-adv-x="530" 
d="M199 -9q-42 0 -78.5 19t-58.5 52t-22 75q0 52 28.5 83.5t89.5 46.5t157 15h80l-8 -53h-61q-77 0 -121.5 -8t-63.5 -27t-19 -52q0 -44 29.5 -67t67.5 -23q37 0 68.5 16t53.5 47.5t29 74.5l19 122q10 58 -14.5 88t-88.5 30q-37 0 -70 -7t-66 -26q-13 -7 -24 -6t-18 8.5
t-8 17.5t5 20t21 18q38 21 82.5 30.5t86.5 9.5q68 0 108.5 -25.5t55.5 -71.5t5 -108l-41 -257q-2 -20 -13.5 -30t-30.5 -10q-18 0 -26.5 12t-5.5 34l13 81l8 -10q-13 -40 -39.5 -66.5t-60.5 -39.5t-69 -13zM412 606q-19 0 -29.5 9.5t-10.5 27.5q0 26 14 41t40 15
q20 0 30 -10t10 -27q0 -26 -14 -41t-40 -15zM238 606q-20 0 -30.5 9.5t-10.5 27.5q0 26 14.5 41t39.5 15q20 0 30.5 -10t10.5 -27q0 -26 -14 -41t-40 -15z" />
    <glyph glyph-name="aring" unicode="&#xe5;" horiz-adv-x="530" 
d="M199 -9q-42 0 -78.5 19t-58.5 52t-22 75q0 52 28.5 83.5t89.5 46.5t157 15h80l-8 -53h-61q-77 0 -121.5 -8t-63.5 -27t-19 -52q0 -44 29.5 -67t67.5 -23q37 0 68.5 16t53.5 47.5t29 74.5l19 122q10 58 -14.5 88t-88.5 30q-37 0 -70 -7t-66 -26q-13 -7 -24 -6t-18 8.5
t-8 17.5t5 20t21 18q38 21 82.5 30.5t86.5 9.5q68 0 108.5 -25.5t55.5 -71.5t5 -108l-41 -257q-2 -20 -13.5 -30t-30.5 -10q-18 0 -26.5 12t-5.5 34l13 81l8 -10q-13 -40 -39.5 -66.5t-60.5 -39.5t-69 -13zM334 547q-33 0 -60 15t-43 41.5t-16 58.5q0 33 16 59t43 41.5
t60 15.5q34 0 60.5 -15.5t42.5 -41.5t16 -59q0 -32 -16 -58.5t-42.5 -41.5t-60.5 -15zM334 590q32 0 52 21t20 51q0 31 -20 51.5t-52 20.5q-31 0 -51.5 -20.5t-20.5 -50.5q0 -31 20.5 -52t51.5 -21z" />
    <glyph glyph-name="ae" unicode="&#xe6;" horiz-adv-x="861" 
d="M210 -9q-44 0 -83 17.5t-63 50t-24 78.5q0 52 28.5 83.5t89.5 46.5t157 15h80l-8 -54h-61q-77 0 -121.5 -8t-63.5 -27t-19 -51q0 -43 29.5 -66t67.5 -23q37 0 68.5 14.5t54 43.5t29.5 72l19 121q10 63 -15 94.5t-89 31.5q-37 0 -70 -7t-66 -26q-13 -7 -24 -6t-18 8.5
t-8 17.5t5 20t21 18q38 21 82.5 30.5t86.5 9.5q70 0 111 -31t51 -90h-31q31 55 83.5 88t123.5 33q59 0 98 -20.5t61 -55t29 -76.5t1 -84l-2 -11q-1 -9 -8 -14.5t-18 -5.5h-359l8 54h329l-18 -16q7 47 -3 85t-39 61t-81 23q-53 0 -89 -24.5t-56 -62.5t-27 -79l-4 -24
q-14 -86 25.5 -137.5t121.5 -51.5q36 0 69.5 8.5t64.5 29.5q13 9 23.5 8.5t17.5 -7t8.5 -16t-3 -20t-16.5 -19.5q-34 -24 -80 -36.5t-88 -12.5q-86 0 -140 40.5t-69 112.5h26q-23 -79 -79.5 -116t-125.5 -37z" />
    <glyph glyph-name="ccedilla" unicode="&#xe7;" horiz-adv-x="463" 
d="M258 -9q-72 0 -119 27t-70.5 76t-23.5 113q0 54 15 105.5t47 92.5t81 65.5t117 24.5q38 0 73.5 -10t61.5 -28q14 -8 20 -19.5t4 -22t-8.5 -18t-16.5 -8.5t-21 6q-25 18 -52 26t-58 8q-49 0 -83 -19t-55.5 -51t-31.5 -71.5t-10 -79.5q0 -68 32.5 -109.5t107.5 -41.5
q24 0 50 7.5t52 24.5q10 7 20 5.5t16.5 -8.5t8.5 -16.5t-1.5 -19.5t-15.5 -18q-27 -19 -66 -30t-74 -11zM221 -192q-18 0 -35.5 2.5t-33.5 7.5q-12 4 -16 13t-1 18.5t11 14t21 0.5q11 -5 25 -7t30 -2q28 0 45 10t17 29q0 12 -8.5 19t-26.5 7q-7 0 -16.5 -1t-18.5 -4
q-8 -2 -13.5 -2t-9.5 4q-3 4 -3.5 8.5t2.5 12.5l26 82h51l-25 -75l-24 6q13 3 24.5 5t21.5 2q34 0 55 -16t21 -47q0 -39 -34 -63t-85 -24z" />
    <glyph glyph-name="egrave" unicode="&#xe8;" horiz-adv-x="532" 
d="M270 -9q-69 0 -120 26t-78.5 74.5t-27.5 114.5q0 79 32 144.5t90 105t138 39.5q57 0 95.5 -20t61.5 -54t30 -77.5t2 -89.5q-2 -17 -9 -22.5t-22 -5.5h-355l8 53h328l-18 -13q7 47 -3 85t-39 61t-80 23q-54 0 -90 -24.5t-56.5 -62.5t-27.5 -79l-4 -24q-14 -85 26 -137
t123 -52q36 0 70 9t64 29q14 9 24.5 8.5t17 -7t8 -16t-3 -20t-16.5 -19.5q-34 -24 -80 -36.5t-88 -12.5zM287 558l-107 153q-9 14 -8 25t9 18.5t19.5 9.5t23 -3.5t19.5 -20.5l90 -156q6 -13 3 -22.5t-11.5 -14.5t-19 -3t-18.5 14z" />
    <glyph glyph-name="eacute" unicode="&#xe9;" horiz-adv-x="532" 
d="M270 -9q-69 0 -120 26t-78.5 74.5t-27.5 114.5q0 79 32 144.5t90 105t138 39.5q57 0 95.5 -20t61.5 -54t30 -77.5t2 -89.5q-2 -17 -9 -22.5t-22 -5.5h-355l8 53h328l-18 -13q7 47 -3 85t-39 61t-80 23q-54 0 -90 -24.5t-56.5 -62.5t-27.5 -79l-4 -24q-14 -85 26 -137
t123 -52q36 0 70 9t64 29q14 9 24.5 8.5t17 -7t8 -16t-3 -20t-16.5 -19.5q-34 -24 -80 -36.5t-88 -12.5zM355 555q-9 -10 -19 -11t-17.5 4t-9.5 14.5t6 21.5l107 161q10 15 21.5 18.5t21.5 0.5t17 -11.5t7 -19.5t-9 -23z" />
    <glyph glyph-name="ecircumflex" unicode="&#xea;" horiz-adv-x="532" 
d="M270 -9q-69 0 -120 26t-78.5 74.5t-27.5 114.5q0 79 32 144.5t90 105t138 39.5q57 0 95.5 -20t61.5 -54t30 -77.5t2 -89.5q-2 -17 -9 -22.5t-22 -5.5h-355l8 53h328l-18 -13q7 47 -3 85t-39 61t-80 23q-54 0 -90 -24.5t-56.5 -62.5t-27.5 -79l-4 -24q-14 -85 26 -137
t123 -52q36 0 70 9t64 29q14 9 24.5 8.5t17 -7t8 -16t-3 -20t-16.5 -19.5q-34 -24 -80 -36.5t-88 -12.5zM455 580q6 -12 2 -21t-13.5 -13t-19 -1.5t-14.5 12.5l-72 142l-106 -143q-7 -10 -17 -12t-18 2.5t-10.5 13.5t5.5 21l99 153q11 17 23.5 24.5t28.5 7.5q15 0 26.5 -8
t18.5 -24z" />
    <glyph glyph-name="edieresis" unicode="&#xeb;" horiz-adv-x="532" 
d="M270 -9q-69 0 -120 26t-78.5 74.5t-27.5 114.5q0 79 32 144.5t90 105t138 39.5q57 0 95.5 -20t61.5 -54t30 -77.5t2 -89.5q-2 -17 -9 -22.5t-22 -5.5h-355l8 53h328l-18 -13q7 47 -3 85t-39 61t-80 23q-54 0 -90 -24.5t-56.5 -62.5t-27.5 -79l-4 -24q-14 -85 26 -137
t123 -52q36 0 70 9t64 29q14 9 24.5 8.5t17 -7t8 -16t-3 -20t-16.5 -19.5q-34 -24 -80 -36.5t-88 -12.5zM419 606q-19 0 -29.5 9.5t-10.5 27.5q0 26 14 41t40 15q20 0 30 -10t10 -27q0 -26 -14 -41t-40 -15zM245 606q-20 0 -30.5 9.5t-10.5 27.5q0 26 14.5 41t39.5 15
q20 0 30.5 -10t10.5 -27q0 -26 -14 -41t-40 -15z" />
    <glyph glyph-name="igrave" unicode="&#xec;" horiz-adv-x="232" 
d="M76 -7q-19 0 -27.5 12.5t-5.5 35.5l66 412q3 20 14.5 30t31.5 10q19 0 28 -12t5 -35l-65 -413q-3 -20 -14.5 -30t-32.5 -10zM130 558l-107 153q-9 14 -8 25t9 18.5t19.5 9.5t23 -3.5t19.5 -20.5l90 -156q6 -13 3 -22.5t-11.5 -14.5t-19 -3t-18.5 14z" />
    <glyph glyph-name="iacute" unicode="&#xed;" horiz-adv-x="232" 
d="M76 -7q-19 0 -27.5 12.5t-5.5 35.5l66 412q3 20 14.5 30t31.5 10q19 0 28 -12t5 -35l-65 -413q-3 -20 -14.5 -30t-32.5 -10zM198 555q-9 -10 -19 -11t-17.5 4t-9.5 14.5t6 21.5l107 161q10 15 21.5 18.5t21.5 0.5t17 -11.5t7 -19.5t-9 -23z" />
    <glyph glyph-name="icircumflex" unicode="&#xee;" horiz-adv-x="232" 
d="M76 -7q-19 0 -27.5 12.5t-5.5 35.5l66 412q3 20 14.5 30t31.5 10q19 0 28 -12t5 -35l-65 -413q-3 -20 -14.5 -30t-32.5 -10zM298 580q6 -12 2 -21t-13.5 -13t-19 -1.5t-14.5 12.5l-72 142l-106 -143q-7 -10 -17 -12t-18 2.5t-10.5 13.5t5.5 21l99 153q11 17 23.5 24.5
t28.5 7.5q15 0 26.5 -8t18.5 -24z" />
    <glyph glyph-name="idieresis" unicode="&#xef;" horiz-adv-x="232" 
d="M76 -7q-19 0 -27.5 12.5t-5.5 35.5l66 412q3 20 14.5 30t31.5 10q19 0 28 -12t5 -35l-65 -413q-3 -20 -14.5 -30t-32.5 -10zM262 606q-19 0 -29.5 9.5t-10.5 27.5q0 26 14 41t40 15q20 0 30 -10t10 -27q0 -26 -14 -41t-40 -15zM88 606q-20 0 -30.5 9.5t-10.5 27.5
q0 26 14.5 41t39.5 15q20 0 30.5 -10t10.5 -27q0 -26 -14 -41t-40 -15z" />
    <glyph glyph-name="eth" unicode="&#xf0;" horiz-adv-x="560" 
d="M253 -9q-60 0 -108 24t-76 69t-28 104q0 78 32.5 137.5t89 93t126.5 33.5q47 0 85 -16.5t62.5 -50t28.5 -86.5h-17q5 98 -24.5 174.5t-91.5 124.5l15 -2l-140 -61q-12 -5 -21 -1t-12.5 13t-0.5 18.5t15 14.5l113 48l-1 -9q-17 10 -37 19t-42 16q-16 5 -21.5 15.5t-3 21
t13.5 16t29 1.5q37 -11 69.5 -25t59.5 -34l-17 2l131 55q13 6 22.5 2t13 -13t0 -18.5t-16.5 -14.5l-106 -45l2 10q43 -37 70.5 -85.5t40.5 -105.5t12 -122q0 -63 -15.5 -121t-47.5 -103.5t-83 -72t-121 -26.5zM259 57q48 0 86 23t61 67t23 106q0 64 -36 99t-99 35
q-47 0 -86 -23t-62 -66.5t-23 -106.5t36.5 -98.5t99.5 -35.5z" />
    <glyph glyph-name="ntilde" unicode="&#xf1;" horiz-adv-x="568" 
d="M77 -6q-19 0 -27.5 13t-5.5 35l65 411q4 20 15.5 30t31.5 10q18 0 26.5 -11.5t4.5 -33.5l-13 -84l-8 12q25 57 73.5 88t115.5 31q54 0 90.5 -21.5t52 -66t4.5 -113.5l-41 -261q-2 -20 -14 -29.5t-32 -9.5q-19 0 -28 12.5t-6 34.5l40 253q12 68 -11 101.5t-79 33.5
q-73 0 -116 -45t-55 -120l-36 -230q-6 -40 -47 -40zM181 588q-11 1 -16.5 8.5t-2.5 18.5q6 27 17 48t25 35t32 21t38 7q24 0 41.5 -11.5t32 -26t29 -26.5t33.5 -12q22 0 38.5 16.5t25.5 45.5q3 10 10.5 15t17.5 4q11 -1 16.5 -8t2.5 -19q-8 -35 -24.5 -60t-38 -38t-48.5 -13
q-25 0 -43 11.5t-32.5 26.5t-29 26.5t-32.5 11.5q-22 0 -39 -16.5t-25 -44.5q-3 -11 -10 -16t-18 -4z" />
    <glyph glyph-name="ograve" unicode="&#xf2;" horiz-adv-x="556" 
d="M255 -9q-65 0 -112.5 26t-73 74t-25.5 114q0 62 18.5 114.5t52.5 92.5t80.5 61.5t105.5 21.5q65 0 112.5 -26t72.5 -73.5t25 -114.5q0 -62 -18 -114.5t-52 -92t-81 -61.5t-105 -22zM258 56q55 0 93.5 31t58 83t19.5 114q0 72 -34.5 109t-96.5 37q-55 0 -93.5 -31
t-58.5 -82t-20 -115q0 -71 35 -108.5t97 -37.5zM293 558l-107 153q-9 14 -8 25t9 18.5t19.5 9.5t23 -3.5t19.5 -20.5l90 -156q6 -13 3 -22.5t-11.5 -14.5t-19 -3t-18.5 14z" />
    <glyph glyph-name="oacute" unicode="&#xf3;" horiz-adv-x="556" 
d="M255 -9q-65 0 -112.5 26t-73 74t-25.5 114q0 62 18.5 114.5t52.5 92.5t80.5 61.5t105.5 21.5q65 0 112.5 -26t72.5 -73.5t25 -114.5q0 -62 -18 -114.5t-52 -92t-81 -61.5t-105 -22zM258 56q55 0 93.5 31t58 83t19.5 114q0 72 -34.5 109t-96.5 37q-55 0 -93.5 -31
t-58.5 -82t-20 -115q0 -71 35 -108.5t97 -37.5zM361 555q-9 -10 -19 -11t-17.5 4t-9.5 14.5t6 21.5l107 161q10 15 21.5 18.5t21.5 0.5t17 -11.5t7 -19.5t-9 -23z" />
    <glyph glyph-name="ocircumflex" unicode="&#xf4;" horiz-adv-x="556" 
d="M255 -9q-65 0 -112.5 26t-73 74t-25.5 114q0 62 18.5 114.5t52.5 92.5t80.5 61.5t105.5 21.5q65 0 112.5 -26t72.5 -73.5t25 -114.5q0 -62 -18 -114.5t-52 -92t-81 -61.5t-105 -22zM258 56q55 0 93.5 31t58 83t19.5 114q0 72 -34.5 109t-96.5 37q-55 0 -93.5 -31
t-58.5 -82t-20 -115q0 -71 35 -108.5t97 -37.5zM461 580q6 -12 2 -21t-13.5 -13t-19 -1.5t-14.5 12.5l-72 142l-106 -143q-7 -10 -17 -12t-18 2.5t-10.5 13.5t5.5 21l99 153q11 17 23.5 24.5t28.5 7.5q15 0 26.5 -8t18.5 -24z" />
    <glyph glyph-name="otilde" unicode="&#xf5;" horiz-adv-x="556" 
d="M255 -9q-65 0 -112.5 26t-73 74t-25.5 114q0 62 18.5 114.5t52.5 92.5t80.5 61.5t105.5 21.5q65 0 112.5 -26t72.5 -73.5t25 -114.5q0 -62 -18 -114.5t-52 -92t-81 -61.5t-105 -22zM258 56q55 0 93.5 31t58 83t19.5 114q0 72 -34.5 109t-96.5 37q-55 0 -93.5 -31
t-58.5 -82t-20 -115q0 -71 35 -108.5t97 -37.5zM177 588q-11 1 -16.5 8.5t-2.5 18.5q6 27 17 48t25 35t32 21t38 7q24 0 41.5 -11.5t32 -26t29 -26.5t33.5 -12q22 0 38.5 16.5t25.5 45.5q3 10 10.5 15t17.5 4q11 -1 16.5 -8t2.5 -19q-8 -35 -24.5 -60t-38 -38t-48.5 -13
q-25 0 -43 11.5t-32.5 26.5t-29 26.5t-32.5 11.5q-22 0 -39 -16.5t-25 -44.5q-3 -11 -10 -16t-18 -4z" />
    <glyph glyph-name="odieresis" unicode="&#xf6;" horiz-adv-x="556" 
d="M255 -9q-65 0 -112.5 26t-73 74t-25.5 114q0 62 18.5 114.5t52.5 92.5t80.5 61.5t105.5 21.5q65 0 112.5 -26t72.5 -73.5t25 -114.5q0 -62 -18 -114.5t-52 -92t-81 -61.5t-105 -22zM258 56q55 0 93.5 31t58 83t19.5 114q0 72 -34.5 109t-96.5 37q-55 0 -93.5 -31
t-58.5 -82t-20 -115q0 -71 35 -108.5t97 -37.5zM425 606q-19 0 -29.5 9.5t-10.5 27.5q0 26 14 41t40 15q20 0 30 -10t10 -27q0 -26 -14 -41t-40 -15zM251 606q-20 0 -30.5 9.5t-10.5 27.5q0 26 14.5 41t39.5 15q20 0 30.5 -10t10.5 -27q0 -26 -14 -41t-40 -15z" />
    <glyph glyph-name="divide" unicode="&#xf7;" horiz-adv-x="600" 
d="M89 256q-15 0 -24 6.5t-9 18.5q0 17 10 27t27 10h431q17 0 25.5 -6.5t8.5 -19.5q0 -17 -10 -26.5t-27 -9.5h-432zM262 41q-19 0 -29.5 10.5t-10.5 28.5q0 23 15 39t40 16q19 0 29 -10.5t10 -27.5q0 -24 -14 -40t-40 -16zM325 439q-19 0 -29.5 10.5t-10.5 27.5q0 24 15 40
t40 16q19 0 29.5 -10.5t10.5 -28.5q0 -24 -14.5 -39.5t-40.5 -15.5z" />
    <glyph glyph-name="oslash" unicode="&#xf8;" horiz-adv-x="556" 
d="M256 -9q-65 0 -112.5 26t-73 74.5t-25.5 114.5q0 61 18 114t52 92.5t81 61t105 21.5q66 0 113 -26t72.5 -73.5t25.5 -114.5q0 -62 -18 -114.5t-52 -92t-81 -61.5t-105 -22zM259 53q57 0 96 31t59.5 83.5t20.5 117.5q0 73 -36 110.5t-102 37.5q-56 0 -95.5 -30.5t-60 -83
t-20.5 -117.5q0 -73 36.5 -111t101.5 -38zM116 -24q-8 -11 -18.5 -11.5t-19 5.5t-10 16.5t6.5 22.5l367 501q9 10 19 11t18 -5t10 -16.5t-7 -22.5z" />
    <glyph glyph-name="ugrave" unicode="&#xf9;" horiz-adv-x="561" 
d="M211 -9q-52 0 -88.5 22t-52 66.5t-4.5 113.5l41 262q4 20 15 29t30 9q20 0 29.5 -11.5t5.5 -33.5l-40 -255q-11 -68 11 -101.5t77 -33.5q70 0 112.5 45t53.5 120l36 232q4 20 15 29t30 9q21 0 30 -11t6 -33l-66 -417q-6 -39 -44 -39q-19 0 -28 11t-6 33l13 87l9 -12
q-25 -58 -73 -89.5t-112 -31.5zM290 559l-107 153q-9 14 -8 25t9 18.5t19.5 9.5t23 -3.5t19.5 -20.5l90 -156q6 -13 3 -22.5t-11.5 -14.5t-19 -3t-18.5 14z" />
    <glyph glyph-name="uacute" unicode="&#xfa;" horiz-adv-x="561" 
d="M211 -9q-52 0 -88.5 22t-52 66.5t-4.5 113.5l41 262q4 20 15 29t30 9q20 0 29.5 -11.5t5.5 -33.5l-40 -255q-11 -68 11 -101.5t77 -33.5q70 0 112.5 45t53.5 120l36 232q4 20 15 29t30 9q21 0 30 -11t6 -33l-66 -417q-6 -39 -44 -39q-19 0 -28 11t-6 33l13 87l9 -12
q-25 -58 -73 -89.5t-112 -31.5zM358 556q-9 -10 -19 -11t-17.5 4t-9.5 14.5t6 21.5l107 161q10 15 21.5 18.5t21.5 0.5t17 -11.5t7 -19.5t-9 -23z" />
    <glyph glyph-name="ucircumflex" unicode="&#xfb;" horiz-adv-x="561" 
d="M211 -9q-52 0 -88.5 22t-52 66.5t-4.5 113.5l41 262q4 20 15 29t30 9q20 0 29.5 -11.5t5.5 -33.5l-40 -255q-11 -68 11 -101.5t77 -33.5q70 0 112.5 45t53.5 120l36 232q4 20 15 29t30 9q21 0 30 -11t6 -33l-66 -417q-6 -39 -44 -39q-19 0 -28 11t-6 33l13 87l9 -12
q-25 -58 -73 -89.5t-112 -31.5zM458 581q6 -12 2 -21t-13.5 -13t-19 -1.5t-14.5 12.5l-72 142l-106 -143q-7 -10 -17 -12t-18 2.5t-10.5 13.5t5.5 21l99 153q11 17 23.5 24.5t28.5 7.5q15 0 26.5 -8t18.5 -24z" />
    <glyph glyph-name="udieresis" unicode="&#xfc;" horiz-adv-x="561" 
d="M211 -9q-52 0 -88.5 22t-52 66.5t-4.5 113.5l41 262q4 20 15 29t30 9q20 0 29.5 -11.5t5.5 -33.5l-40 -255q-11 -68 11 -101.5t77 -33.5q70 0 112.5 45t53.5 120l36 232q4 20 15 29t30 9q21 0 30 -11t6 -33l-66 -417q-6 -39 -44 -39q-19 0 -28 11t-6 33l13 87l9 -12
q-25 -58 -73 -89.5t-112 -31.5zM422 607q-19 0 -29.5 9.5t-10.5 27.5q0 26 14 41t40 15q20 0 30 -10t10 -27q0 -26 -14 -41t-40 -15zM248 607q-20 0 -30.5 9.5t-10.5 27.5q0 26 14.5 41t39.5 15q20 0 30.5 -10t10.5 -27q0 -26 -14 -41t-40 -15z" />
    <glyph glyph-name="yacute" unicode="&#xfd;" horiz-adv-x="514" 
d="M119 -187q-16 0 -24.5 8t-8.5 20.5t8 26.5l93 157l-5 -35l-120 446q-5 17 -2 30t13.5 20t25.5 7q18 0 26.5 -8t13.5 -29l99 -397h-28l233 405q9 15 19 22t25 7q16 0 25.5 -7.5t10.5 -20t-8 -27.5l-352 -595q-8 -15 -18 -22.5t-26 -7.5zM327 555q-9 -10 -19 -11t-17.5 4
t-9.5 14.5t6 21.5l107 161q10 15 21.5 18.5t21.5 0.5t17 -11.5t7 -19.5t-9 -23z" />
    <glyph glyph-name="thorn" unicode="&#xfe;" horiz-adv-x="583" 
d="M48 -187q-19 0 -28 12.5t-5 34.5l128 811q4 21 15.5 31t31.5 10q19 0 28 -11.5t5 -34.5l-46 -296l-9 14q27 52 74 81.5t109 29.5q57 0 99.5 -25t65.5 -72t23 -111q0 -80 -28.5 -147.5t-83 -108t-132.5 -40.5q-58 0 -104 29.5t-63 89.5h8l-42 -258q-2 -20 -13.5 -29.5
t-32.5 -9.5zM285 56q56 0 94 31t58 83t20 114q0 72 -35 109t-96 37q-55 0 -93.5 -31t-58.5 -82t-20 -115q0 -71 35 -108.5t96 -37.5z" />
    <glyph glyph-name="ydieresis" unicode="&#xff;" horiz-adv-x="514" 
d="M119 -187q-16 0 -24.5 8t-8.5 20.5t8 26.5l93 157l-5 -35l-120 446q-5 17 -2 30t13.5 20t25.5 7q18 0 26.5 -8t13.5 -29l99 -397h-28l233 405q9 15 19 22t25 7q16 0 25.5 -7.5t10.5 -20t-8 -27.5l-352 -595q-8 -15 -18 -22.5t-26 -7.5zM391 606q-19 0 -29.5 9.5
t-10.5 27.5q0 26 14 41t40 15q20 0 30 -10t10 -27q0 -26 -14 -41t-40 -15zM217 606q-20 0 -30.5 9.5t-10.5 27.5q0 26 14.5 41t39.5 15q20 0 30.5 -10t10.5 -27q0 -26 -14 -41t-40 -15z" />
    <glyph glyph-name="Amacron" unicode="&#x100;" horiz-adv-x="729" 
d="M40 -7q-15 0 -25 7.5t-12.5 19.5t6.5 27l382 636q9 15 20.5 22t27.5 7q17 0 27.5 -8.5t15.5 -24.5l176 -630q6 -19 3 -31.5t-12 -18.5t-22 -6q-18 0 -28.5 10t-15.5 29l-44 165l32 -17h-426l41 16l-104 -177q-7 -13 -17.5 -19.5t-24.5 -6.5zM427 609l-219 -374l-22 14
h366l-23 -15l-100 375h-2zM321 814q-30 0 -30 24q0 15 9 23t24 8h277q30 0 30 -23q0 -14 -8.5 -23t-23.5 -9h-278z" />
    <glyph glyph-name="amacron" unicode="&#x101;" horiz-adv-x="530" 
d="M199 -9q-42 0 -78.5 19t-58.5 52t-22 75q0 52 28.5 83.5t89.5 46.5t157 15h80l-8 -53h-61q-77 0 -121.5 -8t-63.5 -27t-19 -52q0 -44 29.5 -67t67.5 -23q37 0 68.5 16t53.5 47.5t29 74.5l19 122q10 58 -14.5 88t-88.5 30q-37 0 -70 -7t-66 -26q-13 -7 -24 -6t-18 8.5
t-8 17.5t5 20t21 18q38 21 82.5 30.5t86.5 9.5q68 0 108.5 -25.5t55.5 -71.5t5 -108l-41 -257q-2 -20 -13.5 -30t-30.5 -10q-18 0 -26.5 12t-5.5 34l13 81l8 -10q-13 -40 -39.5 -66.5t-60.5 -39.5t-69 -13zM207 625q-30 0 -30 23q0 15 9 23.5t24 8.5h247q30 0 30 -23
q0 -14 -8.5 -23t-24.5 -9h-247z" />
    <glyph glyph-name="Abreve" unicode="&#x102;" horiz-adv-x="729" 
d="M40 -7q-15 0 -25 7.5t-12.5 19.5t6.5 27l382 636q9 15 20.5 22t27.5 7q17 0 27.5 -8.5t15.5 -24.5l176 -630q6 -19 3 -31.5t-12 -18.5t-22 -6q-18 0 -28.5 10t-15.5 29l-44 165l32 -17h-426l41 16l-104 -177q-7 -13 -17.5 -19.5t-24.5 -6.5zM427 609l-219 -374l-22 14
h366l-23 -15l-100 375h-2zM453 760q-67 0 -108.5 40.5t-46.5 107.5q-2 13 4.5 20.5t17.5 9.5q8 1 14.5 -1.5t10.5 -8t4 -13.5q2 -48 31.5 -74.5t75.5 -26.5q45 0 78.5 26.5t45.5 75.5q2 8 6 13t10 7.5t14 1.5q13 -2 18.5 -11t0.5 -24q-17 -66 -65 -104.5t-111 -38.5z" />
    <glyph glyph-name="abreve" unicode="&#x103;" horiz-adv-x="530" 
d="M199 -9q-42 0 -78.5 19t-58.5 52t-22 75q0 52 28.5 83.5t89.5 46.5t157 15h80l-8 -53h-61q-77 0 -121.5 -8t-63.5 -27t-19 -52q0 -44 29.5 -67t67.5 -23q37 0 68.5 16t53.5 47.5t29 74.5l19 122q10 58 -14.5 88t-88.5 30q-37 0 -70 -7t-66 -26q-13 -7 -24 -6t-18 8.5
t-8 17.5t5 20t21 18q38 21 82.5 30.5t86.5 9.5q68 0 108.5 -25.5t55.5 -71.5t5 -108l-41 -257q-2 -20 -13.5 -30t-30.5 -10q-18 0 -26.5 12t-5.5 34l13 81l8 -10q-13 -40 -39.5 -66.5t-60.5 -39.5t-69 -13zM324 549q-41 0 -72.5 20t-49 57.5t-18.5 89.5q-1 13 5 20.5t18 8.5
q12 2 20 -4t8 -20q2 -57 26.5 -87t65.5 -30t70 30.5t41 88.5q3 12 10.5 18t18.5 4q13 -1 18.5 -11t1.5 -25q-11 -50 -33.5 -86t-55.5 -55t-74 -19z" />
    <glyph glyph-name="Aogonek" unicode="&#x104;" horiz-adv-x="729" 
d="M620 -192q-48 0 -73 25.5t-25 63.5q0 40 21 71t55 52l-3 -13q-4 4 -7 10.5t-5 14.5l-44 165l32 -17h-426l41 16l-104 -177q-7 -13 -17.5 -19.5t-24.5 -6.5q-15 0 -25 7.5t-12.5 19.5t6.5 27l382 636q9 15 20.5 22t27.5 7q17 0 27.5 -8.5t15.5 -24.5l176 -630
q6 -21 2 -33.5t-16 -18.5q-21 -12 -35.5 -26t-21.5 -29t-7 -33q0 -23 14 -37t39 -14q9 0 17.5 1.5t19.5 4.5q12 4 18.5 -1t8 -14.5t-2 -18t-12.5 -12.5q-14 -5 -31 -7.5t-31 -2.5zM427 609l-219 -374l-22 14h366l-23 -15l-100 375h-2z" />
    <glyph glyph-name="aogonek" unicode="&#x105;" horiz-adv-x="530" 
d="M367 -192q-48 0 -73 25.5t-25 63.5q0 42 23.5 75t63.5 55l-7 -16q-2 6 -2.5 13t0.5 15l13 81l8 -10q-13 -40 -39.5 -66.5t-60.5 -39.5t-69 -13q-42 0 -78.5 19t-58.5 52t-22 75q0 52 28.5 83.5t89.5 46.5t157 15h80l-8 -53h-61q-77 0 -121.5 -8t-63.5 -27t-19 -52
q0 -44 29.5 -67t67.5 -23q37 0 68.5 16t53.5 47.5t29 74.5l19 122q10 58 -14.5 88t-88.5 30q-37 0 -70 -7t-66 -26q-13 -7 -24 -6t-18 8.5t-8 17.5t5 20t21 18q38 21 82.5 30.5t86.5 9.5q68 0 108.5 -25.5t55.5 -71.5t5 -108l-41 -257q-2 -16 -10 -25.5t-20 -13.5
q-33 -14 -49.5 -35.5t-16.5 -49.5q0 -23 14 -37t39 -14q9 0 17.5 1.5t19.5 4.5q12 4 18.5 -1t8 -14.5t-2 -18t-12.5 -12.5q-14 -5 -31 -7.5t-31 -2.5z" />
    <glyph glyph-name="Cacute" unicode="&#x106;" horiz-adv-x="673" 
d="M382 -9q-90 0 -158.5 34.5t-107.5 104.5t-39 177q0 87 25 161t72.5 129t115 86t151.5 31q63 0 117.5 -18.5t94.5 -53.5q12 -10 15 -22t-1 -23t-12.5 -19t-19.5 -8.5t-23 8.5q-39 33 -81 47t-93 14q-85 0 -146 -43t-94 -117.5t-33 -169.5q0 -86 27 -140t77 -78.5
t121 -24.5q46 0 86 13.5t80 44.5q13 9 24.5 8t19.5 -8.5t11 -18t-1 -22.5t-16 -21q-46 -36 -100 -53.5t-112 -17.5zM483 769q-10 -9 -20 -9.5t-17.5 5t-9.5 15t6 19.5l99 130q9 13 21 16t22.5 -0.5t17 -11t6 -18.5t-10.5 -23z" />
    <glyph glyph-name="cacute" unicode="&#x107;" horiz-adv-x="463" 
d="M258 -9q-72 0 -119 27t-70.5 76t-23.5 113q0 54 15 105.5t47 92.5t81 65.5t117 24.5q38 0 73.5 -10t61.5 -28q14 -8 20 -19.5t4 -22t-8.5 -18t-16.5 -8.5t-21 6q-25 18 -52 26t-58 8q-49 0 -83 -19t-55.5 -51t-31.5 -71.5t-10 -79.5q0 -68 32.5 -109.5t107.5 -41.5
q24 0 50 7.5t52 24.5q10 7 20 5.5t16.5 -8.5t8.5 -16.5t-1.5 -19.5t-15.5 -18q-27 -19 -66 -30t-74 -11zM346 555q-9 -10 -19 -11t-17.5 4t-9.5 14.5t6 21.5l107 161q10 15 21.5 18.5t21.5 0.5t17 -11.5t7 -19.5t-9 -23z" />
    <glyph glyph-name="Ccircumflex" unicode="&#x108;" horiz-adv-x="673" 
d="M382 -9q-90 0 -158.5 34.5t-107.5 104.5t-39 177q0 87 25 161t72.5 129t115 86t151.5 31q63 0 117.5 -18.5t94.5 -53.5q12 -10 15 -22t-1 -23t-12.5 -19t-19.5 -8.5t-23 8.5q-39 33 -81 47t-93 14q-85 0 -146 -43t-94 -117.5t-33 -169.5q0 -86 27 -140t77 -78.5
t121 -24.5q46 0 86 13.5t80 44.5q13 9 24.5 8t19.5 -8.5t11 -18t-1 -22.5t-16 -21q-46 -36 -100 -53.5t-112 -17.5zM342 767q-9 -9 -19.5 -10t-18 4t-9 13.5t6.5 19.5l100 122q12 15 25.5 23t31.5 8t29 -8.5t21 -25.5l73 -119q8 -12 4.5 -21.5t-12.5 -13.5t-20.5 -1.5
t-19.5 13.5l-81 113z" />
    <glyph glyph-name="ccircumflex" unicode="&#x109;" horiz-adv-x="463" 
d="M258 -9q-72 0 -119 27t-70.5 76t-23.5 113q0 54 15 105.5t47 92.5t81 65.5t117 24.5q38 0 73.5 -10t61.5 -28q14 -8 20 -19.5t4 -22t-8.5 -18t-16.5 -8.5t-21 6q-25 18 -52 26t-58 8q-49 0 -83 -19t-55.5 -51t-31.5 -71.5t-10 -79.5q0 -68 32.5 -109.5t107.5 -41.5
q24 0 50 7.5t52 24.5q10 7 20 5.5t16.5 -8.5t8.5 -16.5t-1.5 -19.5t-15.5 -18q-27 -19 -66 -30t-74 -11zM446 580q6 -12 2 -21t-13.5 -13t-19 -1.5t-14.5 12.5l-72 142l-106 -143q-7 -10 -17 -12t-18 2.5t-10.5 13.5t5.5 21l99 153q11 17 23.5 24.5t28.5 7.5q15 0 26.5 -8
t18.5 -24z" />
    <glyph glyph-name="Cdotaccent" unicode="&#x10a;" horiz-adv-x="673" 
d="M382 -9q-90 0 -158.5 34.5t-107.5 104.5t-39 177q0 87 25 161t72.5 129t115 86t151.5 31q63 0 117.5 -18.5t94.5 -53.5q12 -10 15 -22t-1 -23t-12.5 -19t-19.5 -8.5t-23 8.5q-39 33 -81 47t-93 14q-85 0 -146 -43t-94 -117.5t-33 -169.5q0 -86 27 -140t77 -78.5
t121 -24.5q46 0 86 13.5t80 44.5q13 9 24.5 8t19.5 -8.5t11 -18t-1 -22.5t-16 -21q-46 -36 -100 -53.5t-112 -17.5zM453 803q-20 0 -31.5 10t-11.5 28q0 28 15.5 42.5t42.5 14.5q20 0 31.5 -9.5t11.5 -28.5q0 -26 -15 -41.5t-43 -15.5z" />
    <glyph glyph-name="cdotaccent" unicode="&#x10b;" horiz-adv-x="463" 
d="M258 -9q-72 0 -119 27t-70.5 76t-23.5 113q0 54 15 105.5t47 92.5t81 65.5t117 24.5q38 0 73.5 -10t61.5 -28q14 -8 20 -19.5t4 -22t-8.5 -18t-16.5 -8.5t-21 6q-25 18 -52 26t-58 8q-49 0 -83 -19t-55.5 -51t-31.5 -71.5t-10 -79.5q0 -68 32.5 -109.5t107.5 -41.5
q24 0 50 7.5t52 24.5q10 7 20 5.5t16.5 -8.5t8.5 -16.5t-1.5 -19.5t-15.5 -18q-27 -19 -66 -30t-74 -11zM322 605q-20 0 -31.5 10t-11.5 28q0 28 15.5 43t42.5 15q20 0 31.5 -10t11.5 -28q0 -27 -15.5 -42.5t-42.5 -15.5z" />
    <glyph glyph-name="Ccaron" unicode="&#x10c;" horiz-adv-x="673" 
d="M382 -9q-90 0 -158.5 34.5t-107.5 104.5t-39 177q0 87 25 161t72.5 129t115 86t151.5 31q63 0 117.5 -18.5t94.5 -53.5q12 -10 15 -22t-1 -23t-12.5 -19t-19.5 -8.5t-23 8.5q-39 33 -81 47t-93 14q-85 0 -146 -43t-94 -117.5t-33 -169.5q0 -86 27 -140t77 -78.5
t121 -24.5q46 0 86 13.5t80 44.5q13 9 24.5 8t19.5 -8.5t11 -18t-1 -22.5t-16 -21q-46 -36 -100 -53.5t-112 -17.5zM445 756q-18 0 -29.5 8.5t-20.5 24.5l-74 119q-6 12 -3.5 21.5t11.5 13.5t20 1.5t19 -14.5l81 -112l111 117q9 9 19.5 10t19 -4t10.5 -13.5t-7 -18.5
l-99 -122q-13 -16 -26.5 -23.5t-31.5 -7.5z" />
    <glyph glyph-name="ccaron" unicode="&#x10d;" horiz-adv-x="463" 
d="M258 -9q-72 0 -119 27t-70.5 76t-23.5 113q0 54 15 105.5t47 92.5t81 65.5t117 24.5q38 0 73.5 -10t61.5 -28q14 -8 20 -19.5t4 -22t-8.5 -18t-16.5 -8.5t-21 6q-25 18 -52 26t-58 8q-49 0 -83 -19t-55.5 -51t-31.5 -71.5t-10 -79.5q0 -68 32.5 -109.5t107.5 -41.5
q24 0 50 7.5t52 24.5q10 7 20 5.5t16.5 -8.5t8.5 -16.5t-1.5 -19.5t-15.5 -18q-27 -19 -66 -30t-74 -11zM311 542q-15 0 -27 7.5t-19 24.5l-66 153q-6 12 -2 21t13 13t19 1.5t16 -14.5l72 -143l107 145q8 11 18 13t18 -3t10.5 -13.5t-5.5 -20.5l-98 -150q-10 -17 -25 -25.5
t-31 -8.5z" />
    <glyph glyph-name="Dcaron" unicode="&#x10e;" horiz-adv-x="742" 
d="M98 0q-23 0 -34.5 13t-7.5 36l98 615q3 21 15.5 31t32.5 10h166q160 0 247 -77t87 -218q0 -85 -24 -159t-73 -130.5t-124 -88.5t-179 -32h-204zM142 70h162q84 0 143.5 26.5t96.5 73.5t54 108.5t17 130.5q0 110 -62.5 168t-185.5 58h-135zM442 756q-18 0 -29.5 8.5
t-20.5 24.5l-74 119q-6 12 -3.5 21.5t11.5 13.5t20 1.5t19 -14.5l81 -112l111 117q9 9 19.5 10t19 -4t10.5 -13.5t-7 -18.5l-99 -122q-13 -16 -26.5 -23.5t-31.5 -7.5z" />
    <glyph glyph-name="dcaron" unicode="&#x10f;" horiz-adv-x="583" 
d="M231 -9q-56 0 -98 25.5t-65.5 72.5t-23.5 110q0 81 28.5 148.5t83 107.5t132.5 40q58 0 104 -29t63 -90l-7 1l47 296q3 20 14.5 29.5t31.5 9.5q19 0 28 -12t5 -35l-100 -631q-3 -20 -14.5 -30.5t-31.5 -10.5q-19 0 -27.5 13t-4.5 36l12 75l7 -14q-26 -51 -73.5 -81.5
t-110.5 -30.5zM257 56q56 0 94 31t58 83t20 114q0 72 -35 109t-96 37q-55 0 -93.5 -31t-58.5 -82t-20 -115q0 -71 35 -108.5t96 -37.5zM616 510q-10 0 -14.5 6t-3.5 18l24 148q5 30 36 30q16 0 23 -9.5t2 -27.5l-41 -144q-6 -21 -26 -21z" />
    <glyph glyph-name="Dcroat" unicode="&#x110;" horiz-adv-x="742" 
d="M98 0q-23 0 -34.5 13t-7.5 36l98 615q3 21 15.5 31t32.5 10h166q160 0 247 -77t87 -218q0 -85 -24 -159t-73 -130.5t-124 -88.5t-179 -32h-204zM142 70h162q84 0 143.5 26.5t96.5 73.5t54 108.5t17 130.5q0 110 -62.5 168t-185.5 58h-135zM45 326q-17 0 -26 7t-9 20
q0 18 10.5 27.5t28.5 9.5h307q17 0 26 -6.5t9 -19.5q0 -18 -10.5 -28t-28.5 -10h-307z" />
    <glyph glyph-name="dcroat" unicode="&#x111;" horiz-adv-x="583" 
d="M231 -9q-56 0 -98 25.5t-65.5 72.5t-23.5 110q0 81 28.5 148.5t83 107.5t132.5 40q58 0 104 -29t63 -90l-8 1l28 177h-160q-16 0 -25 6t-9 18q0 18 10.5 27t27.5 9h182l-21 -34l15 92q3 21 14.5 30.5t31.5 9.5q19 0 28 -11.5t5 -34.5l-14 -86l-10 34h74q17 0 26 -6.5
t9 -18.5q0 -17 -10.5 -26t-27.5 -9h-65l-82 -520q-3 -20 -14.5 -30.5t-32.5 -10.5q-19 0 -27 13t-4 36l12 75l7 -14q-26 -51 -73.5 -81.5t-110.5 -30.5zM257 56q56 0 94 31t58 83t20 114q0 72 -35 109t-96 37q-55 0 -93.5 -31t-58.5 -82t-20 -115q0 -71 35 -108.5t96 -37.5z
" />
    <glyph glyph-name="Emacron" unicode="&#x112;" horiz-adv-x="583" 
d="M98 0q-24 0 -34.5 12.5t-7.5 36.5l98 615q3 21 15.5 31t32.5 10h369q18 0 27.5 -7t9.5 -20q0 -21 -11.5 -31.5t-29.5 -10.5h-337l-39 -244h310q18 0 27 -7t9 -20q0 -21 -11.5 -31.5t-28.5 -10.5h-317l-41 -254h331q18 0 27.5 -7t9.5 -21q0 -20 -11.5 -30.5t-29.5 -10.5
h-368zM280 814q-30 0 -30 24q0 15 9 23t24 8h277q30 0 30 -23q0 -14 -8.5 -23t-23.5 -9h-278z" />
    <glyph glyph-name="emacron" unicode="&#x113;" horiz-adv-x="532" 
d="M270 -9q-69 0 -120 26t-78.5 74.5t-27.5 114.5q0 79 32 144.5t90 105t138 39.5q57 0 95.5 -20t61.5 -54t30 -77.5t2 -89.5q-2 -17 -9 -22.5t-22 -5.5h-355l8 53h328l-18 -13q7 47 -3 85t-39 61t-80 23q-54 0 -90 -24.5t-56.5 -62.5t-27.5 -79l-4 -24q-14 -85 26 -137
t123 -52q36 0 70 9t64 29q14 9 24.5 8.5t17 -7t8 -16t-3 -20t-16.5 -19.5q-34 -24 -80 -36.5t-88 -12.5zM214 625q-30 0 -30 23q0 15 9 23.5t24 8.5h247q30 0 30 -23q0 -14 -8.5 -23t-24.5 -9h-247z" />
    <glyph glyph-name="Ebreve" unicode="&#x114;" horiz-adv-x="583" 
d="M98 0q-24 0 -34.5 12.5t-7.5 36.5l98 615q3 21 15.5 31t32.5 10h369q18 0 27.5 -7t9.5 -20q0 -21 -11.5 -31.5t-29.5 -10.5h-337l-39 -244h310q18 0 27 -7t9 -20q0 -21 -11.5 -31.5t-28.5 -10.5h-317l-41 -254h331q18 0 27.5 -7t9.5 -21q0 -20 -11.5 -30.5t-29.5 -10.5
h-368zM412 760q-67 0 -108.5 40.5t-46.5 107.5q-2 13 4.5 20.5t17.5 9.5q8 1 14.5 -1.5t10.5 -8t4 -13.5q2 -48 31.5 -74.5t75.5 -26.5q45 0 78.5 26.5t45.5 75.5q2 8 6 13t10 7.5t14 1.5q13 -2 18.5 -11t0.5 -24q-17 -66 -65 -104.5t-111 -38.5z" />
    <glyph glyph-name="ebreve" unicode="&#x115;" horiz-adv-x="532" 
d="M270 -9q-69 0 -120 26t-78.5 74.5t-27.5 114.5q0 79 32 144.5t90 105t138 39.5q57 0 95.5 -20t61.5 -54t30 -77.5t2 -89.5q-2 -17 -9 -22.5t-22 -5.5h-355l8 53h328l-18 -13q7 47 -3 85t-39 61t-80 23q-54 0 -90 -24.5t-56.5 -62.5t-27.5 -79l-4 -24q-14 -85 26 -137
t123 -52q36 0 70 9t64 29q14 9 24.5 8.5t17 -7t8 -16t-3 -20t-16.5 -19.5q-34 -24 -80 -36.5t-88 -12.5zM331 549q-41 0 -72.5 20t-49 57.5t-18.5 89.5q-1 13 5 20.5t18 8.5q12 2 20 -4t8 -20q2 -57 26.5 -87t65.5 -30t70 30.5t41 88.5q3 12 10.5 18t18.5 4q13 -1 18.5 -11
t1.5 -25q-11 -50 -33.5 -86t-55.5 -55t-74 -19z" />
    <glyph glyph-name="Edotaccent" unicode="&#x116;" horiz-adv-x="583" 
d="M98 0q-24 0 -34.5 12.5t-7.5 36.5l98 615q3 21 15.5 31t32.5 10h369q18 0 27.5 -7t9.5 -20q0 -21 -11.5 -31.5t-29.5 -10.5h-337l-39 -244h310q18 0 27 -7t9 -20q0 -21 -11.5 -31.5t-28.5 -10.5h-317l-41 -254h331q18 0 27.5 -7t9.5 -21q0 -20 -11.5 -30.5t-29.5 -10.5
h-368zM414 803q-20 0 -31.5 10t-11.5 28q0 28 15.5 42.5t42.5 14.5q20 0 31.5 -9.5t11.5 -28.5q0 -26 -15 -41.5t-43 -15.5z" />
    <glyph glyph-name="edotaccent" unicode="&#x117;" horiz-adv-x="532" 
d="M270 -9q-69 0 -120 26t-78.5 74.5t-27.5 114.5q0 79 32 144.5t90 105t138 39.5q57 0 95.5 -20t61.5 -54t30 -77.5t2 -89.5q-2 -17 -9 -22.5t-22 -5.5h-355l8 53h328l-18 -13q7 47 -3 85t-39 61t-80 23q-54 0 -90 -24.5t-56.5 -62.5t-27.5 -79l-4 -24q-14 -85 26 -137
t123 -52q36 0 70 9t64 29q14 9 24.5 8.5t17 -7t8 -16t-3 -20t-16.5 -19.5q-34 -24 -80 -36.5t-88 -12.5zM331 605q-20 0 -31.5 10t-11.5 28q0 28 15.5 43t42.5 15q20 0 31.5 -10t11.5 -28q0 -27 -15.5 -42.5t-42.5 -15.5z" />
    <glyph glyph-name="Eogonek" unicode="&#x118;" horiz-adv-x="583" 
d="M98 0q-24 0 -34.5 12.5t-7.5 36.5l98 615q3 21 15.5 31t32.5 10h369q18 0 27.5 -7t9.5 -20q0 -21 -11.5 -31.5t-29.5 -10.5h-337l-39 -244h310q18 0 27 -7t9 -20q0 -21 -11.5 -31.5t-28.5 -10.5h-317l-41 -254h331q18 0 27.5 -7t9.5 -21q0 -20 -11.5 -30.5t-29.5 -10.5
h-368zM418 -192q-48 0 -73 25.5t-25 63.5q0 46 28.5 82t77.5 57l26 -36q-24 -10 -40.5 -24t-25 -30.5t-8.5 -36.5q0 -23 14 -37t39 -14q9 0 17.5 1.5t19.5 4.5q12 4 18.5 -1t8 -14.5t-2 -18t-12.5 -12.5q-14 -5 -31 -7.5t-31 -2.5z" />
    <glyph glyph-name="eogonek" unicode="&#x119;" horiz-adv-x="532" 
d="M270 -9q-69 0 -120 26t-78.5 74.5t-27.5 114.5q0 79 32 144.5t90 105t138 39.5q57 0 95.5 -20t61.5 -54t30 -77.5t2 -89.5q-2 -17 -9 -22.5t-22 -5.5h-355l8 53h328l-18 -13q7 47 -3 85t-39 61t-80 23q-54 0 -90 -24.5t-56.5 -62.5t-27.5 -79l-4 -24q-14 -85 26 -137
t123 -52q36 0 70 9t64 29q14 9 24.5 8.5t17 -7t8 -16t-3 -20t-16.5 -19.5q-34 -24 -80 -36.5t-88 -12.5zM286 -192q-48 0 -73 25.5t-25 63.5q0 46 28.5 82t77.5 57l26 -36q-24 -10 -40.5 -24t-25 -30.5t-8.5 -36.5q0 -23 14 -37t39 -14q9 0 17.5 1.5t19.5 4.5q12 4 18.5 -1
t8 -14.5t-2 -18t-12.5 -12.5q-14 -5 -31 -7.5t-31 -2.5z" />
    <glyph glyph-name="Ecaron" unicode="&#x11a;" horiz-adv-x="583" 
d="M98 0q-24 0 -34.5 12.5t-7.5 36.5l98 615q3 21 15.5 31t32.5 10h369q18 0 27.5 -7t9.5 -20q0 -21 -11.5 -31.5t-29.5 -10.5h-337l-39 -244h310q18 0 27 -7t9 -20q0 -21 -11.5 -31.5t-28.5 -10.5h-317l-41 -254h331q18 0 27.5 -7t9.5 -21q0 -20 -11.5 -30.5t-29.5 -10.5
h-368zM406 756q-18 0 -29.5 8.5t-20.5 24.5l-74 119q-6 12 -3.5 21.5t11.5 13.5t20 1.5t19 -14.5l81 -112l111 117q9 9 19.5 10t19 -4t10.5 -13.5t-7 -18.5l-99 -122q-13 -16 -26.5 -23.5t-31.5 -7.5z" />
    <glyph glyph-name="ecaron" unicode="&#x11b;" horiz-adv-x="532" 
d="M270 -9q-69 0 -120 26t-78.5 74.5t-27.5 114.5q0 79 32 144.5t90 105t138 39.5q57 0 95.5 -20t61.5 -54t30 -77.5t2 -89.5q-2 -17 -9 -22.5t-22 -5.5h-355l8 53h328l-18 -13q7 47 -3 85t-39 61t-80 23q-54 0 -90 -24.5t-56.5 -62.5t-27.5 -79l-4 -24q-14 -85 26 -137
t123 -52q36 0 70 9t64 29q14 9 24.5 8.5t17 -7t8 -16t-3 -20t-16.5 -19.5q-34 -24 -80 -36.5t-88 -12.5zM320 542q-15 0 -27 7.5t-19 24.5l-66 153q-6 12 -2 21t13 13t19 1.5t16 -14.5l72 -143l107 145q8 11 18 13t18 -3t10.5 -13.5t-5.5 -20.5l-98 -150q-10 -17 -25 -25.5
t-31 -8.5z" />
    <glyph glyph-name="Gcircumflex" unicode="&#x11c;" horiz-adv-x="726" 
d="M391 -9q-98 0 -168.5 35t-108.5 103t-38 167q0 93 25.5 169.5t73.5 132t116 86t155 30.5q64 0 120 -17.5t94 -51.5q13 -10 16.5 -23t0 -24t-11.5 -19t-20 -9t-26 10q-35 31 -80 45.5t-98 14.5q-87 0 -149 -43t-95.5 -120t-33.5 -179q0 -119 60.5 -176.5t176.5 -57.5
q49 0 90.5 9t78.5 23l-25 -43l40 249h-143q-18 0 -28 7.5t-10 20.5q0 18 11.5 27.5t29.5 9.5h180q19 0 29 -11t6 -31l-41 -261q-2 -16 -9 -25.5t-21 -14.5q-39 -15 -92 -24t-105 -9zM345 767q-9 -9 -19.5 -10t-18 4t-9 13.5t6.5 19.5l100 122q12 15 25.5 23t31.5 8t29 -8.5
t21 -25.5l73 -119q8 -12 4.5 -21.5t-12.5 -13.5t-20.5 -1.5t-19.5 13.5l-81 113z" />
    <glyph glyph-name="gcircumflex" unicode="&#x11d;" horiz-adv-x="586" 
d="M248 -189q-58 0 -108.5 16t-90.5 42q-11 7 -14.5 17t-0.5 19.5t10 16.5t17.5 8.5t22.5 -5.5q35 -23 72 -36t83 -13q64 0 104 32t51 101l19 115l8 -1q-25 -52 -72.5 -82t-110.5 -30q-58 0 -101.5 24.5t-68 69.5t-24.5 105q0 56 16.5 107.5t48.5 91.5t77.5 63t103.5 23
q60 0 106 -29t63 -90l-10 -13l14 91q4 20 15.5 29.5t31.5 9.5q18 0 26.5 -12t5.5 -35l-69 -433q-16 -100 -72 -151t-153 -51zM259 77q57 0 95.5 30t58.5 80t20 107q0 64 -35 100t-98 36q-56 0 -95 -30.5t-59 -79.5t-20 -106q0 -66 35 -101.5t98 -35.5zM473 580q6 -12 2 -21
t-13.5 -13t-19 -1.5t-14.5 12.5l-72 142l-106 -143q-7 -10 -17 -12t-18 2.5t-10.5 13.5t5.5 21l99 153q11 17 23.5 24.5t28.5 7.5q15 0 26.5 -8t18.5 -24z" />
    <glyph glyph-name="Gbreve" unicode="&#x11e;" horiz-adv-x="726" 
d="M391 -9q-98 0 -168.5 35t-108.5 103t-38 167q0 93 25.5 169.5t73.5 132t116 86t155 30.5q64 0 120 -17.5t94 -51.5q13 -10 16.5 -23t0 -24t-11.5 -19t-20 -9t-26 10q-35 31 -80 45.5t-98 14.5q-87 0 -149 -43t-95.5 -120t-33.5 -179q0 -119 60.5 -176.5t176.5 -57.5
q49 0 90.5 9t78.5 23l-25 -43l40 249h-143q-18 0 -28 7.5t-10 20.5q0 18 11.5 27.5t29.5 9.5h180q19 0 29 -11t6 -31l-41 -261q-2 -16 -9 -25.5t-21 -14.5q-39 -15 -92 -24t-105 -9zM454 760q-67 0 -108.5 40.5t-46.5 107.5q-2 13 4.5 20.5t17.5 9.5q8 1 14.5 -1.5t10.5 -8
t4 -13.5q2 -48 31.5 -74.5t75.5 -26.5q45 0 78.5 26.5t45.5 75.5q2 8 6 13t10 7.5t14 1.5q13 -2 18.5 -11t0.5 -24q-17 -66 -65 -104.5t-111 -38.5z" />
    <glyph glyph-name="gbreve" unicode="&#x11f;" horiz-adv-x="586" 
d="M248 -189q-58 0 -108.5 16t-90.5 42q-11 7 -14.5 17t-0.5 19.5t10 16.5t17.5 8.5t22.5 -5.5q35 -23 72 -36t83 -13q64 0 104 32t51 101l19 115l8 -1q-25 -52 -72.5 -82t-110.5 -30q-58 0 -101.5 24.5t-68 69.5t-24.5 105q0 56 16.5 107.5t48.5 91.5t77.5 63t103.5 23
q60 0 106 -29t63 -90l-10 -13l14 91q4 20 15.5 29.5t31.5 9.5q18 0 26.5 -12t5.5 -35l-69 -433q-16 -100 -72 -151t-153 -51zM259 77q57 0 95.5 30t58.5 80t20 107q0 64 -35 100t-98 36q-56 0 -95 -30.5t-59 -79.5t-20 -106q0 -66 35 -101.5t98 -35.5zM349 549
q-41 0 -72.5 20t-49 57.5t-18.5 89.5q-1 13 5 20.5t18 8.5q12 2 20 -4t8 -20q2 -57 26.5 -87t65.5 -30t70 30.5t41 88.5q3 12 10.5 18t18.5 4q13 -1 18.5 -11t1.5 -25q-11 -50 -33.5 -86t-55.5 -55t-74 -19z" />
    <glyph glyph-name="Gdotaccent" unicode="&#x120;" horiz-adv-x="726" 
d="M391 -9q-98 0 -168.5 35t-108.5 103t-38 167q0 93 25.5 169.5t73.5 132t116 86t155 30.5q64 0 120 -17.5t94 -51.5q13 -10 16.5 -23t0 -24t-11.5 -19t-20 -9t-26 10q-35 31 -80 45.5t-98 14.5q-87 0 -149 -43t-95.5 -120t-33.5 -179q0 -119 60.5 -176.5t176.5 -57.5
q49 0 90.5 9t78.5 23l-25 -43l40 249h-143q-18 0 -28 7.5t-10 20.5q0 18 11.5 27.5t29.5 9.5h180q19 0 29 -11t6 -31l-41 -261q-2 -16 -9 -25.5t-21 -14.5q-39 -15 -92 -24t-105 -9zM456 803q-20 0 -31.5 10t-11.5 28q0 28 15.5 42.5t42.5 14.5q20 0 31.5 -9.5t11.5 -28.5
q0 -26 -15 -41.5t-43 -15.5z" />
    <glyph glyph-name="gdotaccent" unicode="&#x121;" horiz-adv-x="586" 
d="M248 -189q-58 0 -108.5 16t-90.5 42q-11 7 -14.5 17t-0.5 19.5t10 16.5t17.5 8.5t22.5 -5.5q35 -23 72 -36t83 -13q64 0 104 32t51 101l19 115l8 -1q-25 -52 -72.5 -82t-110.5 -30q-58 0 -101.5 24.5t-68 69.5t-24.5 105q0 56 16.5 107.5t48.5 91.5t77.5 63t103.5 23
q60 0 106 -29t63 -90l-10 -13l14 91q4 20 15.5 29.5t31.5 9.5q18 0 26.5 -12t5.5 -35l-69 -433q-16 -100 -72 -151t-153 -51zM259 77q57 0 95.5 30t58.5 80t20 107q0 64 -35 100t-98 36q-56 0 -95 -30.5t-59 -79.5t-20 -106q0 -66 35 -101.5t98 -35.5zM349 605
q-20 0 -31.5 10t-11.5 28q0 28 15.5 43t42.5 15q20 0 31.5 -10t11.5 -28q0 -27 -15.5 -42.5t-42.5 -15.5z" />
    <glyph glyph-name="uni0122" unicode="&#x122;" horiz-adv-x="726" 
d="M391 -9q-98 0 -168.5 35t-108.5 103t-38 167q0 93 25.5 169.5t73.5 132t116 86t155 30.5q64 0 120 -17.5t94 -51.5q13 -10 16.5 -23t0 -24t-11.5 -19t-20 -9t-26 10q-35 31 -80 45.5t-98 14.5q-87 0 -149 -43t-95.5 -120t-33.5 -179q0 -119 60.5 -176.5t176.5 -57.5
q49 0 90.5 9t78.5 23l-25 -43l40 249h-143q-18 0 -28 7.5t-10 20.5q0 18 11.5 27.5t29.5 9.5h180q19 0 29 -11t6 -31l-41 -261q-2 -16 -9 -25.5t-21 -14.5q-39 -15 -92 -24t-105 -9zM357 -251q-10 -10 -20 -10.5t-16.5 5.5t-6 15.5t9.5 20.5q16 15 23 30.5t10 33.5l3 -15
q-24 0 -38 12t-14 32q0 24 15 38t39 14q23 0 35.5 -13t12.5 -38q0 -22 -6.5 -45.5t-18.5 -44t-28 -35.5z" />
    <glyph glyph-name="uni0123" unicode="&#x123;" horiz-adv-x="586" 
d="M248 -189q-58 0 -108.5 16t-90.5 42q-11 7 -14.5 17t-0.5 19.5t10 16.5t17.5 8.5t22.5 -5.5q35 -23 72 -36t83 -13q64 0 104 32t51 101l19 115l8 -1q-25 -52 -72.5 -82t-110.5 -30q-58 0 -101.5 24.5t-68 69.5t-24.5 105q0 56 16.5 107.5t48.5 91.5t77.5 63t103.5 23
q60 0 106 -29t63 -90l-10 -13l14 91q4 20 15.5 29.5t31.5 9.5q18 0 26.5 -12t5.5 -35l-69 -433q-16 -100 -72 -151t-153 -51zM259 77q57 0 95.5 30t58.5 80t20 107q0 64 -35 100t-98 36q-56 0 -95 -30.5t-59 -79.5t-20 -106q0 -66 35 -101.5t98 -35.5zM349 563
q-23 0 -35.5 12.5t-12.5 37.5q0 22 6.5 45.5t19 44.5t27.5 36q10 10 20 10t16.5 -5.5t6.5 -15.5t-10 -20q-15 -16 -22.5 -31t-10.5 -34l-3 15q24 0 38 -11.5t14 -32.5q0 -24 -15 -37.5t-39 -13.5z" />
    <glyph glyph-name="Hcircumflex" unicode="&#x124;" horiz-adv-x="761" 
d="M90 -7q-21 0 -30 13t-5 37l100 627q3 21 14.5 31.5t31.5 10.5q21 0 30 -13t5 -37l-43 -269h422l45 277q3 21 14 31.5t32 10.5q20 0 29 -12.5t6 -37.5l-100 -627q-3 -20 -14 -31t-32 -11t-30 13t-5 37l44 279h-422l-46 -287q-3 -20 -14 -31t-32 -11zM358 767
q-9 -9 -19.5 -10t-18 4t-9 13.5t6.5 19.5l100 122q12 15 25.5 23t31.5 8t29 -8.5t21 -25.5l73 -119q8 -12 4.5 -21.5t-12.5 -13.5t-20.5 -1.5t-19.5 13.5l-81 113z" />
    <glyph glyph-name="hcircumflex" unicode="&#x125;" horiz-adv-x="568" 
d="M77 -7q-19 0 -28 13t-5 36l99 629q4 21 15.5 31t31.5 10q19 0 28 -12t5 -35l-46 -289h-11q25 57 73.5 88t115.5 31q54 0 90.5 -21.5t52 -66t4.5 -113.5l-40 -260q-3 -20 -15 -30.5t-32 -10.5q-19 0 -28 12.5t-6 35.5l40 253q12 68 -11 101.5t-79 33.5q-73 0 -116 -45
t-55 -120l-36 -230q-6 -41 -47 -41zM263 767q-9 -9 -19.5 -10t-18 4t-9 13.5t6.5 19.5l100 122q12 15 25.5 23t31.5 8t29 -8.5t21 -25.5l73 -119q8 -12 4.5 -21.5t-12.5 -13.5t-20.5 -1.5t-19.5 13.5l-81 113z" />
    <glyph glyph-name="Hbar" unicode="&#x126;" horiz-adv-x="798" 
d="M109 -7q-20 0 -29.5 13t-5.5 37l77 491l12 -15h-71q-36 0 -36 27q0 18 11 28t29 10h79l-19 -18l17 104q3 21 14.5 31.5t32.5 10.5q19 0 28.5 -12.5t5.5 -35.5l-16 -103l-15 23h456l-20 -24l18 111q3 21 14.5 31t32.5 10q19 0 28.5 -12.5t5.5 -35.5l-17 -107l-10 27h72
q36 0 36 -27q0 -17 -11 -27.5t-29 -10.5h-79l18 21l-80 -505q-3 -20 -13.5 -31t-31.5 -11q-20 0 -29.5 13t-6.5 37l44 274h-422l-44 -282q-3 -20 -14 -31t-32 -11zM211 388h421l21 131h-422z" />
    <glyph glyph-name="hbar" unicode="&#x127;" horiz-adv-x="568" 
d="M77 -7q-19 0 -28 12.5t-6 35.5l82 513h-57q-16 0 -24.5 7t-7.5 20q2 33 37 33h83l-25 -28l13 86q3 22 15 31t32 9q19 0 28 -11t5 -35l-13 -84l-12 32h173q18 0 27 -7t7 -21q-3 -32 -37 -32h-163l-28 -178h-12q26 57 74 88t115 31q54 0 90.5 -21.5t52 -66t4.5 -113.5
l-40 -260q-3 -20 -15 -30.5t-32 -10.5q-19 0 -28 12.5t-6 35.5l40 253q12 68 -11 101.5t-79 33.5q-73 0 -116 -45t-55 -120l-36 -230q-6 -41 -47 -41z" />
    <glyph glyph-name="Itilde" unicode="&#x128;" horiz-adv-x="257" 
d="M91 -7q-21 0 -30.5 13t-5.5 37l100 627q3 21 14.5 31.5t31.5 10.5q21 0 30 -12.5t5 -37.5l-100 -627q-3 -20 -13.5 -31t-31.5 -11zM25 781q-10 1 -15.5 8.5t-2.5 20.5q16 56 47.5 82.5t74.5 26.5q27 0 51 -11.5t45.5 -26.5t41.5 -26.5t40 -11.5q25 0 43.5 15.5t27.5 46.5
q4 10 10.5 15t17.5 4t16.5 -8.5t1.5 -21.5q-14 -55 -46 -81.5t-76 -26.5q-27 0 -51 11.5t-45 26t-41 26.5t-40 12q-25 0 -43.5 -15.5t-28.5 -46.5q-3 -10 -9.5 -15t-18.5 -4z" />
    <glyph glyph-name="itilde" unicode="&#x129;" horiz-adv-x="232" 
d="M76 -7q-19 0 -27.5 12.5t-5.5 35.5l66 412q3 20 14.5 30t31.5 10q19 0 28 -12t5 -35l-65 -413q-3 -20 -14.5 -30t-32.5 -10zM14 588q-11 1 -16.5 8.5t-2.5 18.5q6 27 17 48t25 35t32 21t38 7q24 0 41.5 -11.5t32 -26t29 -26.5t33.5 -12q22 0 38.5 16.5t25.5 45.5
q3 10 10.5 15t17.5 4q11 -1 16.5 -8t2.5 -19q-8 -35 -24.5 -60t-38 -38t-48.5 -13q-25 0 -43 11.5t-32.5 26.5t-29 26.5t-32.5 11.5q-22 0 -39 -16.5t-25 -44.5q-3 -11 -10 -16t-18 -4z" />
    <glyph glyph-name="Imacron" unicode="&#x12a;" horiz-adv-x="257" 
d="M91 -7q-21 0 -30.5 13t-5.5 37l100 627q3 21 14.5 31.5t31.5 10.5q21 0 30 -12.5t5 -37.5l-100 -627q-3 -20 -13.5 -31t-31.5 -11zM84 814q-30 0 -30 24q0 15 9 23t24 8h277q30 0 30 -23q0 -14 -8.5 -23t-23.5 -9h-278z" />
    <glyph glyph-name="imacron" unicode="&#x12b;" horiz-adv-x="232" 
d="M76 -7q-19 0 -27.5 12.5t-5.5 35.5l66 412q3 20 14.5 30t31.5 10q19 0 28 -12t5 -35l-65 -413q-3 -20 -14.5 -30t-32.5 -10zM57 625q-30 0 -30 23q0 15 9 23.5t24 8.5h247q30 0 30 -23q0 -14 -8.5 -23t-24.5 -9h-247z" />
    <glyph glyph-name="Ibreve" unicode="&#x12c;" horiz-adv-x="257" 
d="M91 -7q-21 0 -30.5 13t-5.5 37l100 627q3 21 14.5 31.5t31.5 10.5q21 0 30 -12.5t5 -37.5l-100 -627q-3 -20 -13.5 -31t-31.5 -11zM216 760q-67 0 -108.5 40.5t-46.5 107.5q-2 13 4.5 20.5t17.5 9.5q8 1 14.5 -1.5t10.5 -8t4 -13.5q2 -48 31.5 -74.5t75.5 -26.5
q45 0 78.5 26.5t45.5 75.5q2 8 6 13t10 7.5t14 1.5q13 -2 18.5 -11t0.5 -24q-17 -66 -65 -104.5t-111 -38.5z" />
    <glyph glyph-name="ibreve" unicode="&#x12d;" horiz-adv-x="232" 
d="M76 -7q-19 0 -27.5 12.5t-5.5 35.5l66 412q3 20 14.5 30t31.5 10q19 0 28 -12t5 -35l-65 -413q-3 -20 -14.5 -30t-32.5 -10zM174 549q-41 0 -72.5 20t-49 57.5t-18.5 89.5q-1 13 5 20.5t18 8.5q12 2 20 -4t8 -20q2 -57 26.5 -87t65.5 -30t70 30.5t41 88.5q3 12 10.5 18
t18.5 4q13 -1 18.5 -11t1.5 -25q-11 -50 -33.5 -86t-55.5 -55t-74 -19z" />
    <glyph glyph-name="Iogonek" unicode="&#x12e;" horiz-adv-x="257" 
d="M84 -192q-49 0 -73.5 25.5t-24.5 63.5q0 39 21 70.5t56 53.5v-17q-5 6 -7.5 16t-0.5 22l100 628q3 21 14.5 31.5t31.5 10.5q21 0 30 -12.5t5 -37.5l-100 -627q-2 -15 -8.5 -25t-17.5 -15q-33 -14 -49.5 -36.5t-16.5 -49.5q0 -23 13.5 -37t39.5 -14q9 0 17.5 1.5t19.5 4.5
q12 4 18.5 -1t8 -14.5t-2 -18t-12.5 -12.5q-14 -5 -31 -7.5t-31 -2.5z" />
    <glyph glyph-name="iogonek" unicode="&#x12f;" horiz-adv-x="232" 
d="M72 -192q-48 0 -73 25.5t-25 63.5q0 42 23 74t59 53l-7 -20q-4 8 -5.5 17t-0.5 20l66 412q3 20 14.5 30t31.5 10q19 0 28 -12t5 -35l-65 -413q-2 -13 -8.5 -22.5t-18.5 -14.5q-31 -16 -47.5 -38t-16.5 -49q0 -23 13.5 -37t39.5 -14q9 0 17.5 1.5t19.5 4.5q12 4 18.5 -1
t8 -14.5t-2 -18t-12.5 -12.5q-14 -5 -31 -7.5t-31 -2.5zM175 603q-24 0 -36 12t-10 33q1 26 17.5 40t43.5 14q24 0 36 -11.5t10 -33.5q-2 -26 -18 -40t-43 -14z" />
    <glyph glyph-name="Idotaccent" unicode="&#x130;" horiz-adv-x="257" 
d="M91 -7q-21 0 -30.5 13t-5.5 37l100 627q3 21 14.5 31.5t31.5 10.5q21 0 30 -12.5t5 -37.5l-100 -627q-3 -20 -13.5 -31t-31.5 -11zM218 803q-20 0 -31.5 10t-11.5 28q0 28 15.5 42.5t42.5 14.5q20 0 31.5 -9.5t11.5 -28.5q0 -26 -15 -41.5t-43 -15.5z" />
    <glyph glyph-name="dotlessi" unicode="&#x131;" horiz-adv-x="232" 
d="M76 -7q-19 0 -27.5 12.5t-5.5 35.5l66 412q3 20 14.5 30t31.5 10q19 0 28 -12t5 -35l-65 -413q-3 -20 -14.5 -30t-32.5 -10z" />
    <glyph glyph-name="IJ" unicode="&#x132;" horiz-adv-x="580" 
d="M91 -7q-21 0 -30.5 13t-5.5 37l100 627q3 21 14.5 31.5t31.5 10.5q21 0 30 -12.5t5 -37.5l-100 -627q-3 -20 -13.5 -31t-31.5 -11zM251 -6q-20 -1 -31 8t-10 26q0 17 9 26t26 10l32 2q54 4 85.5 36t41.5 94l75 477q4 20 15 29.5t31 9.5t29.5 -12t5.5 -34l-76 -480
q-9 -58 -32.5 -98.5t-65 -63.5t-104.5 -28z" />
    <glyph glyph-name="Jcircumflex" unicode="&#x134;" horiz-adv-x="324" 
d="M-6 -6q-20 -1 -31 8t-10 26q0 17 9 26t26 10l32 2q54 4 85.5 36t41.5 94l75 477q4 20 15 29.5t31 9.5t29.5 -12t5.5 -34l-76 -480q-9 -58 -32.5 -98.5t-65 -63.5t-104.5 -28zM174 767q-9 -9 -19.5 -10t-18 4t-9 13.5t6.5 19.5l100 122q12 15 25.5 23t31.5 8t29 -8.5
t21 -25.5l73 -119q8 -12 4.5 -21.5t-12.5 -13.5t-20.5 -1.5t-19.5 13.5l-81 113z" />
    <glyph glyph-name="jcircumflex" unicode="&#x135;" horiz-adv-x="236" 
d="M-83 -191q-14 0 -22.5 6t-11 15.5t0 19t9.5 16t20 7.5q52 1 84 27.5t41 84.5l74 468q4 20 15 30t31 10q19 0 28 -12t6 -35l-73 -456q-9 -62 -34 -101t-66.5 -58.5t-101.5 -21.5zM299 580q6 -12 2 -21t-13.5 -13t-19 -1.5t-14.5 12.5l-72 142l-106 -143q-7 -10 -17 -12
t-18 2.5t-10.5 13.5t5.5 21l99 153q11 17 23.5 24.5t28.5 7.5q15 0 26.5 -8t18.5 -24z" />
    <glyph glyph-name="uni0136" unicode="&#x136;" horiz-adv-x="625" 
d="M91 -7q-20 0 -29.5 12.5t-6.5 36.5l100 629q4 21 15 31t31 10t29.5 -12.5t5.5 -35.5l-44 -279h2l376 308q12 10 20.5 14.5t21.5 4.5q16 0 25.5 -10t9 -23.5t-13.5 -24.5l-385 -317v43l309 -330q11 -11 10.5 -24.5t-10.5 -23t-27 -9.5q-14 0 -23.5 6.5t-21.5 19.5
l-299 315h-2l-47 -301q-3 -20 -14 -30t-32 -10zM263 -251q-10 -10 -20 -10.5t-16.5 5.5t-6 15.5t9.5 20.5q16 15 23 30.5t10 33.5l3 -15q-24 0 -38 12t-14 32q0 24 15 38t39 14q23 0 35.5 -13t12.5 -38q0 -22 -6.5 -45.5t-18.5 -44t-28 -35.5z" />
    <glyph glyph-name="uni0137" unicode="&#x137;" horiz-adv-x="500" 
d="M77 -7q-19 0 -28 12.5t-5 34.5l100 633q3 20 14.5 29.5t31.5 9.5q19 0 28 -12.5t5 -35.5l-62 -394h2l240 201q13 11 23 16.5t24 5.5q16 0 24 -9.5t6 -23t-15 -25.5l-248 -210l3 47l205 -220q12 -13 11.5 -26.5t-9.5 -23t-25 -9.5t-26.5 7.5t-24.5 23.5l-194 206h-2
l-32 -198q-5 -39 -46 -39zM196 -251q-10 -10 -20 -10.5t-16.5 5.5t-6 15.5t9.5 20.5q16 15 23 30.5t10 33.5l3 -15q-24 0 -38 12t-14 32q0 24 15 38t39 14q23 0 35.5 -13t12.5 -38q0 -22 -6.5 -45.5t-18.5 -44t-28 -35.5z" />
    <glyph glyph-name="kgreenlandic" unicode="&#x138;" horiz-adv-x="500" 
d="M79 -7q-21 0 -30 12.5t-5 34.5l65 414q4 19 15 29t30 10q21 0 29.5 -12.5t5.5 -35.5l-28 -175h2l240 201q10 8 20.5 15t24.5 7q17 0 25.5 -9.5t7 -23t-15.5 -25.5l-248 -210l3 47l205 -220q12 -13 12 -26.5t-10 -23t-27 -9.5q-14 0 -24.5 7.5t-24.5 23.5l-194 206h-2
l-32 -198q-2 -19 -14 -29t-30 -10z" />
    <glyph glyph-name="Lacute" unicode="&#x139;" horiz-adv-x="543" 
d="M95 0q-22 0 -32 12t-7 34l100 628q3 20 14 29t30 9q21 0 30.5 -12t6.5 -34l-94 -594h321q18 0 28 -7.5t10 -21.5q0 -21 -12 -32t-31 -11h-364zM247 769q-10 -9 -20 -9.5t-17.5 5t-9.5 15t6 19.5l99 130q9 13 21 16t22.5 -0.5t17 -11t6 -18.5t-10.5 -23z" />
    <glyph glyph-name="lacute" unicode="&#x13a;" horiz-adv-x="296" 
d="M186 -9q-71 0 -104 42.5t-20 125.5l82 513q3 20 14.5 30t31.5 10q19 0 28 -12.5t5 -35.5l-80 -505q-9 -53 8 -76t57 -23q14 0 21.5 1.5t12.5 1.5q8 0 12 -5t4 -19q0 -19 -9 -29.5t-23 -14.5q-8 -1 -19.5 -2.5t-20.5 -1.5zM235 769q-10 -9 -20 -9.5t-17.5 5t-9.5 15
t6 19.5l99 130q9 13 21 16t22.5 -0.5t17 -11t6 -18.5t-10.5 -23z" />
    <glyph glyph-name="uni013B" unicode="&#x13b;" horiz-adv-x="543" 
d="M95 0q-22 0 -32 12t-7 34l100 628q3 20 14 29t30 9q21 0 30.5 -12t6.5 -34l-94 -594h321q18 0 28 -7.5t10 -21.5q0 -21 -12 -32t-31 -11h-364zM247 -251q-10 -10 -20 -10.5t-16.5 5.5t-6 15.5t9.5 20.5q16 15 23 30.5t10 33.5l3 -15q-24 0 -38 12t-14 32q0 24 15 38
t39 14q23 0 35.5 -13t12.5 -38q0 -22 -6.5 -45.5t-18.5 -44t-28 -35.5z" />
    <glyph glyph-name="uni013C" unicode="&#x13c;" horiz-adv-x="296" 
d="M186 -9q-71 0 -104 42.5t-20 125.5l82 513q3 20 14.5 30t31.5 10q19 0 28 -12.5t5 -35.5l-80 -505q-9 -53 8 -76t57 -23q14 0 21.5 1.5t12.5 1.5q8 0 12 -5t4 -19q0 -19 -9 -29.5t-23 -14.5q-8 -1 -19.5 -2.5t-20.5 -1.5zM126 -251q-10 -10 -20 -10.5t-16.5 5.5t-6 15.5
t9.5 20.5q16 15 23 30.5t10 33.5l3 -15q-24 0 -38 12t-14 32q0 24 15 38t39 14q23 0 35.5 -13t12.5 -38q0 -22 -6.5 -45.5t-18.5 -44t-28 -35.5z" />
    <glyph glyph-name="Lcaron" unicode="&#x13d;" horiz-adv-x="543" 
d="M95 0q-22 0 -32 12t-7 34l100 628q3 20 14 29t30 9q21 0 30.5 -12t6.5 -34l-94 -594h321q18 0 28 -7.5t10 -21.5q0 -21 -12 -32t-31 -11h-364zM346 475q-11 0 -16 8t-4 20l28 176q3 18 12.5 25.5t25.5 7.5q18 0 26 -10.5t3 -29.5l-43 -173q-6 -24 -32 -24z" />
    <glyph glyph-name="lcaron" unicode="&#x13e;" horiz-adv-x="296" 
d="M186 -9q-71 0 -104 42.5t-20 125.5l82 513q3 20 14.5 30t31.5 10q19 0 28 -12.5t5 -35.5l-80 -505q-9 -53 8 -76t57 -23q14 0 21.5 1.5t12.5 1.5q8 0 12 -5t4 -19q0 -19 -9 -29.5t-23 -14.5q-8 -1 -19.5 -2.5t-20.5 -1.5zM265 510q-10 0 -14.5 6t-3.5 18l24 148
q5 30 36 30q16 0 23 -9.5t2 -27.5l-41 -144q-6 -21 -26 -21z" />
    <glyph glyph-name="Ldot" unicode="&#x13f;" horiz-adv-x="543" 
d="M95 0q-22 0 -32 12t-7 34l100 628q3 20 14 29t30 9q21 0 30.5 -12t6.5 -34l-94 -594h321q18 0 28 -7.5t10 -21.5q0 -21 -12 -32t-31 -11h-364zM428 335q-24 0 -39.5 15.5t-15.5 39.5t15.5 39t39.5 15q26 0 40.5 -15t14.5 -39t-14.5 -39.5t-40.5 -15.5z" />
    <glyph glyph-name="ldot" unicode="&#x140;" horiz-adv-x="327" 
d="M186 -9q-71 0 -104 42.5t-20 125.5l82 513q3 20 14.5 30t31.5 10q19 0 28 -12.5t5 -35.5l-80 -505q-9 -53 8 -76t57 -23q14 0 21.5 1.5t12.5 1.5q8 0 12 -5t4 -19q0 -19 -9 -29.5t-23 -14.5q-8 -1 -19.5 -2.5t-20.5 -1.5zM299 298q-24 0 -39.5 15.5t-15.5 39.5t15.5 39
t39.5 15q26 0 40.5 -15t14.5 -39t-14.5 -39.5t-40.5 -15.5z" />
    <glyph glyph-name="Lslash" unicode="&#x141;" horiz-adv-x="543" 
d="M95 0q-22 0 -32 12t-7 34l100 628q3 20 14 29t30 9q21 0 30.5 -12t6.5 -34l-94 -594h321q18 0 28 -7.5t10 -21.5q0 -21 -12 -32t-31 -11h-364zM38 280q-12 -6 -23 -3.5t-17.5 10.5t-7.5 18t4 19.5t18 16.5l329 152q12 6 23 3.5t17 -10.5t7.5 -18t-3.5 -19.5t-19 -15.5z
" />
    <glyph glyph-name="lslash" unicode="&#x142;" horiz-adv-x="296" 
d="M186 -9q-71 0 -104 42.5t-20 125.5l82 513q3 20 14.5 30t31.5 10q19 0 28 -12.5t5 -35.5l-80 -505q-9 -53 8 -76t57 -23q14 0 21.5 1.5t12.5 1.5q8 0 12 -5t4 -19q0 -19 -9 -29.5t-23 -14.5q-8 -1 -19.5 -2.5t-20.5 -1.5zM41 272q-12 -7 -23 -4.5t-18 10t-9 18t3.5 20.5
t18.5 16l233 111q13 6 23.5 3.5t17.5 -10t9 -17.5t-3 -20t-19 -17z" />
    <glyph glyph-name="Nacute" unicode="&#x143;" horiz-adv-x="739" 
d="M88 -7q-18 0 -27 12t-6 34l101 637q4 19 14 27.5t25 8.5q16 0 24.5 -6.5t16.5 -20.5l338 -585h-21l91 574q3 20 14 29t30 9q18 0 26 -12t5 -34l-101 -636q-3 -18 -12 -27.5t-24 -9.5q-16 0 -25.5 7t-18.5 21l-338 584h21l-91 -574q-2 -19 -12.5 -28.5t-29.5 -9.5z
M488 769q-10 -9 -20 -9.5t-17.5 5t-9.5 15t6 19.5l99 130q9 13 21 16t22.5 -0.5t17 -11t6 -18.5t-10.5 -23z" />
    <glyph glyph-name="nacute" unicode="&#x144;" horiz-adv-x="568" 
d="M77 -6q-19 0 -27.5 13t-5.5 35l65 411q4 20 15.5 30t31.5 10q18 0 26.5 -11.5t4.5 -33.5l-13 -84l-8 12q25 57 73.5 88t115.5 31q54 0 90.5 -21.5t52 -66t4.5 -113.5l-41 -261q-2 -20 -14 -29.5t-32 -9.5q-19 0 -28 12.5t-6 34.5l40 253q12 68 -11 101.5t-79 33.5
q-73 0 -116 -45t-55 -120l-36 -230q-6 -40 -47 -40zM365 555q-9 -10 -19 -11t-17.5 4t-9.5 14.5t6 21.5l107 161q10 15 21.5 18.5t21.5 0.5t17 -11.5t7 -19.5t-9 -23z" />
    <glyph glyph-name="uni0145" unicode="&#x145;" horiz-adv-x="739" 
d="M88 -7q-18 0 -27 12t-6 34l101 637q4 19 14 27.5t25 8.5q16 0 24.5 -6.5t16.5 -20.5l338 -585h-21l91 574q3 20 14 29t30 9q18 0 26 -12t5 -34l-101 -636q-3 -18 -12 -27.5t-24 -9.5q-16 0 -25.5 7t-18.5 21l-338 584h21l-91 -574q-2 -19 -12.5 -28.5t-29.5 -9.5z
M319 -251q-10 -10 -20 -10.5t-16.5 5.5t-6 15.5t9.5 20.5q16 15 23 30.5t10 33.5l3 -15q-24 0 -38 12t-14 32q0 24 15 38t39 14q23 0 35.5 -13t12.5 -38q0 -22 -6.5 -45.5t-18.5 -44t-28 -35.5z" />
    <glyph glyph-name="uni0146" unicode="&#x146;" horiz-adv-x="568" 
d="M77 -6q-19 0 -27.5 13t-5.5 35l65 411q4 20 15.5 30t31.5 10q18 0 26.5 -11.5t4.5 -33.5l-13 -84l-8 12q25 57 73.5 88t115.5 31q54 0 90.5 -21.5t52 -66t4.5 -113.5l-41 -261q-2 -20 -14 -29.5t-32 -9.5q-19 0 -28 12.5t-6 34.5l40 253q12 68 -11 101.5t-79 33.5
q-73 0 -116 -45t-55 -120l-36 -230q-6 -40 -47 -40zM228 -251q-10 -10 -20 -10.5t-16.5 5.5t-6 15.5t9.5 20.5q16 15 23 30.5t10 33.5l3 -15q-24 0 -38 12t-14 32q0 24 15 38t39 14q23 0 35.5 -13t12.5 -38q0 -22 -6.5 -45.5t-18.5 -44t-28 -35.5z" />
    <glyph glyph-name="Ncaron" unicode="&#x147;" horiz-adv-x="739" 
d="M88 -7q-18 0 -27 12t-6 34l101 637q4 19 14 27.5t25 8.5q16 0 24.5 -6.5t16.5 -20.5l338 -585h-21l91 574q3 20 14 29t30 9q18 0 26 -12t5 -34l-101 -636q-3 -18 -12 -27.5t-24 -9.5q-16 0 -25.5 7t-18.5 21l-338 584h21l-91 -574q-2 -19 -12.5 -28.5t-29.5 -9.5z
M450 756q-18 0 -29.5 8.5t-20.5 24.5l-74 119q-6 12 -3.5 21.5t11.5 13.5t20 1.5t19 -14.5l81 -112l111 117q9 9 19.5 10t19 -4t10.5 -13.5t-7 -18.5l-99 -122q-13 -16 -26.5 -23.5t-31.5 -7.5z" />
    <glyph glyph-name="ncaron" unicode="&#x148;" horiz-adv-x="568" 
d="M77 -6q-19 0 -27.5 13t-5.5 35l65 411q4 20 15.5 30t31.5 10q18 0 26.5 -11.5t4.5 -33.5l-13 -84l-8 12q25 57 73.5 88t115.5 31q54 0 90.5 -21.5t52 -66t4.5 -113.5l-41 -261q-2 -20 -14 -29.5t-32 -9.5q-19 0 -28 12.5t-6 34.5l40 253q12 68 -11 101.5t-79 33.5
q-73 0 -116 -45t-55 -120l-36 -230q-6 -40 -47 -40zM330 542q-15 0 -27 7.5t-19 24.5l-66 153q-6 12 -2 21t13 13t19 1.5t16 -14.5l72 -143l107 145q8 11 18 13t18 -3t10.5 -13.5t-5.5 -20.5l-98 -150q-10 -17 -25 -25.5t-31 -8.5z" />
    <glyph glyph-name="napostrophe" unicode="&#x149;" horiz-adv-x="568" 
d="M109 584q-10 -10 -20 -10.5t-16.5 5.5t-6 15.5t9.5 20.5q15 15 22 31t10 33l3 -15q-24 0 -37.5 12.5t-13.5 31.5q0 25 15 38.5t39 13.5q23 0 35.5 -13t12.5 -38q0 -21 -7 -45t-19 -44.5t-27 -35.5zM77 -6q-19 0 -27.5 13t-5.5 35l65 411q4 20 15.5 30t31.5 10
q18 0 26.5 -11.5t4.5 -33.5l-13 -84l-8 12q25 57 73.5 88t115.5 31q54 0 90.5 -21.5t52 -66t4.5 -113.5l-41 -261q-2 -20 -14 -29.5t-32 -9.5q-19 0 -28 12.5t-6 34.5l40 253q12 68 -11 101.5t-79 33.5q-73 0 -116 -45t-55 -120l-36 -230q-6 -40 -47 -40z" />
    <glyph glyph-name="Eng" unicode="&#x14a;" horiz-adv-x="739" 
d="M409 -191q-13 0 -21.5 6.5t-11.5 15.5t-0.5 18.5t10 16t20.5 7.5q51 1 85 27.5t43 84.5l8 50l8 -35l-350 605h21l-91 -574q-2 -19 -12.5 -28.5t-29.5 -9.5q-18 0 -27 12t-6 34l101 636q4 19 14 28t25 9q16 0 24.5 -6.5t16.5 -20.5l338 -585h-21l91 574q3 20 13.5 29
t30.5 9q18 0 26 -12t5 -34l-108 -676q-14 -91 -64.5 -136t-137.5 -45z" />
    <glyph glyph-name="eng" unicode="&#x14b;" horiz-adv-x="568" 
d="M252 -191q-14 0 -22.5 6t-11.5 15t-0.5 18.5t10 16.5t19.5 8q52 2 84 28t41 84l49 309q12 68 -11 101.5t-79 33.5q-73 0 -116 -45t-55 -120l-36 -230q-6 -40 -47 -40q-19 0 -27.5 12.5t-5.5 34.5l65 412q4 20 15.5 30t31.5 10q18 0 26.5 -11.5t4.5 -32.5l-13 -85l-8 12
q25 57 73.5 88t115.5 31q54 0 91 -21.5t52 -66t4 -113.5l-48 -304q-10 -62 -35.5 -101t-66.5 -58.5t-100 -21.5z" />
    <glyph glyph-name="Omacron" unicode="&#x14c;" horiz-adv-x="767" 
d="M368 -9q-88 0 -153.5 35t-102 103t-36.5 165q0 89 24 165.5t69.5 133.5t112 89t152.5 32q89 0 154.5 -35t101.5 -102.5t36 -164.5q0 -90 -24 -166.5t-69.5 -133.5t-112 -89t-152.5 -32zM370 64q87 0 147 45.5t91 124t31 177.5q0 116 -55.5 173t-152.5 57
q-86 0 -146 -45.5t-91 -123.5t-31 -177q0 -117 55 -174t152 -57zM328 814q-30 0 -30 24q0 15 9 23t24 8h277q30 0 30 -23q0 -14 -8.5 -23t-23.5 -9h-278z" />
    <glyph glyph-name="omacron" unicode="&#x14d;" horiz-adv-x="556" 
d="M255 -9q-65 0 -112.5 26t-73 74t-25.5 114q0 62 18.5 114.5t52.5 92.5t80.5 61.5t105.5 21.5q65 0 112.5 -26t72.5 -73.5t25 -114.5q0 -62 -18 -114.5t-52 -92t-81 -61.5t-105 -22zM258 56q55 0 93.5 31t58 83t19.5 114q0 72 -34.5 109t-96.5 37q-55 0 -93.5 -31
t-58.5 -82t-20 -115q0 -71 35 -108.5t97 -37.5zM220 625q-30 0 -30 23q0 15 9 23.5t24 8.5h247q30 0 30 -23q0 -14 -8.5 -23t-24.5 -9h-247z" />
    <glyph glyph-name="Obreve" unicode="&#x14e;" horiz-adv-x="767" 
d="M368 -9q-88 0 -153.5 35t-102 103t-36.5 165q0 89 24 165.5t69.5 133.5t112 89t152.5 32q89 0 154.5 -35t101.5 -102.5t36 -164.5q0 -90 -24 -166.5t-69.5 -133.5t-112 -89t-152.5 -32zM370 64q87 0 147 45.5t91 124t31 177.5q0 116 -55.5 173t-152.5 57
q-86 0 -146 -45.5t-91 -123.5t-31 -177q0 -117 55 -174t152 -57zM460 760q-67 0 -108.5 40.5t-46.5 107.5q-2 13 4.5 20.5t17.5 9.5q8 1 14.5 -1.5t10.5 -8t4 -13.5q2 -48 31.5 -74.5t75.5 -26.5q45 0 78.5 26.5t45.5 75.5q2 8 6 13t10 7.5t14 1.5q13 -2 18.5 -11t0.5 -24
q-17 -66 -65 -104.5t-111 -38.5z" />
    <glyph glyph-name="obreve" unicode="&#x14f;" horiz-adv-x="556" 
d="M255 -9q-65 0 -112.5 26t-73 74t-25.5 114q0 62 18.5 114.5t52.5 92.5t80.5 61.5t105.5 21.5q65 0 112.5 -26t72.5 -73.5t25 -114.5q0 -62 -18 -114.5t-52 -92t-81 -61.5t-105 -22zM258 56q55 0 93.5 31t58 83t19.5 114q0 72 -34.5 109t-96.5 37q-55 0 -93.5 -31
t-58.5 -82t-20 -115q0 -71 35 -108.5t97 -37.5zM337 549q-41 0 -72.5 20t-49 57.5t-18.5 89.5q-1 13 5 20.5t18 8.5q12 2 20 -4t8 -20q2 -57 26.5 -87t65.5 -30t70 30.5t41 88.5q3 12 10.5 18t18.5 4q13 -1 18.5 -11t1.5 -25q-11 -50 -33.5 -86t-55.5 -55t-74 -19z" />
    <glyph glyph-name="Ohungarumlaut" unicode="&#x150;" horiz-adv-x="767" 
d="M368 -9q-88 0 -153.5 35t-102 103t-36.5 165q0 89 24 165.5t69.5 133.5t112 89t152.5 32q89 0 154.5 -35t101.5 -102.5t36 -164.5q0 -90 -24 -166.5t-69.5 -133.5t-112 -89t-152.5 -32zM370 64q87 0 147 45.5t91 124t31 177.5q0 116 -55.5 173t-152.5 57
q-86 0 -146 -45.5t-91 -123.5t-31 -177q0 -117 55 -174t152 -57zM418 767q-7 -8 -15 -9t-14.5 3t-8.5 11.5t3 16.5l80 138q8 12 18.5 16.5t21 2.5t17 -9t7.5 -17.5t-8 -21.5zM545 767q-7 -9 -15 -10t-14 3.5t-8 12t3 17.5l83 138q8 13 18.5 17t20 1t16 -10t7 -17.5
t-9.5 -22.5z" />
    <glyph glyph-name="ohungarumlaut" unicode="&#x151;" horiz-adv-x="556" 
d="M255 -9q-65 0 -112.5 26t-73 74t-25.5 114q0 62 18.5 114.5t52.5 92.5t80.5 61.5t105.5 21.5q65 0 112.5 -26t72.5 -73.5t25 -114.5q0 -62 -18 -114.5t-52 -92t-81 -61.5t-105 -22zM258 56q55 0 93.5 31t58 83t19.5 114q0 72 -34.5 109t-96.5 37q-55 0 -93.5 -31
t-58.5 -82t-20 -115q0 -71 35 -108.5t97 -37.5zM418 559q-5 -11 -13.5 -13.5t-16 0t-11.5 10.5t0 18l59 164q5 15 15 21.5t21 6t19 -7t11 -17t-4 -23.5zM290 559q-4 -11 -13 -13.5t-16.5 0t-11.5 10.5t0 18l60 164q5 15 15 21.5t21 6t19 -7t11 -17t-4 -23.5z" />
    <glyph glyph-name="OE" unicode="&#x152;" horiz-adv-x="1046" 
d="M410 0q-160 0 -246.5 77.5t-87.5 217.5q0 87 23.5 161t73 130t125 87.5t179.5 31.5h557q18 0 27.5 -7t9.5 -20q0 -21 -11.5 -31.5t-29.5 -10.5h-336l-39 -244h310q18 0 27.5 -7t9.5 -20q0 -21 -11.5 -31.5t-29.5 -10.5h-316l-41 -254h330q18 0 27.5 -7t9.5 -21
q0 -20 -11.5 -30.5t-29.5 -10.5h-520zM411 70h114l89 565h-139q-84 0 -143.5 -26.5t-97 -73.5t-54.5 -108.5t-17 -130.5q0 -109 62 -167.5t186 -58.5z" />
    <glyph glyph-name="oe" unicode="&#x153;" horiz-adv-x="910" 
d="M255 -9q-65 0 -112.5 26t-73 74.5t-25.5 114.5q0 61 18.5 114t52.5 92.5t80.5 61t105.5 21.5q75 0 124.5 -38.5t64.5 -107.5h-26q30 64 85.5 105t133.5 41q76 0 120.5 -34.5t60.5 -89.5t6 -117q-2 -17 -8.5 -22.5t-21.5 -5.5h-352l8 53h325l-18 -13q7 47 -2.5 85t-38 61
t-79.5 23q-53 0 -88.5 -24t-55 -62t-26.5 -79l-4 -25q-14 -86 24.5 -137t119.5 -51q36 0 68.5 8t64.5 29q13 8 23.5 7.5t17.5 -6.5t8.5 -15.5t-3 -20t-16.5 -19.5q-34 -24 -79.5 -36.5t-86.5 -12.5q-81 0 -134.5 38.5t-71.5 107.5h29q-29 -65 -84.5 -105.5t-133.5 -40.5z
M258 57q55 0 93.5 30.5t58 82.5t19.5 114q0 72 -34.5 109t-96.5 37q-55 0 -93.5 -31t-58.5 -82t-20 -115q0 -71 35 -108t97 -37z" />
    <glyph glyph-name="Racute" unicode="&#x154;" horiz-adv-x="669" 
d="M90 -7q-20 0 -29 13t-5 36l98 622q4 21 16 31t32 10h210q114 0 171.5 -50.5t57.5 -139.5q0 -71 -33.5 -119.5t-91.5 -72t-132 -22.5v13h16q44 0 72 -25t45 -71l65 -170q7 -17 5.5 -29.5t-11 -19t-26.5 -6.5q-16 0 -26 8.5t-17 27.5l-73 190q-16 43 -42 61t-76 18h-138
l-41 -264q-3 -20 -14.5 -30.5t-32.5 -10.5zM189 363h200q80 0 125 38t45 109q0 63 -37 95t-119 32h-171zM447 769q-10 -9 -20 -9.5t-17.5 5t-9.5 15t6 19.5l99 130q9 13 21 16t22.5 -0.5t17 -11t6 -18.5t-10.5 -23z" />
    <glyph glyph-name="racute" unicode="&#x155;" horiz-adv-x="358" 
d="M77 -7q-19 0 -27.5 12t-5.5 35l65 414q4 20 15.5 29.5t30.5 9.5q18 0 27 -12t6 -34l-12 -77h-11q21 60 70.5 92t111.5 34q22 1 30 -5.5t8 -22.5q0 -21 -10 -30.5t-32 -12.5l-20 -1q-80 -7 -115 -48t-46 -108l-38 -236q-2 -19 -14 -29t-33 -10zM294 558q-9 -10 -19 -11
t-17.5 4t-9.5 14.5t6 21.5l107 161q10 15 21.5 18.5t21.5 0.5t17 -11.5t7 -19.5t-9 -23z" />
    <glyph glyph-name="uni0156" unicode="&#x156;" horiz-adv-x="669" 
d="M90 -7q-20 0 -29 13t-5 36l98 622q4 21 16 31t32 10h210q114 0 171.5 -50.5t57.5 -139.5q0 -71 -33.5 -119.5t-91.5 -72t-132 -22.5v13h16q44 0 72 -25t45 -71l65 -170q7 -17 5.5 -29.5t-11 -19t-26.5 -6.5q-16 0 -26 8.5t-17 27.5l-73 190q-16 43 -42 61t-76 18h-138
l-41 -264q-3 -20 -14.5 -30.5t-32.5 -10.5zM189 363h200q80 0 125 38t45 109q0 63 -37 95t-119 32h-171zM287 -251q-10 -10 -20 -10.5t-16.5 5.5t-6 15.5t9.5 20.5q16 15 23 30.5t10 33.5l3 -15q-24 0 -38 12t-14 32q0 24 15 38t39 14q23 0 35.5 -13t12.5 -38
q0 -22 -6.5 -45.5t-18.5 -44t-28 -35.5z" />
    <glyph glyph-name="uni0157" unicode="&#x157;" horiz-adv-x="358" 
d="M77 -7q-19 0 -27.5 12t-5.5 35l65 414q4 20 15.5 29.5t30.5 9.5q18 0 27 -12t6 -34l-12 -77h-11q21 60 70.5 92t111.5 34q22 1 30 -5.5t8 -22.5q0 -21 -10 -30.5t-32 -12.5l-20 -1q-80 -7 -115 -48t-46 -108l-38 -236q-2 -19 -14 -29t-33 -10zM56 -251q-10 -10 -20 -10.5
t-16.5 5.5t-6 15.5t9.5 20.5q16 15 23 30.5t10 33.5l3 -15q-24 0 -38 12t-14 32q0 24 15 38t39 14q23 0 35.5 -13t12.5 -38q0 -22 -6.5 -45.5t-18.5 -44t-28 -35.5z" />
    <glyph glyph-name="Rcaron" unicode="&#x158;" horiz-adv-x="669" 
d="M90 -7q-20 0 -29 13t-5 36l98 622q4 21 16 31t32 10h210q114 0 171.5 -50.5t57.5 -139.5q0 -71 -33.5 -119.5t-91.5 -72t-132 -22.5v13h16q44 0 72 -25t45 -71l65 -170q7 -17 5.5 -29.5t-11 -19t-26.5 -6.5q-16 0 -26 8.5t-17 27.5l-73 190q-16 43 -42 61t-76 18h-138
l-41 -264q-3 -20 -14.5 -30.5t-32.5 -10.5zM189 363h200q80 0 125 38t45 109q0 63 -37 95t-119 32h-171zM409 756q-18 0 -29.5 8.5t-20.5 24.5l-74 119q-6 12 -3.5 21.5t11.5 13.5t20 1.5t19 -14.5l81 -112l111 117q9 9 19.5 10t19 -4t10.5 -13.5t-7 -18.5l-99 -122
q-13 -16 -26.5 -23.5t-31.5 -7.5z" />
    <glyph glyph-name="rcaron" unicode="&#x159;" horiz-adv-x="358" 
d="M77 -7q-19 0 -27.5 12t-5.5 35l65 414q4 20 15.5 29.5t30.5 9.5q18 0 27 -12t6 -34l-12 -77h-11q21 60 70.5 92t111.5 34q22 1 30 -5.5t8 -22.5q0 -21 -10 -30.5t-32 -12.5l-20 -1q-80 -7 -115 -48t-46 -108l-38 -236q-2 -19 -14 -29t-33 -10zM259 545q-15 0 -27 7.5
t-19 24.5l-66 153q-6 12 -2 21t13 13t19 1.5t16 -14.5l72 -143l107 145q8 11 18 13t18 -3t10.5 -13.5t-5.5 -20.5l-98 -150q-10 -17 -25 -25.5t-31 -8.5z" />
    <glyph glyph-name="Sacute" unicode="&#x15a;" horiz-adv-x="615" 
d="M297 -9q-45 0 -89 7t-84 22t-73 40q-13 8 -16.5 19t-1 22.5t10 19.5t19.5 9t26 -8q48 -33 101.5 -45.5t113.5 -12.5q81 0 130 33.5t49 91.5q0 40 -29 68.5t-102 44.5l-103 25q-70 17 -112 58t-42 118q0 48 20.5 87t56.5 66.5t84 42.5t102 15q58 0 119 -17t107 -56
q11 -8 14.5 -19.5t1 -22.5t-10.5 -18t-20 -7.5t-27 9.5q-39 31 -87.5 44.5t-98.5 13.5t-91 -16.5t-64 -46t-23 -70.5q0 -50 25.5 -74.5t75.5 -37.5l104 -24q94 -22 138.5 -66.5t44.5 -107.5q0 -50 -21 -89t-58 -65t-85.5 -39.5t-104.5 -13.5zM415 769q-10 -9 -20 -9.5
t-17.5 5t-9.5 15t6 19.5l99 130q9 13 21 16t22.5 -0.5t17 -11t6 -18.5t-10.5 -23z" />
    <glyph glyph-name="sacute" unicode="&#x15b;" horiz-adv-x="481" 
d="M223 -9q-48 0 -91.5 11.5t-75.5 30.5q-12 7 -16.5 17.5t-3 20.5t8 17t17 8t23.5 -6q32 -19 67 -28t72 -9q54 0 84.5 21.5t30.5 60.5q0 25 -16.5 41.5t-48.5 23.5l-94 23q-50 12 -78.5 43.5t-28.5 77.5q0 43 24 77.5t69 54t106 19.5q40 0 81 -11.5t68 -32.5
q12 -9 16.5 -19.5t2.5 -20t-9 -15.5t-17.5 -6.5t-23.5 7.5q-25 19 -56 27.5t-65 8.5q-56 0 -88 -23t-32 -62q0 -24 15 -41.5t45 -24.5l95 -23q53 -13 82.5 -42.5t29.5 -76.5q0 -70 -53 -109.5t-140 -39.5zM315 555q-9 -10 -19 -11t-17.5 4t-9.5 14.5t6 21.5l107 161
q10 15 21.5 18.5t21.5 0.5t17 -11.5t7 -19.5t-9 -23z" />
    <glyph glyph-name="Scircumflex" unicode="&#x15c;" horiz-adv-x="615" 
d="M297 -9q-45 0 -89 7t-84 22t-73 40q-13 8 -16.5 19t-1 22.5t10 19.5t19.5 9t26 -8q48 -33 101.5 -45.5t113.5 -12.5q81 0 130 33.5t49 91.5q0 40 -29 68.5t-102 44.5l-103 25q-70 17 -112 58t-42 118q0 48 20.5 87t56.5 66.5t84 42.5t102 15q58 0 119 -17t107 -56
q11 -8 14.5 -19.5t1 -22.5t-10.5 -18t-20 -7.5t-27 9.5q-39 31 -87.5 44.5t-98.5 13.5t-91 -16.5t-64 -46t-23 -70.5q0 -50 25.5 -74.5t75.5 -37.5l104 -24q94 -22 138.5 -66.5t44.5 -107.5q0 -50 -21 -89t-58 -65t-85.5 -39.5t-104.5 -13.5zM274 767q-9 -9 -19.5 -10t-18 4
t-9 13.5t6.5 19.5l100 122q12 15 25.5 23t31.5 8t29 -8.5t21 -25.5l73 -119q8 -12 4.5 -21.5t-12.5 -13.5t-20.5 -1.5t-19.5 13.5l-81 113z" />
    <glyph glyph-name="scircumflex" unicode="&#x15d;" horiz-adv-x="481" 
d="M223 -9q-48 0 -91.5 11.5t-75.5 30.5q-12 7 -16.5 17.5t-3 20.5t8 17t17 8t23.5 -6q32 -19 67 -28t72 -9q54 0 84.5 21.5t30.5 60.5q0 25 -16.5 41.5t-48.5 23.5l-94 23q-50 12 -78.5 43.5t-28.5 77.5q0 43 24 77.5t69 54t106 19.5q40 0 81 -11.5t68 -32.5
q12 -9 16.5 -19.5t2.5 -20t-9 -15.5t-17.5 -6.5t-23.5 7.5q-25 19 -56 27.5t-65 8.5q-56 0 -88 -23t-32 -62q0 -24 15 -41.5t45 -24.5l95 -23q53 -13 82.5 -42.5t29.5 -76.5q0 -70 -53 -109.5t-140 -39.5zM415 580q6 -12 2 -21t-13.5 -13t-19 -1.5t-14.5 12.5l-72 142
l-106 -143q-7 -10 -17 -12t-18 2.5t-10.5 13.5t5.5 21l99 153q11 17 23.5 24.5t28.5 7.5q15 0 26.5 -8t18.5 -24z" />
    <glyph glyph-name="Scedilla" unicode="&#x15e;" horiz-adv-x="615" 
d="M297 -9q-45 0 -89 7t-84 22t-73 40q-13 8 -16.5 19t-1 22.5t10 19.5t19.5 9t26 -8q48 -33 101.5 -45.5t113.5 -12.5q81 0 130 33.5t49 91.5q0 40 -29 68.5t-102 44.5l-103 25q-70 17 -112 58t-42 118q0 48 20.5 87t56.5 66.5t84 42.5t102 15q58 0 119 -17t107 -56
q11 -8 14.5 -19.5t1 -22.5t-10.5 -18t-20 -7.5t-27 9.5q-39 31 -87.5 44.5t-98.5 13.5t-91 -16.5t-64 -46t-23 -70.5q0 -50 25.5 -74.5t75.5 -37.5l104 -24q94 -22 138.5 -66.5t44.5 -107.5q0 -50 -21 -89t-58 -65t-85.5 -39.5t-104.5 -13.5zM274 -192q-18 0 -35.5 2.5
t-33.5 7.5q-12 4 -16 13t-1 18.5t11 14t21 0.5q11 -5 25 -7t30 -2q28 0 45 10t17 29q0 12 -8.5 19t-26.5 7q-7 0 -16.5 -1t-18.5 -4q-8 -2 -13.5 -2t-9.5 4q-3 4 -3.5 8.5t2.5 12.5l26 82h51l-25 -75l-24 6q13 3 24.5 5t21.5 2q34 0 55 -16t21 -47q0 -39 -34 -63t-85 -24z
" />
    <glyph glyph-name="scedilla" unicode="&#x15f;" horiz-adv-x="481" 
d="M223 -9q-48 0 -91.5 11.5t-75.5 30.5q-12 7 -16.5 17.5t-3 20.5t8 17t17 8t23.5 -6q32 -19 67 -28t72 -9q54 0 84.5 21.5t30.5 60.5q0 25 -16.5 41.5t-48.5 23.5l-94 23q-50 12 -78.5 43.5t-28.5 77.5q0 43 24 77.5t69 54t106 19.5q40 0 81 -11.5t68 -32.5
q12 -9 16.5 -19.5t2.5 -20t-9 -15.5t-17.5 -6.5t-23.5 7.5q-25 19 -56 27.5t-65 8.5q-56 0 -88 -23t-32 -62q0 -24 15 -41.5t45 -24.5l95 -23q53 -13 82.5 -42.5t29.5 -76.5q0 -70 -53 -109.5t-140 -39.5zM193 -192q-18 0 -35.5 2.5t-33.5 7.5q-12 4 -16 13t-1 18.5t11 14
t21 0.5q11 -5 25 -7t30 -2q28 0 45 10t17 29q0 12 -8.5 19t-26.5 7q-7 0 -16.5 -1t-18.5 -4q-8 -2 -13.5 -2t-9.5 4q-3 4 -3.5 8.5t2.5 12.5l26 82h51l-25 -75l-24 6q13 3 24.5 5t21.5 2q34 0 55 -16t21 -47q0 -39 -34 -63t-85 -24z" />
    <glyph glyph-name="Scaron" unicode="&#x160;" horiz-adv-x="615" 
d="M297 -9q-45 0 -89 7t-84 22t-73 40q-13 8 -16.5 19t-1 22.5t10 19.5t19.5 9t26 -8q48 -33 101.5 -45.5t113.5 -12.5q81 0 130 33.5t49 91.5q0 40 -29 68.5t-102 44.5l-103 25q-70 17 -112 58t-42 118q0 48 20.5 87t56.5 66.5t84 42.5t102 15q58 0 119 -17t107 -56
q11 -8 14.5 -19.5t1 -22.5t-10.5 -18t-20 -7.5t-27 9.5q-39 31 -87.5 44.5t-98.5 13.5t-91 -16.5t-64 -46t-23 -70.5q0 -50 25.5 -74.5t75.5 -37.5l104 -24q94 -22 138.5 -66.5t44.5 -107.5q0 -50 -21 -89t-58 -65t-85.5 -39.5t-104.5 -13.5zM377 756q-18 0 -29.5 8.5
t-20.5 24.5l-74 119q-6 12 -3.5 21.5t11.5 13.5t20 1.5t19 -14.5l81 -112l111 117q9 9 19.5 10t19 -4t10.5 -13.5t-7 -18.5l-99 -122q-13 -16 -26.5 -23.5t-31.5 -7.5z" />
    <glyph glyph-name="scaron" unicode="&#x161;" horiz-adv-x="481" 
d="M223 -9q-48 0 -91.5 11.5t-75.5 30.5q-12 7 -16.5 17.5t-3 20.5t8 17t17 8t23.5 -6q32 -19 67 -28t72 -9q54 0 84.5 21.5t30.5 60.5q0 25 -16.5 41.5t-48.5 23.5l-94 23q-50 12 -78.5 43.5t-28.5 77.5q0 43 24 77.5t69 54t106 19.5q40 0 81 -11.5t68 -32.5
q12 -9 16.5 -19.5t2.5 -20t-9 -15.5t-17.5 -6.5t-23.5 7.5q-25 19 -56 27.5t-65 8.5q-56 0 -88 -23t-32 -62q0 -24 15 -41.5t45 -24.5l95 -23q53 -13 82.5 -42.5t29.5 -76.5q0 -70 -53 -109.5t-140 -39.5zM280 542q-15 0 -27 7.5t-19 24.5l-66 153q-6 12 -2 21t13 13t19 1.5
t16 -14.5l72 -143l107 145q8 11 18 13t18 -3t10.5 -13.5t-5.5 -20.5l-98 -150q-10 -17 -25 -25.5t-31 -8.5z" />
    <glyph glyph-name="uni0162" unicode="&#x162;" horiz-adv-x="602" 
d="M263 -7q-20 0 -29 13t-5 36l93 592h-219q-18 0 -28.5 8t-10.5 22q0 20 12 30.5t31 10.5h528q19 0 29 -7.5t10 -21.5q0 -20 -11.5 -31t-31.5 -11h-227l-95 -600q-2 -20 -13.5 -30.5t-32.5 -10.5zM244 -192q-18 0 -35.5 2.5t-33.5 7.5q-12 4 -16 13t-1 18.5t11 14t21 0.5
q11 -5 25 -7t30 -2q28 0 45 10t17 29q0 12 -8.5 19t-26.5 7q-7 0 -16.5 -1t-18.5 -4q-8 -2 -13.5 -2t-9.5 4q-3 4 -3.5 8.5t2.5 12.5l26 82h51l-25 -75l-24 6q13 3 24.5 5t21.5 2q34 0 55 -16t21 -47q0 -39 -34 -63t-85 -24z" />
    <glyph glyph-name="uni0163" unicode="&#x163;" horiz-adv-x="350" 
d="M238 -9q-57 0 -93.5 22t-51 61t-6.5 93l41 256h-62q-17 0 -26.5 7t-9.5 20q0 18 12 27t31 9h65l18 118q4 19 15 28.5t30 9.5q20 0 29 -12t6 -34l-17 -110h120q18 0 27 -6t9 -20q0 -17 -10.5 -27t-29.5 -10h-127l-39 -248q-9 -61 13 -88t69 -27q21 0 33 4t20 4
q10 0 15 -5.5t5 -19.5q0 -20 -6.5 -29t-19.5 -14q-11 -4 -28.5 -6.5t-31.5 -2.5zM166 -192q-18 0 -35.5 2.5t-33.5 7.5q-12 4 -16 13t-1 18.5t11 14t21 0.5q11 -5 25 -7t30 -2q28 0 45 10t17 29q0 12 -8.5 19t-26.5 7q-7 0 -16.5 -1t-18.5 -4q-8 -2 -13.5 -2t-9.5 4
q-3 4 -3.5 8.5t2.5 12.5l26 82h51l-25 -75l-24 6q13 3 24.5 5t21.5 2q34 0 55 -16t21 -47q0 -39 -34 -63t-85 -24z" />
    <glyph glyph-name="Tcaron" unicode="&#x164;" horiz-adv-x="602" 
d="M263 -7q-20 0 -29 13t-5 36l93 592h-219q-18 0 -28.5 8t-10.5 22q0 20 12 30.5t31 10.5h528q19 0 29 -7.5t10 -21.5q0 -20 -11.5 -31t-31.5 -11h-227l-95 -600q-2 -20 -13.5 -30.5t-32.5 -10.5zM382 756q-18 0 -29.5 8.5t-20.5 24.5l-74 119q-6 12 -3.5 21.5t11.5 13.5
t20 1.5t19 -14.5l81 -112l111 117q9 9 19.5 10t19 -4t10.5 -13.5t-7 -18.5l-99 -122q-13 -16 -26.5 -23.5t-31.5 -7.5z" />
    <glyph glyph-name="tcaron" unicode="&#x165;" horiz-adv-x="350" 
d="M238 -9q-57 0 -93.5 22t-51 61t-6.5 93l41 256h-62q-17 0 -26.5 7t-9.5 20q0 18 12 27t31 9h65l18 118q4 19 15 28.5t30 9.5q20 0 29 -12t6 -34l-17 -110h120q18 0 27 -6t9 -20q0 -17 -10.5 -27t-29.5 -10h-127l-39 -248q-9 -61 13 -88t69 -27q21 0 33 4t20 4
q10 0 15 -5.5t5 -19.5q0 -20 -6.5 -29t-19.5 -14q-11 -4 -28.5 -6.5t-31.5 -2.5zM316 519q-10 0 -15 6t-3 18l22 139q5 30 35 30q17 0 24 -9.5t2 -27.5l-40 -136q-2 -11 -9 -15.5t-16 -4.5z" />
    <glyph glyph-name="Tbar" unicode="&#x166;" horiz-adv-x="602" 
d="M263 -7q-20 0 -29 13t-5 36l93 592h-219q-18 0 -28.5 8t-10.5 22q0 20 12 30.5t31 10.5h528q19 0 29 -7.5t10 -21.5q0 -20 -11.5 -31t-31.5 -11h-227l-95 -600q-2 -20 -13.5 -30.5t-32.5 -10.5zM163 326q-17 0 -26 7t-9 20q0 18 10.5 27.5t28.5 9.5h307q17 0 26 -6.5
t9 -19.5q0 -18 -10.5 -28t-28.5 -10h-307z" />
    <glyph glyph-name="tbar" unicode="&#x167;" horiz-adv-x="350" 
d="M238 -9q-57 0 -93.5 22t-51 61t-6.5 93l41 256h-62q-17 0 -26.5 7t-9.5 20q0 18 12 27t31 9h65l18 118q4 19 15 28.5t30 9.5q20 0 29 -12t6 -34l-17 -110h120q18 0 27 -6t9 -20q0 -17 -10.5 -27t-29.5 -10h-127l-39 -248q-9 -61 13 -88t69 -27q21 0 33 4t20 4
q10 0 15 -5.5t5 -19.5q0 -20 -6.5 -29t-19.5 -14q-11 -4 -28.5 -6.5t-31.5 -2.5zM54 239q-15 0 -23 6t-8 17q0 15 9.5 23.5t25.5 8.5h223q31 0 31 -24q0 -15 -9.5 -23t-24.5 -8h-224z" />
    <glyph glyph-name="Utilde" unicode="&#x168;" horiz-adv-x="728" 
d="M335 -9q-66 0 -117.5 19t-84 57.5t-44 96t0.5 133.5l60 376q4 20 15 29.5t31 9.5t29.5 -12t5.5 -35l-59 -375q-18 -113 25 -169.5t142 -56.5t155 50t74 159l64 400q3 20 14.5 29.5t30.5 9.5q20 0 29.5 -12t5.5 -35l-62 -396q-15 -91 -53 -153t-103 -93.5t-159 -31.5z
M260 781q-10 1 -15.5 8.5t-2.5 20.5q16 56 47.5 82.5t74.5 26.5q27 0 51 -11.5t45.5 -26.5t41.5 -26.5t40 -11.5q25 0 43.5 15.5t27.5 46.5q4 10 10.5 15t17.5 4t16.5 -8.5t1.5 -21.5q-14 -55 -46 -81.5t-76 -26.5q-27 0 -51 11.5t-45 26t-41 26.5t-40 12q-25 0 -43.5 -15.5
t-28.5 -46.5q-3 -10 -9.5 -15t-18.5 -4z" />
    <glyph glyph-name="utilde" unicode="&#x169;" horiz-adv-x="561" 
d="M211 -9q-52 0 -88.5 22t-52 66.5t-4.5 113.5l41 262q4 20 15 29t30 9q20 0 29.5 -11.5t5.5 -33.5l-40 -255q-11 -68 11 -101.5t77 -33.5q70 0 112.5 45t53.5 120l36 232q4 20 15 29t30 9q21 0 30 -11t6 -33l-66 -417q-6 -39 -44 -39q-19 0 -28 11t-6 33l13 87l9 -12
q-25 -58 -73 -89.5t-112 -31.5zM174 589q-11 1 -16.5 8.5t-2.5 18.5q6 27 17 48t25 35t32 21t38 7q24 0 41.5 -11.5t32 -26t29 -26.5t33.5 -12q22 0 38.5 16.5t25.5 45.5q3 10 10.5 15t17.5 4q11 -1 16.5 -8t2.5 -19q-8 -35 -24.5 -60t-38 -38t-48.5 -13q-25 0 -43 11.5
t-32.5 26.5t-29 26.5t-32.5 11.5q-22 0 -39 -16.5t-25 -44.5q-3 -11 -10 -16t-18 -4z" />
    <glyph glyph-name="Umacron" unicode="&#x16a;" horiz-adv-x="728" 
d="M335 -9q-66 0 -117.5 19t-84 57.5t-44 96t0.5 133.5l60 376q4 20 15 29.5t31 9.5t29.5 -12t5.5 -35l-59 -375q-18 -113 25 -169.5t142 -56.5t155 50t74 159l64 400q3 20 14.5 29.5t30.5 9.5q20 0 29.5 -12t5.5 -35l-62 -396q-15 -91 -53 -153t-103 -93.5t-159 -31.5z
M319 814q-30 0 -30 24q0 15 9 23t24 8h277q30 0 30 -23q0 -14 -8.5 -23t-23.5 -9h-278z" />
    <glyph glyph-name="umacron" unicode="&#x16b;" horiz-adv-x="561" 
d="M211 -9q-52 0 -88.5 22t-52 66.5t-4.5 113.5l41 262q4 20 15 29t30 9q20 0 29.5 -11.5t5.5 -33.5l-40 -255q-11 -68 11 -101.5t77 -33.5q70 0 112.5 45t53.5 120l36 232q4 20 15 29t30 9q21 0 30 -11t6 -33l-66 -417q-6 -39 -44 -39q-19 0 -28 11t-6 33l13 87l9 -12
q-25 -58 -73 -89.5t-112 -31.5zM217 626q-30 0 -30 23q0 15 9 23.5t24 8.5h247q30 0 30 -23q0 -14 -8.5 -23t-24.5 -9h-247z" />
    <glyph glyph-name="Ubreve" unicode="&#x16c;" horiz-adv-x="728" 
d="M335 -9q-66 0 -117.5 19t-84 57.5t-44 96t0.5 133.5l60 376q4 20 15 29.5t31 9.5t29.5 -12t5.5 -35l-59 -375q-18 -113 25 -169.5t142 -56.5t155 50t74 159l64 400q3 20 14.5 29.5t30.5 9.5q20 0 29.5 -12t5.5 -35l-62 -396q-15 -91 -53 -153t-103 -93.5t-159 -31.5z
M451 760q-67 0 -108.5 40.5t-46.5 107.5q-2 13 4.5 20.5t17.5 9.5q8 1 14.5 -1.5t10.5 -8t4 -13.5q2 -48 31.5 -74.5t75.5 -26.5q45 0 78.5 26.5t45.5 75.5q2 8 6 13t10 7.5t14 1.5q13 -2 18.5 -11t0.5 -24q-17 -66 -65 -104.5t-111 -38.5z" />
    <glyph glyph-name="ubreve" unicode="&#x16d;" horiz-adv-x="561" 
d="M211 -9q-52 0 -88.5 22t-52 66.5t-4.5 113.5l41 262q4 20 15 29t30 9q20 0 29.5 -11.5t5.5 -33.5l-40 -255q-11 -68 11 -101.5t77 -33.5q70 0 112.5 45t53.5 120l36 232q4 20 15 29t30 9q21 0 30 -11t6 -33l-66 -417q-6 -39 -44 -39q-19 0 -28 11t-6 33l13 87l9 -12
q-25 -58 -73 -89.5t-112 -31.5zM334 550q-41 0 -72.5 20t-49 57.5t-18.5 89.5q-1 13 5 20.5t18 8.5q12 2 20 -4t8 -20q2 -57 26.5 -87t65.5 -30t70 30.5t41 88.5q3 12 10.5 18t18.5 4q13 -1 18.5 -11t1.5 -25q-11 -50 -33.5 -86t-55.5 -55t-74 -19z" />
    <glyph glyph-name="Uring" unicode="&#x16e;" horiz-adv-x="728" 
d="M335 -9q-66 0 -117.5 19t-84 57.5t-44 96t0.5 133.5l60 376q4 20 15 29.5t31 9.5t29.5 -12t5.5 -35l-59 -375q-18 -113 25 -169.5t142 -56.5t155 50t74 159l64 400q3 20 14.5 29.5t30.5 9.5q20 0 29.5 -12t5.5 -35l-62 -396q-15 -91 -53 -153t-103 -93.5t-159 -31.5z
M462 758q-33 0 -60 15.5t-42.5 42t-15.5 58.5q0 33 15.5 58.5t42.5 41t60 15.5q34 0 60.5 -15.5t42.5 -41t16 -58.5q0 -32 -16 -58.5t-42.5 -42t-60.5 -15.5zM462 801q32 0 52 21t20 52q0 30 -20 51t-52 21q-31 0 -51.5 -21t-20.5 -51q0 -31 20.5 -52t51.5 -21z" />
    <glyph glyph-name="uring" unicode="&#x16f;" horiz-adv-x="561" 
d="M211 -9q-52 0 -88.5 22t-52 66.5t-4.5 113.5l41 262q4 20 15 29t30 9q20 0 29.5 -11.5t5.5 -33.5l-40 -255q-11 -68 11 -101.5t77 -33.5q70 0 112.5 45t53.5 120l36 232q4 20 15 29t30 9q21 0 30 -11t6 -33l-66 -417q-6 -39 -44 -39q-19 0 -28 11t-6 33l13 87l9 -12
q-25 -58 -73 -89.5t-112 -31.5zM344 548q-33 0 -60 15t-43 41.5t-16 58.5q0 33 16 59t43 41.5t60 15.5q34 0 60.5 -15.5t42.5 -41.5t16 -59q0 -32 -16 -58.5t-42.5 -41.5t-60.5 -15zM344 591q32 0 52 21t20 51q0 31 -20 51.5t-52 20.5q-31 0 -51.5 -20.5t-20.5 -50.5
q0 -31 20.5 -52t51.5 -21z" />
    <glyph glyph-name="Uhungarumlaut" unicode="&#x170;" horiz-adv-x="728" 
d="M335 -9q-66 0 -117.5 19t-84 57.5t-44 96t0.5 133.5l60 376q4 20 15 29.5t31 9.5t29.5 -12t5.5 -35l-59 -375q-18 -113 25 -169.5t142 -56.5t155 50t74 159l64 400q3 20 14.5 29.5t30.5 9.5q20 0 29.5 -12t5.5 -35l-62 -396q-15 -91 -53 -153t-103 -93.5t-159 -31.5z
M409 767q-7 -8 -15 -9t-14.5 3t-8.5 11.5t3 16.5l80 138q8 12 18.5 16.5t21 2.5t17 -9t7.5 -17.5t-8 -21.5zM536 767q-7 -9 -15 -10t-14 3.5t-8 12t3 17.5l83 138q8 13 18.5 17t20 1t16 -10t7 -17.5t-9.5 -22.5z" />
    <glyph glyph-name="uhungarumlaut" unicode="&#x171;" horiz-adv-x="561" 
d="M211 -9q-52 0 -88.5 22t-52 66.5t-4.5 113.5l41 262q4 20 15 29t30 9q20 0 29.5 -11.5t5.5 -33.5l-40 -255q-11 -68 11 -101.5t77 -33.5q70 0 112.5 45t53.5 120l36 232q4 20 15 29t30 9q21 0 30 -11t6 -33l-66 -417q-6 -39 -44 -39q-19 0 -28 11t-6 33l13 87l9 -12
q-25 -58 -73 -89.5t-112 -31.5zM415 560q-5 -11 -13.5 -13.5t-16 0t-11.5 10.5t0 18l59 164q5 15 15 21.5t21 6t19 -7t11 -17t-4 -23.5zM287 560q-4 -11 -13 -13.5t-16.5 0t-11.5 10.5t0 18l60 164q5 15 15 21.5t21 6t19 -7t11 -17t-4 -23.5z" />
    <glyph glyph-name="Uogonek" unicode="&#x172;" horiz-adv-x="728" 
d="M335 -9q-66 0 -117.5 19t-84 57.5t-44 96t0.5 133.5l60 376q4 20 15 29.5t31 9.5t29.5 -12t5.5 -35l-59 -375q-18 -113 25 -169.5t142 -56.5t155 50t74 159l64 400q3 20 14.5 29.5t30.5 9.5q20 0 29.5 -12t5.5 -35l-62 -396q-15 -91 -53 -153t-103 -93.5t-159 -31.5z
M358 -192q-48 0 -73 25.5t-25 63.5q0 46 28.5 82t77.5 57l26 -36q-24 -10 -40.5 -24t-25 -30.5t-8.5 -36.5q0 -23 14 -37t39 -14q9 0 17.5 1.5t19.5 4.5q12 4 18.5 -1t8 -14.5t-2 -18t-12.5 -12.5q-14 -5 -31 -7.5t-31 -2.5z" />
    <glyph glyph-name="uogonek" unicode="&#x173;" horiz-adv-x="561" 
d="M387 124l9 -12q-25 -58 -73 -89.5t-112 -31.5q-52 0 -88.5 22t-52 66.5t-4.5 113.5l41 262q4 19 15 28.5t30 9.5q20 0 29.5 -12t5.5 -33l-40 -255q-11 -68 11 -101.5t77 -33.5q70 0 112.5 45t53.5 120l36 232q4 19 15 28.5t30 9.5q21 0 29.5 -12t5.5 -34l-65 -415
q-3 -16 -10.5 -25t-20.5 -13q-32 -13 -48 -35t-16 -50q0 -23 13.5 -37t39.5 -14q8 0 17 1.5t19 4.5q13 4 19.5 -1t8 -14.5t-2 -18t-12.5 -12.5q-14 -5 -31 -7.5t-32 -2.5q-48 0 -72.5 25.5t-24.5 63.5q0 42 23 75t64 55l-10 -16q-2 6 -2.5 12t0.5 14z" />
    <glyph glyph-name="Wcircumflex" unicode="&#x174;" horiz-adv-x="1101" 
d="M273 -7q-18 0 -28 10.5t-14 31.5l-119 626q-5 24 6 37.5t32 13.5q16 0 26 -9t14 -30l110 -603h-35l308 609q9 17 20.5 25t27.5 8q15 0 24.5 -10t13.5 -33l111 -599h-31l307 611q8 16 18.5 23.5t25.5 7.5q25 0 33 -16t-3 -39l-321 -631q-9 -17 -20.5 -25t-30.5 -8
q-17 0 -27.5 10.5t-14.5 31.5l-108 575h21l-296 -584q-9 -17 -20 -25t-30 -8zM527 767q-9 -9 -19.5 -10t-18 4t-9 13.5t6.5 19.5l100 122q12 15 25.5 23t31.5 8t29 -8.5t21 -25.5l73 -119q8 -12 4.5 -21.5t-12.5 -13.5t-20.5 -1.5t-19.5 13.5l-81 113z" />
    <glyph glyph-name="wcircumflex" unicode="&#x175;" horiz-adv-x="841" 
d="M205 -7q-17 0 -29.5 10t-16.5 31l-84 400q-4 18 -1 31t13 20.5t24 7.5q18 0 26 -8.5t11 -28.5l76 -396h-25l211 405q8 15 19 21.5t26 6.5t26 -8t15 -27l78 -398h-23l207 403q9 17 19 23.5t26 6.5t24.5 -7t9 -19t-6.5 -26l-219 -415q-9 -16 -22 -24.5t-30 -8.5t-29.5 10.5
t-17.5 30.5l-80 389h33l-207 -396q-9 -17 -22 -25.5t-31 -8.5zM596 580q6 -12 2 -21t-13.5 -13t-19 -1.5t-14.5 12.5l-72 142l-106 -143q-7 -10 -17 -12t-18 2.5t-10.5 13.5t5.5 21l99 153q11 17 23.5 24.5t28.5 7.5q15 0 26.5 -8t18.5 -24z" />
    <glyph glyph-name="Ycircumflex" unicode="&#x176;" horiz-adv-x="596" 
d="M258 -7q-19 0 -27.5 13t-6.5 35l52 324l8 -57l-194 344q-8 16 -7 29.5t11 22t26 8.5t25 -7t18 -24l164 -290h-22l262 296q12 14 22 19.5t24 5.5q15 0 24.5 -9t10 -23t-12.5 -28l-305 -344l28 57l-53 -331q-6 -41 -47 -41zM268 767q-9 -9 -19.5 -10t-18 4t-9 13.5
t6.5 19.5l100 122q12 15 25.5 23t31.5 8t29 -8.5t21 -25.5l73 -119q8 -12 4.5 -21.5t-12.5 -13.5t-20.5 -1.5t-19.5 13.5l-81 113z" />
    <glyph glyph-name="ycircumflex" unicode="&#x177;" horiz-adv-x="514" 
d="M119 -187q-16 0 -24.5 8t-8.5 20.5t8 26.5l93 157l-5 -35l-120 446q-5 17 -2 30t13.5 20t25.5 7q18 0 26.5 -8t13.5 -29l99 -397h-28l233 405q9 15 19 22t25 7q16 0 25.5 -7.5t10.5 -20t-8 -27.5l-352 -595q-8 -15 -18 -22.5t-26 -7.5zM427 580q6 -12 2 -21t-13.5 -13
t-19 -1.5t-14.5 12.5l-72 142l-106 -143q-7 -10 -17 -12t-18 2.5t-10.5 13.5t5.5 21l99 153q11 17 23.5 24.5t28.5 7.5q15 0 26.5 -8t18.5 -24z" />
    <glyph glyph-name="Ydieresis" unicode="&#x178;" horiz-adv-x="596" 
d="M258 -7q-19 0 -27.5 13t-6.5 35l52 324l8 -57l-194 344q-8 16 -7 29.5t11 22t26 8.5t25 -7t18 -24l164 -290h-22l262 296q12 14 22 19.5t24 5.5q15 0 24.5 -9t10 -23t-12.5 -28l-305 -344l28 57l-53 -331q-6 -41 -47 -41zM466 802q-19 0 -30 10t-11 27q0 27 14.5 41.5
t39.5 14.5q20 0 30.5 -9.5t10.5 -27.5q0 -26 -14 -41t-40 -15zM292 802q-19 0 -29.5 10t-10.5 27q0 27 14 41.5t40 14.5q19 0 29.5 -9.5t10.5 -27.5q0 -26 -14 -41t-40 -15z" />
    <glyph glyph-name="Zacute" unicode="&#x179;" horiz-adv-x="589" 
d="M50 0q-13 0 -22 7t-12 18t1.5 25.5t17.5 29.5l501 586l1 -32h-391q-18 0 -27.5 8t-9.5 21q0 22 12 32t30 10h431q17 0 27 -7t12.5 -18t-2.5 -25.5t-18 -28.5l-502 -586l-2 31h407q18 0 28 -7t10 -21q0 -22 -12 -32.5t-30 -10.5h-450zM415 769q-10 -9 -20 -9.5t-17.5 5
t-9.5 15t6 19.5l99 130q9 13 21 16t22.5 -0.5t17 -11t6 -18.5t-10.5 -23z" />
    <glyph glyph-name="zacute" unicode="&#x17a;" horiz-adv-x="463" 
d="M55 0q-13 0 -21.5 5.5t-12.5 14.5t-1 19.5t12 21.5l342 383l3 -20h-262q-16 0 -24.5 7t-8.5 19q0 17 10 26.5t27 9.5h304q13 0 22 -5.5t12 -14.5t-0.5 -20.5t-14.5 -23.5l-341 -382l-3 23h275q34 0 34 -26q0 -17 -10 -27t-27 -10h-315zM316 555q-9 -10 -19 -11t-17.5 4
t-9.5 14.5t6 21.5l107 161q10 15 21.5 18.5t21.5 0.5t17 -11.5t7 -19.5t-9 -23z" />
    <glyph glyph-name="Zdotaccent" unicode="&#x17b;" horiz-adv-x="589" 
d="M50 0q-13 0 -22 7t-12 18t1.5 25.5t17.5 29.5l501 586l1 -32h-391q-18 0 -27.5 8t-9.5 21q0 22 12 32t30 10h431q17 0 27 -7t12.5 -18t-2.5 -25.5t-18 -28.5l-502 -586l-2 31h407q18 0 28 -7t10 -21q0 -22 -12 -32.5t-30 -10.5h-450zM385 803q-20 0 -31.5 10t-11.5 28
q0 28 15.5 42.5t42.5 14.5q20 0 31.5 -9.5t11.5 -28.5q0 -26 -15 -41.5t-43 -15.5z" />
    <glyph glyph-name="zdotaccent" unicode="&#x17c;" horiz-adv-x="463" 
d="M55 0q-13 0 -21.5 5.5t-12.5 14.5t-1 19.5t12 21.5l342 383l3 -20h-262q-16 0 -24.5 7t-8.5 19q0 17 10 26.5t27 9.5h304q13 0 22 -5.5t12 -14.5t-0.5 -20.5t-14.5 -23.5l-341 -382l-3 23h275q34 0 34 -26q0 -17 -10 -27t-27 -10h-315zM292 605q-20 0 -31.5 10t-11.5 28
q0 28 15.5 43t42.5 15q20 0 31.5 -10t11.5 -28q0 -27 -15.5 -42.5t-42.5 -15.5z" />
    <glyph glyph-name="Zcaron" unicode="&#x17d;" horiz-adv-x="589" 
d="M50 0q-13 0 -22 7t-12 18t1.5 25.5t17.5 29.5l501 586l1 -32h-391q-18 0 -27.5 8t-9.5 21q0 22 12 32t30 10h431q17 0 27 -7t12.5 -18t-2.5 -25.5t-18 -28.5l-502 -586l-2 31h407q18 0 28 -7t10 -21q0 -22 -12 -32.5t-30 -10.5h-450zM377 756q-18 0 -29.5 8.5t-20.5 24.5
l-74 119q-6 12 -3.5 21.5t11.5 13.5t20 1.5t19 -14.5l81 -112l111 117q9 9 19.5 10t19 -4t10.5 -13.5t-7 -18.5l-99 -122q-13 -16 -26.5 -23.5t-31.5 -7.5z" />
    <glyph glyph-name="zcaron" unicode="&#x17e;" horiz-adv-x="463" 
d="M55 0q-13 0 -21.5 5.5t-12.5 14.5t-1 19.5t12 21.5l342 383l3 -20h-262q-16 0 -24.5 7t-8.5 19q0 17 10 26.5t27 9.5h304q13 0 22 -5.5t12 -14.5t-0.5 -20.5t-14.5 -23.5l-341 -382l-3 23h275q34 0 34 -26q0 -17 -10 -27t-27 -10h-315zM281 542q-15 0 -27 7.5t-19 24.5
l-66 153q-6 12 -2 21t13 13t19 1.5t16 -14.5l72 -143l107 145q8 11 18 13t18 -3t10.5 -13.5t-5.5 -20.5l-98 -150q-10 -17 -25 -25.5t-31 -8.5z" />
    <glyph glyph-name="uni0181" unicode="&#x181;" horiz-adv-x="800" 
d="M223 0q-24 0 -34.5 13t-7.5 36l94 593h-33q-56 0 -85.5 -24.5t-39.5 -84.5l-4 -23q-2 -8 -6.5 -14.5t-12 -10t-18.5 -3.5q-13 0 -20.5 4.5t-10 14t-0.5 21.5l3 22q13 81 59 121t143 40h302q73 0 120.5 -20.5t70.5 -57.5t23 -87q0 -79 -48.5 -128.5t-129.5 -61.5v15
q67 -11 105 -53t38 -104q0 -103 -65 -155.5t-184 -52.5h-259zM263 66h219q83 0 125 37t42 108q0 56 -36.5 84.5t-106.5 28.5h-202zM315 390h201q78 0 123.5 36.5t45.5 105.5q0 52 -35 79.5t-109 27.5h-187z" />
    <glyph glyph-name="uni018A" unicode="&#x18a;" horiz-adv-x="867" 
d="M222 0q-23 0 -34 13t-8 36l95 593h-33q-54 0 -85 -24.5t-40 -84.5l-4 -23q-1 -8 -6 -14.5t-12.5 -10t-18.5 -3.5q-13 0 -20.5 4.5t-10 14t-0.5 21.5l3 22q14 81 60 121t142 40h242q160 0 247 -77t87 -218q0 -85 -24 -159t-73 -130.5t-124 -88.5t-179 -32h-204zM266 70
h162q84 0 143.5 26.5t96.5 73.5t54 108.5t17 130.5q0 110 -62.5 168t-185.5 58h-136z" />
    <glyph glyph-name="uni018F" unicode="&#x18f;" horiz-adv-x="767" 
d="M363 -9q-82 0 -141.5 30t-94.5 81.5t-47.5 118t-0.5 139.5q2 16 10.5 23t25.5 7h549l-10 -69h-518l26 32q-11 -82 5.5 -148t66.5 -104t135 -38q90 0 149.5 46t89.5 125.5t30 176.5q0 70 -28.5 121.5t-81 80t-125.5 28.5q-66 0 -118.5 -15t-98.5 -47q-14 -9 -26 -8
t-19.5 8.5t-10 19t2.5 23t18 19.5q53 39 120 56t145 17q92 0 161.5 -39t108.5 -107.5t39 -159.5q0 -89 -23.5 -165t-69.5 -132.5t-113.5 -88t-155.5 -31.5z" />
    <glyph glyph-name="florin" unicode="&#x192;" horiz-adv-x="600" 
d="M6 -189q-18 0 -27.5 8t-9.5 20q0 16 10.5 27t28.5 11h28q43 0 71.5 23t50.5 82l167 450l14 -9h-95q-21 0 -30.5 8t-9.5 19q0 17 10.5 26.5t29.5 9.5h115l-19 -14l29 78q30 83 77.5 123.5t136.5 40.5h16q18 0 26.5 -8.5t8.5 -20.5q0 -15 -10.5 -27t-26.5 -12h-25
q-46 0 -75 -22t-50 -82l-26 -70l-13 14h99q21 0 30.5 -7.5t9.5 -19.5q0 -17 -10.5 -26.5t-29.5 -9.5h-121l20 10l-172 -461q-22 -60 -50 -95.5t-67 -50.5t-94 -15h-17z" />
    <glyph glyph-name="Ohorn" unicode="&#x1a0;" horiz-adv-x="767" 
d="M368 -9q-88 0 -153.5 35t-102 103t-36.5 165q0 89 24 165.5t69.5 133.5t112 89t152.5 32q89 0 154.5 -35t101.5 -102.5t36 -164.5q0 -90 -24 -166.5t-69.5 -133.5t-112 -89t-152.5 -32zM370 64q87 0 147 45.5t91 124t31 177.5q0 116 -55.5 173t-152.5 57
q-86 0 -146 -45.5t-91 -123.5t-31 -177q0 -117 55 -174t152 -57zM525 655l-42 54q26 -2 46 -3t39 -1q45 0 70 14t36.5 38.5t16.5 54.5q3 16 13 23t27 7t26 -8t7 -23q-7 -47 -27.5 -82.5t-54.5 -54.5t-84 -19h-73z" />
    <glyph glyph-name="ohorn" unicode="&#x1a1;" horiz-adv-x="556" 
d="M255 -9q-65 0 -112.5 26t-73 74t-25.5 114q0 62 18.5 114.5t52.5 92.5t80.5 61.5t105.5 21.5q65 0 112.5 -26t72.5 -73.5t25 -114.5q0 -62 -18 -114.5t-52 -92t-81 -61.5t-105 -22zM258 56q55 0 93.5 31t58 83t19.5 114q0 72 -34.5 109t-96.5 37q-55 0 -93.5 -31
t-58.5 -82t-20 -115q0 -71 35 -108.5t97 -37.5zM402 436l-39 28l3 22q39 0 62 10t35.5 25.5t18.5 35t10 37.5q5 29 39 29q17 0 26.5 -8t6.5 -24q-9 -67 -48 -108.5t-114 -46.5z" />
    <glyph glyph-name="Uhorn" unicode="&#x1af;" horiz-adv-x="728" 
d="M335 -9q-66 0 -117.5 19t-84 57.5t-44 96t0.5 133.5l60 376q4 20 15 29.5t31 9.5t29.5 -12t5.5 -35l-59 -375q-18 -113 25 -169.5t142 -56.5t155 50t74 159l64 400q3 20 14.5 29.5t30.5 9.5q20 0 29.5 -12t5.5 -35l-62 -396q-15 -91 -53 -153t-103 -93.5t-159 -31.5z
M686 655l-39 28l4 22q43 1 68.5 13t38 34.5t17.5 53.5q3 14 13 21.5t27 7.5q18 0 27 -7.5t6 -21.5q-7 -46 -28 -78.5t-55 -51t-79 -21.5z" />
    <glyph glyph-name="uhorn" unicode="&#x1b0;" horiz-adv-x="561" 
d="M211 -9q-52 0 -88.5 22t-52 66.5t-4.5 113.5l41 262q4 19 15 28.5t30 9.5q20 0 29.5 -12t5.5 -33l-40 -255q-11 -68 11 -101.5t77 -33.5q70 0 112.5 45t53.5 120l35 227q4 19 15 28.5t29 10.5q37 3 57 15.5t30.5 35.5t16.5 54q5 29 39 29q17 0 26.5 -8t6.5 -24
q-8 -61 -42 -102t-99 -50l-63 -407q-6 -39 -44 -39q-19 0 -28 11t-6 33l13 87l9 -12q-25 -58 -73 -89.5t-112 -31.5z" />
    <glyph glyph-name="uni01B3" unicode="&#x1b3;" horiz-adv-x="613" 
d="M259 -7q-21 0 -29.5 12.5t-5.5 35.5l52 324l8 -57l-195 346q-8 15 -6.5 28t12 21.5t26.5 8.5q9 0 16 -3t13.5 -9.5t12.5 -18.5l164 -290h-22l216 244q26 29 49 46.5t48 25t54 7.5t45.5 -7t16.5 -27q0 -9 -6 -16.5t-12.5 -12t-8.5 -3.5q-1 0 -12.5 1t-17.5 1
q-23 0 -44 -11.5t-45 -39.5l-258 -291l28 57l-52 -330q-7 -42 -47 -42z" />
    <glyph glyph-name="uni01B4" unicode="&#x1b4;" horiz-adv-x="551" 
d="M120 -187q-16 0 -25 8t-9 20.5t8 26.5l93 157l-5 -35l-120 444q-5 17 -1.5 30.5t13.5 21t26 7.5q17 0 25.5 -8t13.5 -29l99 -397h-28l191 332q21 37 44 60t51.5 33.5t66.5 10.5q37 0 51.5 -8.5t14.5 -24.5q0 -15 -8 -25t-20 -10q-4 0 -14.5 1t-20.5 1q-31 0 -53.5 -16.5
t-49.5 -60.5l-299 -509q-9 -15 -19 -22.5t-25 -7.5z" />
    <glyph glyph-name="uni01C4" unicode="&#x1c4;" horiz-adv-x="1316" 
d="M98 0q-23 0 -34.5 13t-7.5 36l98 615q3 21 15.5 31t32.5 10h166q160 0 247 -77t87 -218q0 -85 -24 -159t-73 -130.5t-124 -88.5t-179 -32h-204zM142 70h162q84 0 143.5 26.5t96.5 73.5t54 108.5t17 130.5q0 110 -62.5 168t-185.5 58h-135zM777 0q-13 0 -22 7t-12 18
t1.5 25.5t17.5 29.5l501 586l1 -32h-391q-18 0 -27.5 8t-9.5 21q0 22 12 32t30 10h431q17 0 27 -7t12.5 -18t-2.5 -25.5t-18 -28.5l-502 -586l-2 31h407q18 0 28 -7t10 -21q0 -22 -12 -32.5t-30 -10.5h-450zM1105 756q-18 0 -29.5 8.5t-20.5 24.5l-74 119q-6 12 -3.5 21.5
t11.5 13.5t20 1.5t19 -14.5l81 -112l111 117q9 9 19.5 10t19 -4t10.5 -13.5t-7 -18.5l-99 -122q-13 -16 -26.5 -23.5t-31.5 -7.5z" />
    <glyph glyph-name="uni01C5" unicode="&#x1c5;" horiz-adv-x="1206" 
d="M98 0q-23 0 -34.5 13t-7.5 36l98 615q3 21 15.5 31t32.5 10h166q160 0 247 -77t87 -218q0 -85 -24 -159t-73 -130.5t-124 -88.5t-179 -32h-204zM142 70h162q84 0 143.5 26.5t96.5 73.5t54 108.5t17 130.5q0 110 -62.5 168t-185.5 58h-135zM797 0q-13 0 -21.5 5.5
t-12.5 14.5t-1 19.5t12 21.5l342 383l3 -20h-262q-16 0 -24.5 7t-8.5 19q0 17 10 26.5t27 9.5h304q13 0 22 -5.5t12 -14.5t-0.5 -20.5t-14.5 -23.5l-341 -382l-3 23h275q34 0 34 -26q0 -17 -10 -27t-27 -10h-315zM1024 542q-15 0 -27 7.5t-19 24.5l-66 153q-6 12 -2 21
t13 13t19 1.5t16 -14.5l72 -143l107 145q8 11 18 13t18 -3t10.5 -13.5t-5.5 -20.5l-98 -150q-10 -17 -25 -25.5t-31 -8.5z" />
    <glyph glyph-name="uni01C6" unicode="&#x1c6;" horiz-adv-x="1046" 
d="M231 -9q-56 0 -98 25.5t-65.5 72.5t-23.5 110q0 81 28.5 148.5t83 107.5t132.5 40q58 0 104 -29t63 -90l-7 1l47 296q3 20 14.5 29.5t31.5 9.5q19 0 28 -12t5 -35l-100 -631q-3 -20 -14.5 -30.5t-31.5 -10.5q-19 0 -27.5 13t-4.5 36l12 75l7 -14q-26 -51 -73.5 -81.5
t-110.5 -30.5zM257 56q56 0 94 31t58 83t20 114q0 72 -35 109t-96 37q-55 0 -93.5 -31t-58.5 -82t-20 -115q0 -71 35 -108.5t96 -37.5zM638 0q-13 0 -21.5 5.5t-12.5 14.5t-1 19.5t12 21.5l342 383l3 -20h-262q-16 0 -24.5 7t-8.5 19q0 17 10 26.5t27 9.5h304q13 0 22 -5.5
t12 -14.5t-0.5 -20.5t-14.5 -23.5l-341 -382l-3 23h275q34 0 34 -26q0 -17 -10 -27t-27 -10h-315zM864 542q-15 0 -27 7.5t-19 24.5l-66 153q-6 12 -2 21t13 13t19 1.5t16 -14.5l72 -143l107 145q8 11 18 13t18 -3t10.5 -13.5t-5.5 -20.5l-98 -150q-10 -17 -25 -25.5
t-31 -8.5z" />
    <glyph glyph-name="uni01C7" unicode="&#x1c7;" horiz-adv-x="907" 
d="M95 0q-22 0 -32 12t-7 34l100 628q3 20 14 29t30 9q21 0 30.5 -12t6.5 -34l-94 -594h321q18 0 28 -7.5t10 -21.5q0 -21 -12 -32t-31 -11h-364zM577 -6q-20 -1 -31 8t-10 26q0 17 9 26t26 10l32 2q54 4 85.5 36t41.5 94l75 477q4 20 15 29.5t31 9.5t29.5 -12t5.5 -34
l-76 -480q-9 -58 -32.5 -98.5t-65 -63.5t-104.5 -28z" />
    <glyph glyph-name="uni01C8" unicode="&#x1c8;" horiz-adv-x="779" 
d="M95 0q-22 0 -32 12t-7 34l100 628q3 20 14 29t30 9q21 0 30.5 -12t6.5 -34l-94 -594h321q18 0 28 -7.5t10 -21.5q0 -21 -12 -32t-31 -11h-364zM460 -191q-14 0 -22.5 6t-11 15.5t0 19t9.5 16t20 7.5q52 1 84 27.5t41 84.5l74 468q4 20 15 30t31 10q19 0 28 -12t6 -35
l-73 -456q-9 -62 -34 -101t-66.5 -58.5t-101.5 -21.5zM718 603q-23 0 -35 12t-11 33q2 26 18.5 40t43.5 14q24 0 36 -11.5t10 -33.5q-2 -26 -18 -40t-44 -14z" />
    <glyph glyph-name="uni01C9" unicode="&#x1c9;" horiz-adv-x="531" 
d="M186 -9q-71 0 -104 42.5t-20 125.5l82 513q3 20 14.5 30t31.5 10q19 0 28 -12.5t5 -35.5l-80 -505q-9 -53 8 -76t57 -23q14 0 21.5 1.5t12.5 1.5q8 0 12 -5t4 -19q0 -19 -9 -29.5t-23 -14.5q-8 -1 -19.5 -2.5t-20.5 -1.5zM213 -191q-14 0 -22.5 6t-11 15.5t0 19t9.5 16
t20 7.5q52 1 84 27.5t41 84.5l74 468q4 20 15 30t31 10q19 0 28 -12t6 -35l-73 -456q-9 -62 -34 -101t-66.5 -58.5t-101.5 -21.5zM471 603q-23 0 -35 12t-11 33q2 26 18.5 40t43.5 14q24 0 36 -11.5t10 -33.5q-2 -26 -18 -40t-44 -14z" />
    <glyph glyph-name="uni01CA" unicode="&#x1ca;" horiz-adv-x="1063" 
d="M88 -7q-18 0 -27 12t-6 34l101 637q4 19 14 27.5t25 8.5q16 0 24.5 -6.5t16.5 -20.5l338 -585h-21l91 574q3 20 14 29t30 9q18 0 26 -12t5 -34l-101 -636q-3 -18 -12 -27.5t-24 -9.5q-16 0 -25.5 7t-18.5 21l-338 584h21l-91 -574q-2 -19 -12.5 -28.5t-29.5 -9.5zM733 -6
q-20 -1 -31 8t-10 26q0 17 9 26t26 10l32 2q54 4 85.5 36t41.5 94l75 477q4 20 15 29.5t31 9.5t29.5 -12t5.5 -34l-76 -480q-9 -58 -32.5 -98.5t-65 -63.5t-104.5 -28z" />
    <glyph glyph-name="uni01CB" unicode="&#x1cb;" horiz-adv-x="975" 
d="M88 -7q-18 0 -27 12t-6 34l101 637q4 19 14 27.5t25 8.5q16 0 24.5 -6.5t16.5 -20.5l338 -585h-21l91 574q3 20 14 29t30 9q18 0 26 -12t5 -34l-101 -636q-3 -18 -12 -27.5t-24 -9.5q-16 0 -25.5 7t-18.5 21l-338 584h21l-91 -574q-2 -19 -12.5 -28.5t-29.5 -9.5z
M656 -191q-14 0 -22.5 6t-11 15.5t0 19t9.5 16t20 7.5q52 1 84 27.5t41 84.5l74 468q4 20 15 30t31 10q19 0 28 -12t6 -35l-73 -456q-9 -62 -34 -101t-66.5 -58.5t-101.5 -21.5zM914 603q-23 0 -35 12t-11 33q2 26 18.5 40t43.5 14q24 0 36 -11.5t10 -33.5q-2 -26 -18 -40
t-44 -14z" />
    <glyph glyph-name="uni01CC" unicode="&#x1cc;" horiz-adv-x="804" 
d="M77 -6q-19 0 -27.5 13t-5.5 35l65 411q4 20 15.5 30t31.5 10q18 0 26.5 -11.5t4.5 -33.5l-13 -84l-8 12q25 57 73.5 88t115.5 31q54 0 90.5 -21.5t52 -66t4.5 -113.5l-41 -261q-2 -20 -14 -29.5t-32 -9.5q-19 0 -28 12.5t-6 34.5l40 253q12 68 -11 101.5t-79 33.5
q-73 0 -116 -45t-55 -120l-36 -230q-6 -40 -47 -40zM485 -191q-14 0 -22.5 6t-11 15.5t0 19t9.5 16t20 7.5q52 1 84 27.5t41 84.5l74 468q4 20 15 30t31 10q19 0 28 -12t6 -35l-73 -456q-9 -62 -34 -101t-66.5 -58.5t-101.5 -21.5zM743 603q-23 0 -35 12t-11 33
q2 26 18.5 40t43.5 14q24 0 36 -11.5t10 -33.5q-2 -26 -18 -40t-44 -14z" />
    <glyph glyph-name="uni01CD" unicode="&#x1cd;" horiz-adv-x="729" 
d="M40 -7q-15 0 -25 7.5t-12.5 19.5t6.5 27l382 636q9 15 20.5 22t27.5 7q17 0 27.5 -8.5t15.5 -24.5l176 -630q6 -19 3 -31.5t-12 -18.5t-22 -6q-18 0 -28.5 10t-15.5 29l-44 165l32 -17h-426l41 16l-104 -177q-7 -13 -17.5 -19.5t-24.5 -6.5zM427 609l-219 -374l-22 14
h366l-23 -15l-100 375h-2zM447 756q-18 0 -29.5 8.5t-20.5 24.5l-74 119q-6 12 -3.5 21.5t11.5 13.5t20 1.5t19 -14.5l81 -112l111 117q9 9 19.5 10t19 -4t10.5 -13.5t-7 -18.5l-99 -122q-13 -16 -26.5 -23.5t-31.5 -7.5z" />
    <glyph glyph-name="uni01CE" unicode="&#x1ce;" horiz-adv-x="530" 
d="M199 -9q-42 0 -78.5 19t-58.5 52t-22 75q0 52 28.5 83.5t89.5 46.5t157 15h80l-8 -53h-61q-77 0 -121.5 -8t-63.5 -27t-19 -52q0 -44 29.5 -67t67.5 -23q37 0 68.5 16t53.5 47.5t29 74.5l19 122q10 58 -14.5 88t-88.5 30q-37 0 -70 -7t-66 -26q-13 -7 -24 -6t-18 8.5
t-8 17.5t5 20t21 18q38 21 82.5 30.5t86.5 9.5q68 0 108.5 -25.5t55.5 -71.5t5 -108l-41 -257q-2 -20 -13.5 -30t-30.5 -10q-18 0 -26.5 12t-5.5 34l13 81l8 -10q-13 -40 -39.5 -66.5t-60.5 -39.5t-69 -13zM313 542q-15 0 -27 7.5t-19 24.5l-66 153q-6 12 -2 21t13 13
t19 1.5t16 -14.5l72 -143l107 145q8 11 18 13t18 -3t10.5 -13.5t-5.5 -20.5l-98 -150q-10 -17 -25 -25.5t-31 -8.5z" />
    <glyph glyph-name="uni01D4" unicode="&#x1d4;" horiz-adv-x="561" 
d="M211 -9q-52 0 -88.5 22t-52 66.5t-4.5 113.5l41 262q4 20 15 29t30 9q20 0 29.5 -11.5t5.5 -33.5l-40 -255q-11 -68 11 -101.5t77 -33.5q70 0 112.5 45t53.5 120l36 232q4 20 15 29t30 9q21 0 30 -11t6 -33l-66 -417q-6 -39 -44 -39q-19 0 -28 11t-6 33l13 87l9 -12
q-25 -58 -73 -89.5t-112 -31.5zM323 543q-15 0 -27 7.5t-19 24.5l-66 153q-6 12 -2 21t13 13t19 1.5t16 -14.5l72 -143l107 145q8 11 18 13t18 -3t10.5 -13.5t-5.5 -20.5l-98 -150q-10 -17 -25 -25.5t-31 -8.5z" />
    <glyph glyph-name="uni01E5" unicode="&#x1e5;" horiz-adv-x="586" 
d="M249 -189q-59 0 -109 16t-90 42q-12 7 -15 17t-0.5 19.5t9.5 16.5t17.5 8.5t22.5 -5.5q36 -23 73 -36t82 -13q48 0 82.5 18.5t53.5 55.5l4 -10h-95q-16 0 -23 7.5t-7 19.5q0 15 10 22t22 7h113l-9 -11q1 7 3 14t3 13l22 140l5 -1q-24 -53 -73.5 -83.5t-113.5 -30.5
q-58 0 -100.5 25t-66 67.5t-23.5 96.5t17.5 102.5t49.5 86t77.5 59t102.5 21.5q61 0 106.5 -29.5t60.5 -88.5l-10 -14l14 91q4 20 15.5 29.5t30.5 9.5t27 -12t5 -35l-67 -428q-1 -8 -3 -15.5t-4 -15.5l-5 9h45q16 0 23.5 -7.5t7.5 -19.5q0 -15 -10 -22t-23 -7h-62l14 9
q-26 -69 -77 -103.5t-132 -34.5zM261 102q55 0 94 28t60 73.5t21 99.5q0 59 -35 93t-98 34q-54 0 -93 -28t-60.5 -73.5t-21.5 -98.5q0 -59 35 -93.5t98 -34.5z" />
    <glyph glyph-name="Gcaron" unicode="&#x1e6;" horiz-adv-x="726" 
d="M391 -9q-98 0 -168.5 35t-108.5 103t-38 167q0 93 25.5 169.5t73.5 132t116 86t155 30.5q64 0 120 -17.5t94 -51.5q13 -10 16.5 -23t0 -24t-11.5 -19t-20 -9t-26 10q-35 31 -80 45.5t-98 14.5q-87 0 -149 -43t-95.5 -120t-33.5 -179q0 -119 60.5 -176.5t176.5 -57.5
q49 0 90.5 9t78.5 23l-25 -43l40 249h-143q-18 0 -28 7.5t-10 20.5q0 18 11.5 27.5t29.5 9.5h180q19 0 29 -11t6 -31l-41 -261q-2 -16 -9 -25.5t-21 -14.5q-39 -15 -92 -24t-105 -9zM448 756q-18 0 -29.5 8.5t-20.5 24.5l-74 119q-6 12 -3.5 21.5t11.5 13.5t20 1.5t19 -14.5
l81 -112l111 117q9 9 19.5 10t19 -4t10.5 -13.5t-7 -18.5l-99 -122q-13 -16 -26.5 -23.5t-31.5 -7.5z" />
    <glyph glyph-name="gcaron" unicode="&#x1e7;" horiz-adv-x="586" 
d="M248 -189q-58 0 -108.5 16t-90.5 42q-11 7 -14.5 17t-0.5 19.5t10 16.5t17.5 8.5t22.5 -5.5q35 -23 72 -36t83 -13q64 0 104 32t51 101l19 115l8 -1q-25 -52 -72.5 -82t-110.5 -30q-58 0 -101.5 24.5t-68 69.5t-24.5 105q0 56 16.5 107.5t48.5 91.5t77.5 63t103.5 23
q60 0 106 -29t63 -90l-10 -13l14 91q4 20 15.5 29.5t31.5 9.5q18 0 26.5 -12t5.5 -35l-69 -433q-16 -100 -72 -151t-153 -51zM259 77q57 0 95.5 30t58.5 80t20 107q0 64 -35 100t-98 36q-56 0 -95 -30.5t-59 -79.5t-20 -106q0 -66 35 -101.5t98 -35.5zM338 542
q-15 0 -27 7.5t-19 24.5l-66 153q-6 12 -2 21t13 13t19 1.5t16 -14.5l72 -143l107 145q8 11 18 13t18 -3t10.5 -13.5t-5.5 -20.5l-98 -150q-10 -17 -25 -25.5t-31 -8.5z" />
    <glyph glyph-name="uni01E9" unicode="&#x1e9;" horiz-adv-x="500" 
d="M77 -7q-19 0 -28 12.5t-5 34.5l100 633q3 20 14.5 29.5t31.5 9.5q19 0 28 -12.5t5 -35.5l-62 -394h2l240 201q13 11 23 16.5t24 5.5q16 0 24 -9.5t6 -23t-15 -25.5l-248 -210l3 47l205 -220q12 -13 11.5 -26.5t-9.5 -23t-25 -9.5t-26.5 7.5t-24.5 23.5l-194 206h-2
l-32 -198q-5 -39 -46 -39zM365 756q-18 0 -29.5 8.5t-20.5 24.5l-74 119q-6 12 -3.5 21.5t11.5 13.5t20 1.5t19 -14.5l81 -112l111 117q9 9 19.5 10t19 -4t10.5 -13.5t-7 -18.5l-99 -122q-13 -16 -26.5 -23.5t-31.5 -7.5z" />
    <glyph glyph-name="uni01EA" unicode="&#x1ea;" horiz-adv-x="767" 
d="M368 -9q-88 0 -153.5 35t-102 103t-36.5 165q0 89 24 165.5t69.5 133.5t112 89t152.5 32q89 0 154.5 -35t101.5 -102.5t36 -164.5q0 -90 -24 -166.5t-69.5 -133.5t-112 -89t-152.5 -32zM370 64q87 0 147 45.5t91 124t31 177.5q0 116 -55.5 173t-152.5 57
q-86 0 -146 -45.5t-91 -123.5t-31 -177q0 -117 55 -174t152 -57zM380 -192q-48 0 -73 25.5t-25 63.5q0 46 28.5 82t77.5 57l26 -36q-24 -10 -40.5 -24t-25 -30.5t-8.5 -36.5q0 -23 14 -37t39 -14q9 0 17.5 1.5t19.5 4.5q12 4 18.5 -1t8 -14.5t-2 -18t-12.5 -12.5
q-14 -5 -31 -7.5t-31 -2.5z" />
    <glyph glyph-name="uni01EB" unicode="&#x1eb;" horiz-adv-x="556" 
d="M255 -9q-65 0 -112.5 26t-73 74t-25.5 114q0 62 18.5 114.5t52.5 92.5t80.5 61.5t105.5 21.5q65 0 112.5 -26t72.5 -73.5t25 -114.5q0 -62 -18 -114.5t-52 -92t-81 -61.5t-105 -22zM258 56q55 0 93.5 31t58 83t19.5 114q0 72 -34.5 109t-96.5 37q-55 0 -93.5 -31
t-58.5 -82t-20 -115q0 -71 35 -108.5t97 -37.5zM276 -192q-48 0 -73 25.5t-25 63.5q0 46 28.5 82t77.5 57l26 -36q-24 -10 -40.5 -24t-25 -30.5t-8.5 -36.5q0 -23 14 -37t39 -14q9 0 17.5 1.5t19.5 4.5q12 4 18.5 -1t8 -14.5t-2 -18t-12.5 -12.5q-14 -5 -31 -7.5t-31 -2.5z
" />
    <glyph glyph-name="uni01EF" unicode="&#x1ef;" horiz-adv-x="495" 
d="M185 -189q-53 0 -108 14t-100 45q-12 8 -15.5 18t-1.5 20t9.5 17t18.5 7.5t23 -8.5q39 -26 81 -37t87 -11q82 0 124 43t42 117q0 50 -34 82.5t-100 32.5h-79q-13 0 -20 7t-5 17.5t12 19.5l262 247l-2 -21h-287q-19 0 -28 9t-7 24q6 32 39 32h339q13 0 22 -5.5t11.5 -15
t-2.5 -20.5t-17 -21l-252 -237l-17 24h61q60 0 101 -23.5t62.5 -62.5t21.5 -87q0 -66 -28.5 -117t-82.5 -80.5t-130 -29.5zM282 542q-15 0 -27 7.5t-19 24.5l-66 153q-6 12 -2 21t13 13t19 1.5t16 -14.5l72 -143l107 145q8 11 18 13t18 -3t10.5 -13.5t-5.5 -20.5l-98 -150
q-10 -17 -25 -25.5t-31 -8.5z" />
    <glyph glyph-name="Aringacute" unicode="&#x1fa;" horiz-adv-x="729" 
d="M40 -7q-15 0 -25 7.5t-12.5 19.5t6.5 27l382 636q9 15 20.5 22t27.5 7q17 0 27.5 -8.5t15.5 -24.5l176 -630q6 -19 3 -31.5t-12 -18.5t-22 -6q-18 0 -28.5 10t-15.5 29l-44 165l32 -17h-426l41 16l-104 -177q-7 -13 -17.5 -19.5t-24.5 -6.5zM427 609l-219 -374l-22 14
h366l-23 -15l-100 375h-2zM449 758q-32 0 -58.5 15t-42 41t-15.5 57q0 32 15.5 57.5t42 41t58.5 15.5q19 0 35.5 -5t30.5 -15l73 68q11 10 22 9t18 -8.5t6.5 -18t-11.5 -20.5l-75 -64q17 -26 17 -60q0 -31 -15.5 -57t-41.5 -41t-59 -15zM449 799q32 0 52 21t20 51
q0 31 -20 51.5t-52 20.5q-31 0 -51.5 -20.5t-20.5 -51.5q0 -30 20.5 -51t51.5 -21z" />
    <glyph glyph-name="aringacute" unicode="&#x1fb;" horiz-adv-x="530" 
d="M199 -9q-42 0 -78.5 19t-58.5 52t-22 75q0 52 28.5 83.5t89.5 46.5t157 15h80l-8 -53h-61q-77 0 -121.5 -8t-63.5 -27t-19 -52q0 -44 29.5 -67t67.5 -23q37 0 68.5 16t53.5 47.5t29 74.5l19 122q10 58 -14.5 88t-88.5 30q-37 0 -70 -7t-66 -26q-13 -7 -24 -6t-18 8.5
t-8 17.5t5 20t21 18q38 21 82.5 30.5t86.5 9.5q68 0 108.5 -25.5t55.5 -71.5t5 -108l-41 -257q-2 -20 -13.5 -30t-30.5 -10q-18 0 -26.5 12t-5.5 34l13 81l8 -10q-13 -40 -39.5 -66.5t-60.5 -39.5t-69 -13zM331 544q-32 0 -58.5 15.5t-42 41t-15.5 56.5q0 32 15.5 58t42 41
t58.5 15q19 0 36 -5t30 -15l72 67q12 11 23 10.5t18 -8.5t6.5 -19t-11.5 -20l-75 -63q17 -26 17 -61q0 -31 -15.5 -56.5t-41.5 -41t-59 -15.5zM331 586q32 0 52 20.5t20 50.5q0 32 -20 52t-52 20q-31 0 -51.5 -20t-20.5 -52q0 -30 20.5 -50.5t51.5 -20.5z" />
    <glyph glyph-name="AEacute" unicode="&#x1fc;" horiz-adv-x="981" 
d="M7 -7q-17 0 -26 8.5t-9 21t10 24.5l486 636q9 12 20.5 17t26.5 5h455q17 0 26.5 -7t9.5 -20q0 -21 -11 -31.5t-29 -10.5h-424l24 29l16 -295l-28 22h345q18 0 27.5 -7t9.5 -20q0 -21 -11.5 -31.5t-29.5 -10.5h-337l25 22l16 -304l-29 28h300q17 0 26.5 -7t9.5 -21
q0 -19 -11 -30t-30 -11h-299q-37 0 -40 37l-8 167l26 -24h-390l36 22l-139 -184q-10 -14 -20.5 -19.5t-23.5 -5.5zM494 608l-285 -379l-6 20h331l-18 -22l-20 381h-2zM592 769q-10 -9 -20 -9.5t-17.5 5t-9.5 15t6 19.5l99 130q9 13 21 16t22.5 -0.5t17 -11t6 -18.5
t-10.5 -23z" />
    <glyph glyph-name="aeacute" unicode="&#x1fd;" horiz-adv-x="861" 
d="M210 -9q-44 0 -83 17.5t-63 50t-24 78.5q0 52 28.5 83.5t89.5 46.5t157 15h80l-8 -54h-61q-77 0 -121.5 -8t-63.5 -27t-19 -51q0 -43 29.5 -66t67.5 -23q37 0 68.5 14.5t54 43.5t29.5 72l19 121q10 63 -15 94.5t-89 31.5q-37 0 -70 -7t-66 -26q-13 -7 -24 -6t-18 8.5
t-8 17.5t5 20t21 18q38 21 82.5 30.5t86.5 9.5q70 0 111 -31t51 -90h-31q31 55 83.5 88t123.5 33q59 0 98 -20.5t61 -55t29 -76.5t1 -84l-2 -11q-1 -9 -8 -14.5t-18 -5.5h-359l8 54h329l-18 -16q7 47 -3 85t-39 61t-81 23q-53 0 -89 -24.5t-56 -62.5t-27 -79l-4 -24
q-14 -86 25.5 -137.5t121.5 -51.5q36 0 69.5 8.5t64.5 29.5q13 9 23.5 8.5t17.5 -7t8.5 -16t-3 -20t-16.5 -19.5q-34 -24 -80 -36.5t-88 -12.5q-86 0 -140 40.5t-69 112.5h26q-23 -79 -79.5 -116t-125.5 -37zM484 555q-9 -10 -19 -11t-17.5 4t-9.5 14.5t6 21.5l107 161
q10 15 21.5 18.5t21.5 0.5t17 -11.5t7 -19.5t-9 -23z" />
    <glyph glyph-name="Oslashacute" unicode="&#x1fe;" horiz-adv-x="767" 
d="M368 -9q-88 0 -153.5 35t-102 103t-36.5 165q0 89 24 165.5t69.5 133.5t112 89t152.5 32q89 0 154.5 -35t101.5 -102.5t36 -164.5q0 -90 -24 -166.5t-69.5 -133.5t-112 -89t-152.5 -32zM370 64q87 0 147 45.5t91 124t31 177.5q0 116 -55.5 173t-152.5 57
q-86 0 -146 -45.5t-91 -123.5t-31 -177q0 -117 55 -174t152 -57zM162 -20q-7 -10 -16.5 -12.5t-18.5 1t-15 10.5t-6 17t8 21l55 74l27 37l360 486l27 37l55 73q8 10 18 13t19 -0.5t14.5 -11t5.5 -17.5t-8 -20l-54 -74l-27 -37l-360 -485l-28 -38zM492 769q-10 -9 -20 -9.5
t-17.5 5t-9.5 15t6 19.5l99 130q9 13 21 16t22.5 -0.5t17 -11t6 -18.5t-10.5 -23z" />
    <glyph glyph-name="oslashacute" unicode="&#x1ff;" horiz-adv-x="556" 
d="M256 -9q-65 0 -112.5 26t-73 74.5t-25.5 114.5q0 61 18 114t52 92.5t81 61t105 21.5q66 0 113 -26t72.5 -73.5t25.5 -114.5q0 -62 -18 -114.5t-52 -92t-81 -61.5t-105 -22zM259 53q57 0 96 31t59.5 83.5t20.5 117.5q0 73 -36 110.5t-102 37.5q-56 0 -95.5 -30.5t-60 -83
t-20.5 -117.5q0 -73 36.5 -111t101.5 -38zM116 -24q-8 -11 -18.5 -11.5t-19 5.5t-10 16.5t6.5 22.5l367 501q9 10 19 11t18 -5t10 -16.5t-7 -22.5zM361 555q-9 -10 -19 -11t-17.5 4t-9.5 14.5t6 21.5l107 161q10 15 21.5 18.5t21.5 0.5t17 -11.5t7 -19.5t-9 -23z" />
    <glyph glyph-name="uni0200" unicode="&#x200;" horiz-adv-x="729" 
d="M40 -7q-15 0 -25 7.5t-12.5 19.5t6.5 27l382 636q9 15 20.5 22t27.5 7q17 0 27.5 -8.5t15.5 -24.5l176 -630q6 -19 3 -31.5t-12 -18.5t-22 -6q-18 0 -28.5 10t-15.5 29l-44 165l32 -17h-426l41 16l-104 -177q-7 -13 -17.5 -19.5t-24.5 -6.5zM427 609l-219 -374l-22 14
h366l-23 -15l-100 375h-2zM486 769l-76 128q-8 12 -6 23t10 18t19 9t21 -3.5t16 -19.5l56 -135q5 -10 1.5 -18t-11 -11.5t-16 -1.5t-14.5 11zM359 769l-79 129q-8 12 -6.5 22.5t9.5 17.5t19 8.5t21.5 -3.5t16.5 -19l59 -136q4 -10 1 -17.5t-10.5 -11t-15.5 -1.5t-15 11z" />
    <glyph glyph-name="uni0201" unicode="&#x201;" horiz-adv-x="530" 
d="M199 -9q-42 0 -78.5 19t-58.5 52t-22 75q0 52 28.5 83.5t89.5 46.5t157 15h80l-8 -53h-61q-77 0 -121.5 -8t-63.5 -27t-19 -52q0 -44 29.5 -67t67.5 -23q37 0 68.5 16t53.5 47.5t29 74.5l19 122q10 58 -14.5 88t-88.5 30q-37 0 -70 -7t-66 -26q-13 -7 -24 -6t-18 8.5
t-8 17.5t5 20t21 18q38 21 82.5 30.5t86.5 9.5q68 0 108.5 -25.5t55.5 -71.5t5 -108l-41 -257q-2 -20 -13.5 -30t-30.5 -10q-18 0 -26.5 12t-5.5 34l13 81l8 -10q-13 -40 -39.5 -66.5t-60.5 -39.5t-69 -13zM354 562l-52 159q-4 15 0.5 25.5t14 16t20.5 4.5t20.5 -9.5
t11.5 -23.5l31 -163q2 -11 -3.5 -18t-14 -8.5t-17 2.5t-11.5 15zM227 562l-52 159q-5 15 -0.5 25.5t14.5 16t21 4.5t20.5 -9.5t11.5 -23.5l30 -163q2 -11 -3 -18t-13.5 -8.5t-17 2.5t-11.5 15z" />
    <glyph glyph-name="uni0202" unicode="&#x202;" horiz-adv-x="729" 
d="M40 -7q-15 0 -25 7.5t-12.5 19.5t6.5 27l382 636q9 15 20.5 22t27.5 7q17 0 27.5 -8.5t15.5 -24.5l176 -630q6 -19 3 -31.5t-12 -18.5t-22 -6q-18 0 -28.5 10t-15.5 29l-44 165l32 -17h-426l41 16l-104 -177q-7 -13 -17.5 -19.5t-24.5 -6.5zM427 609l-219 -374l-22 14
h366l-23 -15l-100 375h-2zM300 757q-12 1 -18 11t-2 24q18 67 66 105t111 38q67 0 109 -40t46 -108q2 -13 -4 -21t-18 -9q-8 -1 -14.5 1.5t-10 8t-4.5 13.5q-3 48 -32 74.5t-75 26.5q-45 0 -78 -26.5t-46 -75.5q-2 -8 -6 -13t-10 -7.5t-14 -1.5z" />
    <glyph glyph-name="uni0203" unicode="&#x203;" horiz-adv-x="530" 
d="M199 -9q-42 0 -78.5 19t-58.5 52t-22 75q0 52 28.5 83.5t89.5 46.5t157 15h80l-8 -53h-61q-77 0 -121.5 -8t-63.5 -27t-19 -52q0 -44 29.5 -67t67.5 -23q37 0 68.5 16t53.5 47.5t29 74.5l19 122q10 58 -14.5 88t-88.5 30q-37 0 -70 -7t-66 -26q-13 -7 -24 -6t-18 8.5
t-8 17.5t5 20t21 18q38 21 82.5 30.5t86.5 9.5q68 0 108.5 -25.5t55.5 -71.5t5 -108l-41 -257q-2 -20 -13.5 -30t-30.5 -10q-18 0 -26.5 12t-5.5 34l13 81l8 -10q-13 -40 -39.5 -66.5t-60.5 -39.5t-69 -13zM181 548q-13 1 -18.5 11t-2.5 25q12 51 35 87t55.5 54.5t72.5 18.5
q42 0 73.5 -20t49 -57.5t18.5 -89.5q1 -13 -4.5 -20.5t-18.5 -8.5q-11 -2 -19 4t-9 20q-2 57 -26 87t-66 30q-41 0 -70 -30.5t-41 -88.5q-3 -11 -10.5 -17t-18.5 -5z" />
    <glyph glyph-name="uni0204" unicode="&#x204;" horiz-adv-x="583" 
d="M98 0q-24 0 -34.5 12.5t-7.5 36.5l98 615q3 21 15.5 31t32.5 10h369q18 0 27.5 -7t9.5 -20q0 -21 -11.5 -31.5t-29.5 -10.5h-337l-39 -244h310q18 0 27 -7t9 -20q0 -21 -11.5 -31.5t-28.5 -10.5h-317l-41 -254h331q18 0 27.5 -7t9.5 -21q0 -20 -11.5 -30.5t-29.5 -10.5
h-368zM445 769l-76 128q-8 12 -6 23t10 18t19 9t21 -3.5t16 -19.5l56 -135q5 -10 1.5 -18t-11 -11.5t-16 -1.5t-14.5 11zM318 769l-79 129q-8 12 -6.5 22.5t9.5 17.5t19 8.5t21.5 -3.5t16.5 -19l59 -136q4 -10 1 -17.5t-10.5 -11t-15.5 -1.5t-15 11z" />
    <glyph glyph-name="uni0205" unicode="&#x205;" horiz-adv-x="532" 
d="M270 -9q-69 0 -120 26t-78.5 74.5t-27.5 114.5q0 79 32 144.5t90 105t138 39.5q57 0 95.5 -20t61.5 -54t30 -77.5t2 -89.5q-2 -17 -9 -22.5t-22 -5.5h-355l8 53h328l-18 -13q7 47 -3 85t-39 61t-80 23q-54 0 -90 -24.5t-56.5 -62.5t-27.5 -79l-4 -24q-14 -85 26 -137
t123 -52q36 0 70 9t64 29q14 9 24.5 8.5t17 -7t8 -16t-3 -20t-16.5 -19.5q-34 -24 -80 -36.5t-88 -12.5zM361 562l-52 159q-4 15 0.5 25.5t14 16t20.5 4.5t20.5 -9.5t11.5 -23.5l31 -163q2 -11 -3.5 -18t-14 -8.5t-17 2.5t-11.5 15zM234 562l-52 159q-5 15 -0.5 25.5
t14.5 16t21 4.5t20.5 -9.5t11.5 -23.5l30 -163q2 -11 -3 -18t-13.5 -8.5t-17 2.5t-11.5 15z" />
    <glyph glyph-name="uni0206" unicode="&#x206;" horiz-adv-x="583" 
d="M98 0q-24 0 -34.5 12.5t-7.5 36.5l98 615q3 21 15.5 31t32.5 10h369q18 0 27.5 -7t9.5 -20q0 -21 -11.5 -31.5t-29.5 -10.5h-337l-39 -244h310q18 0 27 -7t9 -20q0 -21 -11.5 -31.5t-28.5 -10.5h-317l-41 -254h331q18 0 27.5 -7t9.5 -21q0 -20 -11.5 -30.5t-29.5 -10.5
h-368zM259 757q-12 1 -18 11t-2 24q18 67 66 105t111 38q67 0 109 -40t46 -108q2 -13 -4 -21t-18 -9q-8 -1 -14.5 1.5t-10 8t-4.5 13.5q-3 48 -32 74.5t-75 26.5q-45 0 -78 -26.5t-46 -75.5q-2 -8 -6 -13t-10 -7.5t-14 -1.5z" />
    <glyph glyph-name="uni0207" unicode="&#x207;" horiz-adv-x="532" 
d="M270 -9q-69 0 -120 26t-78.5 74.5t-27.5 114.5q0 79 32 144.5t90 105t138 39.5q57 0 95.5 -20t61.5 -54t30 -77.5t2 -89.5q-2 -17 -9 -22.5t-22 -5.5h-355l8 53h328l-18 -13q7 47 -3 85t-39 61t-80 23q-54 0 -90 -24.5t-56.5 -62.5t-27.5 -79l-4 -24q-14 -85 26 -137
t123 -52q36 0 70 9t64 29q14 9 24.5 8.5t17 -7t8 -16t-3 -20t-16.5 -19.5q-34 -24 -80 -36.5t-88 -12.5zM188 548q-13 1 -18.5 11t-2.5 25q12 51 35 87t55.5 54.5t72.5 18.5q42 0 73.5 -20t49 -57.5t18.5 -89.5q1 -13 -4.5 -20.5t-18.5 -8.5q-11 -2 -19 4t-9 20
q-2 57 -26 87t-66 30q-41 0 -70 -30.5t-41 -88.5q-3 -11 -10.5 -17t-18.5 -5z" />
    <glyph glyph-name="uni0208" unicode="&#x208;" horiz-adv-x="257" 
d="M91 -7q-21 0 -30.5 13t-5.5 37l100 627q3 21 14.5 31.5t31.5 10.5q21 0 30 -12.5t5 -37.5l-100 -627q-3 -20 -13.5 -31t-31.5 -11zM249 769l-76 128q-8 12 -6 23t10 18t19 9t21 -3.5t16 -19.5l56 -135q5 -10 1.5 -18t-11 -11.5t-16 -1.5t-14.5 11zM122 769l-79 129
q-8 12 -6.5 22.5t9.5 17.5t19 8.5t21.5 -3.5t16.5 -19l59 -136q4 -10 1 -17.5t-10.5 -11t-15.5 -1.5t-15 11z" />
    <glyph glyph-name="uni0209" unicode="&#x209;" horiz-adv-x="232" 
d="M76 -7q-19 0 -27.5 12.5t-5.5 35.5l66 412q3 20 14.5 30t31.5 10q19 0 28 -12t5 -35l-65 -413q-3 -20 -14.5 -30t-32.5 -10zM204 562l-52 159q-4 15 0.5 25.5t14 16t20.5 4.5t20.5 -9.5t11.5 -23.5l31 -163q2 -11 -3.5 -18t-14 -8.5t-17 2.5t-11.5 15zM77 562l-52 159
q-5 15 -0.5 25.5t14.5 16t21 4.5t20.5 -9.5t11.5 -23.5l30 -163q2 -11 -3 -18t-13.5 -8.5t-17 2.5t-11.5 15z" />
    <glyph glyph-name="uni020A" unicode="&#x20a;" horiz-adv-x="257" 
d="M91 -7q-21 0 -30.5 13t-5.5 37l100 627q3 21 14.5 31.5t31.5 10.5q21 0 30 -12.5t5 -37.5l-100 -627q-3 -20 -13.5 -31t-31.5 -11zM63 757q-12 1 -18 11t-2 24q18 67 66 105t111 38q67 0 109 -40t46 -108q2 -13 -4 -21t-18 -9q-8 -1 -14.5 1.5t-10 8t-4.5 13.5
q-3 48 -32 74.5t-75 26.5q-45 0 -78 -26.5t-46 -75.5q-2 -8 -6 -13t-10 -7.5t-14 -1.5z" />
    <glyph glyph-name="uni020B" unicode="&#x20b;" horiz-adv-x="232" 
d="M76 -7q-19 0 -27.5 12.5t-5.5 35.5l66 412q3 20 14.5 30t31.5 10q19 0 28 -12t5 -35l-65 -413q-3 -20 -14.5 -30t-32.5 -10zM31 548q-13 1 -18.5 11t-2.5 25q12 51 35 87t55.5 54.5t72.5 18.5q42 0 73.5 -20t49 -57.5t18.5 -89.5q1 -13 -4.5 -20.5t-18.5 -8.5
q-11 -2 -19 4t-9 20q-2 57 -26 87t-66 30q-41 0 -70 -30.5t-41 -88.5q-3 -11 -10.5 -17t-18.5 -5z" />
    <glyph glyph-name="uni020C" unicode="&#x20c;" horiz-adv-x="767" 
d="M368 -9q-88 0 -153.5 35t-102 103t-36.5 165q0 89 24 165.5t69.5 133.5t112 89t152.5 32q89 0 154.5 -35t101.5 -102.5t36 -164.5q0 -90 -24 -166.5t-69.5 -133.5t-112 -89t-152.5 -32zM370 64q87 0 147 45.5t91 124t31 177.5q0 116 -55.5 173t-152.5 57
q-86 0 -146 -45.5t-91 -123.5t-31 -177q0 -117 55 -174t152 -57zM493 769l-76 128q-8 12 -6 23t10 18t19 9t21 -3.5t16 -19.5l56 -135q5 -10 1.5 -18t-11 -11.5t-16 -1.5t-14.5 11zM366 769l-79 129q-8 12 -6.5 22.5t9.5 17.5t19 8.5t21.5 -3.5t16.5 -19l59 -136
q4 -10 1 -17.5t-10.5 -11t-15.5 -1.5t-15 11z" />
    <glyph glyph-name="uni020D" unicode="&#x20d;" horiz-adv-x="556" 
d="M255 -9q-65 0 -112.5 26t-73 74t-25.5 114q0 62 18.5 114.5t52.5 92.5t80.5 61.5t105.5 21.5q65 0 112.5 -26t72.5 -73.5t25 -114.5q0 -62 -18 -114.5t-52 -92t-81 -61.5t-105 -22zM258 56q55 0 93.5 31t58 83t19.5 114q0 72 -34.5 109t-96.5 37q-55 0 -93.5 -31
t-58.5 -82t-20 -115q0 -71 35 -108.5t97 -37.5zM367 562l-52 159q-4 15 0.5 25.5t14 16t20.5 4.5t20.5 -9.5t11.5 -23.5l31 -163q2 -11 -3.5 -18t-14 -8.5t-17 2.5t-11.5 15zM240 562l-52 159q-5 15 -0.5 25.5t14.5 16t21 4.5t20.5 -9.5t11.5 -23.5l30 -163q2 -11 -3 -18
t-13.5 -8.5t-17 2.5t-11.5 15z" />
    <glyph glyph-name="uni020E" unicode="&#x20e;" horiz-adv-x="767" 
d="M368 -9q-88 0 -153.5 35t-102 103t-36.5 165q0 89 24 165.5t69.5 133.5t112 89t152.5 32q89 0 154.5 -35t101.5 -102.5t36 -164.5q0 -90 -24 -166.5t-69.5 -133.5t-112 -89t-152.5 -32zM370 64q87 0 147 45.5t91 124t31 177.5q0 116 -55.5 173t-152.5 57
q-86 0 -146 -45.5t-91 -123.5t-31 -177q0 -117 55 -174t152 -57zM307 757q-12 1 -18 11t-2 24q18 67 66 105t111 38q67 0 109 -40t46 -108q2 -13 -4 -21t-18 -9q-8 -1 -14.5 1.5t-10 8t-4.5 13.5q-3 48 -32 74.5t-75 26.5q-45 0 -78 -26.5t-46 -75.5q-2 -8 -6 -13t-10 -7.5
t-14 -1.5z" />
    <glyph glyph-name="uni020F" unicode="&#x20f;" horiz-adv-x="556" 
d="M255 -9q-65 0 -112.5 26t-73 74t-25.5 114q0 62 18.5 114.5t52.5 92.5t80.5 61.5t105.5 21.5q65 0 112.5 -26t72.5 -73.5t25 -114.5q0 -62 -18 -114.5t-52 -92t-81 -61.5t-105 -22zM258 56q55 0 93.5 31t58 83t19.5 114q0 72 -34.5 109t-96.5 37q-55 0 -93.5 -31
t-58.5 -82t-20 -115q0 -71 35 -108.5t97 -37.5zM194 548q-13 1 -18.5 11t-2.5 25q12 51 35 87t55.5 54.5t72.5 18.5q42 0 73.5 -20t49 -57.5t18.5 -89.5q1 -13 -4.5 -20.5t-18.5 -8.5q-11 -2 -19 4t-9 20q-2 57 -26 87t-66 30q-41 0 -70 -30.5t-41 -88.5q-3 -11 -10.5 -17
t-18.5 -5z" />
    <glyph glyph-name="uni0210" unicode="&#x210;" horiz-adv-x="669" 
d="M90 -7q-20 0 -29 13t-5 36l98 622q4 21 16 31t32 10h210q114 0 171.5 -50.5t57.5 -139.5q0 -71 -33.5 -119.5t-91.5 -72t-132 -22.5v13h16q44 0 72 -25t45 -71l65 -170q7 -17 5.5 -29.5t-11 -19t-26.5 -6.5q-16 0 -26 8.5t-17 27.5l-73 190q-16 43 -42 61t-76 18h-138
l-41 -264q-3 -20 -14.5 -30.5t-32.5 -10.5zM189 363h200q80 0 125 38t45 109q0 63 -37 95t-119 32h-171zM448 769l-76 128q-8 12 -6 23t10 18t19 9t21 -3.5t16 -19.5l56 -135q5 -10 1.5 -18t-11 -11.5t-16 -1.5t-14.5 11zM321 769l-79 129q-8 12 -6.5 22.5t9.5 17.5t19 8.5
t21.5 -3.5t16.5 -19l59 -136q4 -10 1 -17.5t-10.5 -11t-15.5 -1.5t-15 11z" />
    <glyph glyph-name="uni0211" unicode="&#x211;" horiz-adv-x="358" 
d="M77 -7q-19 0 -27.5 12t-5.5 35l65 414q4 20 15.5 29.5t30.5 9.5q18 0 27 -12t6 -34l-12 -77h-11q21 60 70.5 92t111.5 34q22 1 30 -5.5t8 -22.5q0 -21 -10 -30.5t-32 -12.5l-20 -1q-80 -7 -115 -48t-46 -108l-38 -236q-2 -19 -14 -29t-33 -10zM300 565l-52 159
q-4 15 0.5 25.5t14 16t20.5 4.5t20.5 -9.5t11.5 -23.5l31 -163q2 -11 -3.5 -18t-14 -8.5t-17 2.5t-11.5 15zM173 565l-52 159q-5 15 -0.5 25.5t14.5 16t21 4.5t20.5 -9.5t11.5 -23.5l30 -163q2 -11 -3 -18t-13.5 -8.5t-17 2.5t-11.5 15z" />
    <glyph glyph-name="uni0212" unicode="&#x212;" horiz-adv-x="669" 
d="M90 -7q-20 0 -29 13t-5 36l98 622q4 21 16 31t32 10h210q114 0 171.5 -50.5t57.5 -139.5q0 -71 -33.5 -119.5t-91.5 -72t-132 -22.5v13h16q44 0 72 -25t45 -71l65 -170q7 -17 5.5 -29.5t-11 -19t-26.5 -6.5q-16 0 -26 8.5t-17 27.5l-73 190q-16 43 -42 61t-76 18h-138
l-41 -264q-3 -20 -14.5 -30.5t-32.5 -10.5zM189 363h200q80 0 125 38t45 109q0 63 -37 95t-119 32h-171zM262 757q-12 1 -18 11t-2 24q18 67 66 105t111 38q67 0 109 -40t46 -108q2 -13 -4 -21t-18 -9q-8 -1 -14.5 1.5t-10 8t-4.5 13.5q-3 48 -32 74.5t-75 26.5
q-45 0 -78 -26.5t-46 -75.5q-2 -8 -6 -13t-10 -7.5t-14 -1.5z" />
    <glyph glyph-name="uni0213" unicode="&#x213;" horiz-adv-x="358" 
d="M77 -7q-19 0 -27.5 12t-5.5 35l65 414q4 20 15.5 29.5t30.5 9.5q18 0 27 -12t6 -34l-12 -77h-11q21 60 70.5 92t111.5 34q22 1 30 -5.5t8 -22.5q0 -21 -10 -30.5t-32 -12.5l-20 -1q-80 -7 -115 -48t-46 -108l-38 -236q-2 -19 -14 -29t-33 -10zM127 551q-13 1 -18.5 11
t-2.5 25q12 51 35 87t55.5 54.5t72.5 18.5q42 0 73.5 -20t49 -57.5t18.5 -89.5q1 -13 -4.5 -20.5t-18.5 -8.5q-11 -2 -19 4t-9 20q-2 57 -26 87t-66 30q-41 0 -70 -30.5t-41 -88.5q-3 -11 -10.5 -17t-18.5 -5z" />
    <glyph glyph-name="uni0214" unicode="&#x214;" horiz-adv-x="728" 
d="M335 -9q-66 0 -117.5 19t-84 57.5t-44 96t0.5 133.5l60 376q4 20 15 29.5t31 9.5t29.5 -12t5.5 -35l-59 -375q-18 -113 25 -169.5t142 -56.5t155 50t74 159l64 400q3 20 14.5 29.5t30.5 9.5q20 0 29.5 -12t5.5 -35l-62 -396q-15 -91 -53 -153t-103 -93.5t-159 -31.5z
M484 769l-76 128q-8 12 -6 23t10 18t19 9t21 -3.5t16 -19.5l56 -135q5 -10 1.5 -18t-11 -11.5t-16 -1.5t-14.5 11zM357 769l-79 129q-8 12 -6.5 22.5t9.5 17.5t19 8.5t21.5 -3.5t16.5 -19l59 -136q4 -10 1 -17.5t-10.5 -11t-15.5 -1.5t-15 11z" />
    <glyph glyph-name="uni0215" unicode="&#x215;" horiz-adv-x="561" 
d="M211 -9q-52 0 -88.5 22t-52 66.5t-4.5 113.5l41 262q4 20 15 29t30 9q20 0 29.5 -11.5t5.5 -33.5l-40 -255q-11 -68 11 -101.5t77 -33.5q70 0 112.5 45t53.5 120l36 232q4 20 15 29t30 9q21 0 30 -11t6 -33l-66 -417q-6 -39 -44 -39q-19 0 -28 11t-6 33l13 87l9 -12
q-25 -58 -73 -89.5t-112 -31.5zM364 563l-52 159q-4 15 0.5 25.5t14 16t20.5 4.5t20.5 -9.5t11.5 -23.5l31 -163q2 -11 -3.5 -18t-14 -8.5t-17 2.5t-11.5 15zM237 563l-52 159q-5 15 -0.5 25.5t14.5 16t21 4.5t20.5 -9.5t11.5 -23.5l30 -163q2 -11 -3 -18t-13.5 -8.5
t-17 2.5t-11.5 15z" />
    <glyph glyph-name="uni0216" unicode="&#x216;" horiz-adv-x="728" 
d="M335 -9q-66 0 -117.5 19t-84 57.5t-44 96t0.5 133.5l60 376q4 20 15 29.5t31 9.5t29.5 -12t5.5 -35l-59 -375q-18 -113 25 -169.5t142 -56.5t155 50t74 159l64 400q3 20 14.5 29.5t30.5 9.5q20 0 29.5 -12t5.5 -35l-62 -396q-15 -91 -53 -153t-103 -93.5t-159 -31.5z
M298 757q-12 1 -18 11t-2 24q18 67 66 105t111 38q67 0 109 -40t46 -108q2 -13 -4 -21t-18 -9q-8 -1 -14.5 1.5t-10 8t-4.5 13.5q-3 48 -32 74.5t-75 26.5q-45 0 -78 -26.5t-46 -75.5q-2 -8 -6 -13t-10 -7.5t-14 -1.5z" />
    <glyph glyph-name="uni0217" unicode="&#x217;" horiz-adv-x="561" 
d="M211 -9q-52 0 -88.5 22t-52 66.5t-4.5 113.5l41 262q4 20 15 29t30 9q20 0 29.5 -11.5t5.5 -33.5l-40 -255q-11 -68 11 -101.5t77 -33.5q70 0 112.5 45t53.5 120l36 232q4 20 15 29t30 9q21 0 30 -11t6 -33l-66 -417q-6 -39 -44 -39q-19 0 -28 11t-6 33l13 87l9 -12
q-25 -58 -73 -89.5t-112 -31.5zM191 549q-13 1 -18.5 11t-2.5 25q12 51 35 87t55.5 54.5t72.5 18.5q42 0 73.5 -20t49 -57.5t18.5 -89.5q1 -13 -4.5 -20.5t-18.5 -8.5q-11 -2 -19 4t-9 20q-2 57 -26 87t-66 30q-41 0 -70 -30.5t-41 -88.5q-3 -11 -10.5 -17t-18.5 -5z" />
    <glyph glyph-name="uni0218" unicode="&#x218;" horiz-adv-x="615" 
d="M297 -9q-45 0 -89 7t-84 22t-73 40q-13 8 -16.5 19t-1 22.5t10 19.5t19.5 9t26 -8q48 -33 101.5 -45.5t113.5 -12.5q81 0 130 33.5t49 91.5q0 40 -29 68.5t-102 44.5l-103 25q-70 17 -112 58t-42 118q0 48 20.5 87t56.5 66.5t84 42.5t102 15q58 0 119 -17t107 -56
q11 -8 14.5 -19.5t1 -22.5t-10.5 -18t-20 -7.5t-27 9.5q-39 31 -87.5 44.5t-98.5 13.5t-91 -16.5t-64 -46t-23 -70.5q0 -50 25.5 -74.5t75.5 -37.5l104 -24q94 -22 138.5 -66.5t44.5 -107.5q0 -50 -21 -89t-58 -65t-85.5 -39.5t-104.5 -13.5zM270 -251q-10 -10 -20 -10.5
t-16.5 5.5t-6 15.5t9.5 20.5q16 15 23 30.5t10 33.5l3 -15q-24 0 -38 12t-14 32q0 24 15 38t39 14q23 0 35.5 -13t12.5 -38q0 -22 -6.5 -45.5t-18.5 -44t-28 -35.5z" />
    <glyph glyph-name="uni0219" unicode="&#x219;" horiz-adv-x="481" 
d="M223 -9q-48 0 -91.5 11.5t-75.5 30.5q-12 7 -16.5 17.5t-3 20.5t8 17t17 8t23.5 -6q32 -19 67 -28t72 -9q54 0 84.5 21.5t30.5 60.5q0 25 -16.5 41.5t-48.5 23.5l-94 23q-50 12 -78.5 43.5t-28.5 77.5q0 43 24 77.5t69 54t106 19.5q40 0 81 -11.5t68 -32.5
q12 -9 16.5 -19.5t2.5 -20t-9 -15.5t-17.5 -6.5t-23.5 7.5q-25 19 -56 27.5t-65 8.5q-56 0 -88 -23t-32 -62q0 -24 15 -41.5t45 -24.5l95 -23q53 -13 82.5 -42.5t29.5 -76.5q0 -70 -53 -109.5t-140 -39.5zM189 -251q-10 -10 -20 -10.5t-16.5 5.5t-6 15.5t9.5 20.5
q16 15 23 30.5t10 33.5l3 -15q-24 0 -38 12t-14 32q0 24 15 38t39 14q23 0 35.5 -13t12.5 -38q0 -22 -6.5 -45.5t-18.5 -44t-28 -35.5z" />
    <glyph glyph-name="uni021A" unicode="&#x21a;" horiz-adv-x="602" 
d="M263 -7q-20 0 -29 13t-5 36l93 592h-219q-18 0 -28.5 8t-10.5 22q0 20 12 30.5t31 10.5h528q19 0 29 -7.5t10 -21.5q0 -20 -11.5 -31t-31.5 -11h-227l-95 -600q-2 -20 -13.5 -30.5t-32.5 -10.5zM240 -251q-10 -10 -20 -10.5t-16.5 5.5t-6 15.5t9.5 20.5q16 15 23 30.5
t10 33.5l3 -15q-24 0 -38 12t-14 32q0 24 15 38t39 14q23 0 35.5 -13t12.5 -38q0 -22 -6.5 -45.5t-18.5 -44t-28 -35.5z" />
    <glyph glyph-name="uni021B" unicode="&#x21b;" horiz-adv-x="350" 
d="M238 -9q-57 0 -93.5 22t-51 61t-6.5 93l41 256h-62q-17 0 -26.5 7t-9.5 20q0 18 12 27t31 9h65l18 118q4 19 15 28.5t30 9.5q20 0 29 -12t6 -34l-17 -110h120q18 0 27 -6t9 -20q0 -17 -10.5 -27t-29.5 -10h-127l-39 -248q-9 -61 13 -88t69 -27q21 0 33 4t20 4
q10 0 15 -5.5t5 -19.5q0 -20 -6.5 -29t-19.5 -14q-11 -4 -28.5 -6.5t-31.5 -2.5zM162 -251q-10 -10 -20 -10.5t-16.5 5.5t-6 15.5t9.5 20.5q16 15 23 30.5t10 33.5l3 -15q-24 0 -38 12t-14 32q0 24 15 38t39 14q23 0 35.5 -13t12.5 -38q0 -22 -6.5 -45.5t-18.5 -44
t-28 -35.5z" />
    <glyph glyph-name="uni021F" unicode="&#x21f;" horiz-adv-x="568" 
d="M77 -7q-19 0 -28 13t-5 36l99 629q4 21 15.5 31t31.5 10q19 0 28 -12t5 -35l-46 -289h-11q25 57 73.5 88t115.5 31q54 0 90.5 -21.5t52 -66t4.5 -113.5l-40 -260q-3 -20 -15 -30.5t-32 -10.5q-19 0 -28 12.5t-6 35.5l40 253q12 68 -11 101.5t-79 33.5q-73 0 -116 -45
t-55 -120l-36 -230q-6 -41 -47 -41zM366 756q-18 0 -29.5 8.5t-20.5 24.5l-74 119q-6 12 -3.5 21.5t11.5 13.5t20 1.5t19 -14.5l81 -112l111 117q9 9 19.5 10t19 -4t10.5 -13.5t-7 -18.5l-99 -122q-13 -16 -26.5 -23.5t-31.5 -7.5z" />
    <glyph glyph-name="uni0226" unicode="&#x226;" horiz-adv-x="729" 
d="M40 -7q-15 0 -25 7.5t-12.5 19.5t6.5 27l382 636q9 15 20.5 22t27.5 7q17 0 27.5 -8.5t15.5 -24.5l176 -630q6 -19 3 -31.5t-12 -18.5t-22 -6q-18 0 -28.5 10t-15.5 29l-44 165l32 -17h-426l41 16l-104 -177q-7 -13 -17.5 -19.5t-24.5 -6.5zM427 609l-219 -374l-22 14
h366l-23 -15l-100 375h-2zM455 803q-20 0 -31.5 10t-11.5 28q0 28 15.5 42.5t42.5 14.5q20 0 31.5 -9.5t11.5 -28.5q0 -26 -15 -41.5t-43 -15.5z" />
    <glyph glyph-name="uni0227" unicode="&#x227;" horiz-adv-x="530" 
d="M199 -9q-42 0 -78.5 19t-58.5 52t-22 75q0 52 28.5 83.5t89.5 46.5t157 15h80l-8 -53h-61q-77 0 -121.5 -8t-63.5 -27t-19 -52q0 -44 29.5 -67t67.5 -23q37 0 68.5 16t53.5 47.5t29 74.5l19 122q10 58 -14.5 88t-88.5 30q-37 0 -70 -7t-66 -26q-13 -7 -24 -6t-18 8.5
t-8 17.5t5 20t21 18q38 21 82.5 30.5t86.5 9.5q68 0 108.5 -25.5t55.5 -71.5t5 -108l-41 -257q-2 -20 -13.5 -30t-30.5 -10q-18 0 -26.5 12t-5.5 34l13 81l8 -10q-13 -40 -39.5 -66.5t-60.5 -39.5t-69 -13zM324 605q-20 0 -31.5 10t-11.5 28q0 28 15.5 43t42.5 15
q20 0 31.5 -10t11.5 -28q0 -27 -15.5 -42.5t-42.5 -15.5z" />
    <glyph glyph-name="uni0228" unicode="&#x228;" horiz-adv-x="583" 
d="M98 0q-24 0 -34.5 12.5t-7.5 36.5l98 615q3 21 15.5 31t32.5 10h369q18 0 27.5 -7t9.5 -20q0 -21 -11.5 -31.5t-29.5 -10.5h-337l-39 -244h310q18 0 27 -7t9 -20q0 -21 -11.5 -31.5t-28.5 -10.5h-317l-41 -254h331q18 0 27.5 -7t9.5 -21q0 -20 -11.5 -30.5t-29.5 -10.5
h-368zM273 -192q-18 0 -35.5 2.5t-33.5 7.5q-12 4 -16 13t-1 18.5t11 14t21 0.5q11 -5 25 -7t30 -2q28 0 45 10t17 29q0 12 -8.5 19t-26.5 7q-7 0 -16.5 -1t-18.5 -4q-8 -2 -13.5 -2t-9.5 4q-3 4 -3.5 8.5t2.5 12.5l26 82h51l-25 -75l-24 6q13 3 24.5 5t21.5 2q34 0 55 -16
t21 -47q0 -39 -34 -63t-85 -24z" />
    <glyph glyph-name="uni022A" unicode="&#x22a;" horiz-adv-x="767" 
d="M368 -9q-88 0 -153.5 35t-102 103t-36.5 165q0 89 24 165.5t69.5 133.5t112 89t152.5 32q89 0 154.5 -35t101.5 -102.5t36 -164.5q0 -90 -24 -166.5t-69.5 -133.5t-112 -89t-152.5 -32zM370 64q87 0 147 45.5t91 124t31 177.5q0 116 -55.5 173t-152.5 57
q-86 0 -146 -45.5t-91 -123.5t-31 -177q0 -117 55 -174t152 -57zM364 926q-15 0 -22.5 6t-7.5 17q0 15 9 23.5t24 8.5h241q16 0 23 -6.5t7 -17.5q0 -14 -8 -22.5t-25 -8.5h-241zM375 794q-21 0 -31.5 9t-10.5 25q0 23 14.5 34.5t38.5 11.5q20 0 31 -8.5t11 -25.5
q0 -22 -14 -34t-39 -12zM549 794q-21 0 -31.5 9t-10.5 25q0 23 14.5 34.5t39.5 11.5q19 0 29.5 -8.5t10.5 -25.5q0 -22 -13.5 -34t-38.5 -12z" />
    <glyph glyph-name="uni022B" unicode="&#x22b;" horiz-adv-x="556" 
d="M255 -9q-65 0 -112.5 26t-73 74t-25.5 114q0 62 18.5 114.5t52.5 92.5t80.5 61.5t105.5 21.5q65 0 112.5 -26t72.5 -73.5t25 -114.5q0 -62 -18 -114.5t-52 -92t-81 -61.5t-105 -22zM258 56q55 0 93.5 31t58 83t19.5 114q0 72 -34.5 109t-96.5 37q-55 0 -93.5 -31
t-58.5 -82t-20 -115q0 -71 35 -108.5t97 -37.5zM235 707q-14 0 -22 6.5t-8 16.5q0 15 9 23.5t25 8.5h240q17 0 24 -6t7 -17q0 -14 -8 -23t-26 -9h-241zM246 575q-21 0 -31 9t-10 25q0 24 14.5 35.5t38.5 11.5q19 0 30 -9t11 -26q0 -21 -13.5 -33.5t-39.5 -12.5zM420 575
q-20 0 -30.5 9t-10.5 25q0 24 14.5 35.5t38.5 11.5q20 0 30.5 -9t10.5 -26q0 -21 -14 -33.5t-39 -12.5z" />
    <glyph glyph-name="uni022C" unicode="&#x22c;" horiz-adv-x="767" 
d="M368 -9q-88 0 -153.5 35t-102 103t-36.5 165q0 89 24 165.5t69.5 133.5t112 89t152.5 32q89 0 154.5 -35t101.5 -102.5t36 -164.5q0 -90 -24 -166.5t-69.5 -133.5t-112 -89t-152.5 -32zM370 64q87 0 147 45.5t91 124t31 177.5q0 116 -55.5 173t-152.5 57
q-86 0 -146 -45.5t-91 -123.5t-31 -177q0 -117 55 -174t152 -57zM363 926q-15 0 -22.5 6t-7.5 17q0 15 9 23.5t24 8.5h241q16 0 23 -6.5t7 -17.5q0 -14 -8 -22.5t-25 -8.5h-241zM322 764q-10 1 -15.5 9t-0.5 21q12 38 36 57t58 19q27 0 49 -13t41.5 -26t39.5 -13
q18 0 30 8.5t19 28.5q4 10 11 15t18 4q10 -1 15 -9t1 -21q-12 -38 -36 -57t-58 -19q-27 0 -49.5 13t-41.5 26t-39 13q-18 0 -30.5 -8.5t-19.5 -29.5q-4 -10 -10.5 -14.5t-17.5 -3.5z" />
    <glyph glyph-name="uni022D" unicode="&#x22d;" horiz-adv-x="556" 
d="M255 -9q-65 0 -112.5 26t-73 74t-25.5 114q0 62 18.5 114.5t52.5 92.5t80.5 61.5t105.5 21.5q65 0 112.5 -26t72.5 -73.5t25 -114.5q0 -62 -18 -114.5t-52 -92t-81 -61.5t-105 -22zM258 56q55 0 93.5 31t58 83t19.5 114q0 72 -34.5 109t-96.5 37q-55 0 -93.5 -31
t-58.5 -82t-20 -115q0 -71 35 -108.5t97 -37.5zM235 707q-15 0 -22.5 6.5t-7.5 16.5q0 15 9 23.5t24 8.5h241q15 0 22.5 -6t7.5 -17q0 -14 -8.5 -23t-24.5 -9h-241zM194 545q-10 1 -15.5 9t-1.5 21q12 38 35.5 57t57.5 19q27 0 49.5 -13t42.5 -26t39 -13t31 8.5t19 29.5
q4 10 11 14.5t17 3.5q11 -1 16 -8.5t0 -21.5q-11 -38 -34.5 -57t-57.5 -19q-27 0 -49.5 13t-42.5 26t-40 13q-18 0 -30 -8.5t-20 -28.5q-3 -10 -9.5 -15t-17.5 -4z" />
    <glyph glyph-name="uni0230" unicode="&#x230;" horiz-adv-x="767" 
d="M368 -9q-88 0 -153.5 35t-102 103t-36.5 165q0 89 24 165.5t69.5 133.5t112 89t152.5 32q89 0 154.5 -35t101.5 -102.5t36 -164.5q0 -90 -24 -166.5t-69.5 -133.5t-112 -89t-152.5 -32zM370 64q87 0 147 45.5t91 124t31 177.5q0 116 -55.5 173t-152.5 57
q-86 0 -146 -45.5t-91 -123.5t-31 -177q0 -117 55 -174t152 -57zM363 926q-15 0 -22.5 6t-7.5 17q0 15 9 23.5t24 8.5h241q16 0 23 -6.5t7 -17.5q0 -14 -8 -22.5t-25 -8.5h-241zM461 794q-20 0 -30.5 9t-10.5 25q0 23 14.5 34.5t38.5 11.5q20 0 30.5 -8.5t10.5 -25.5
q0 -22 -14 -34t-39 -12z" />
    <glyph glyph-name="uni0231" unicode="&#x231;" horiz-adv-x="556" 
d="M255 -9q-65 0 -112.5 26t-73 74t-25.5 114q0 62 18.5 114.5t52.5 92.5t80.5 61.5t105.5 21.5q65 0 112.5 -26t72.5 -73.5t25 -114.5q0 -62 -18 -114.5t-52 -92t-81 -61.5t-105 -22zM258 56q55 0 93.5 31t58 83t19.5 114q0 72 -34.5 109t-96.5 37q-55 0 -93.5 -31
t-58.5 -82t-20 -115q0 -71 35 -108.5t97 -37.5zM233 707q-15 0 -22.5 6.5t-7.5 16.5q0 15 9 23.5t24 8.5h241q16 0 23 -6t7 -17q0 -14 -8 -23t-25 -9h-241zM331 575q-20 0 -30.5 9t-10.5 25q0 24 14.5 35.5t38.5 11.5q20 0 30.5 -9t10.5 -26q0 -21 -14 -33.5t-39 -12.5z" />
    <glyph glyph-name="uni0232" unicode="&#x232;" horiz-adv-x="596" 
d="M258 -7q-19 0 -27.5 13t-6.5 35l52 324l8 -57l-194 344q-8 16 -7 29.5t11 22t26 8.5t25 -7t18 -24l164 -290h-22l262 296q12 14 22 19.5t24 5.5q15 0 24.5 -9t10 -23t-12.5 -28l-305 -344l28 57l-53 -331q-6 -41 -47 -41zM245 814q-30 0 -30 24q0 15 9 23t24 8h277
q30 0 30 -23q0 -14 -8.5 -23t-23.5 -9h-278z" />
    <glyph glyph-name="uni0233" unicode="&#x233;" horiz-adv-x="514" 
d="M119 -187q-16 0 -24.5 8t-8.5 20.5t8 26.5l93 157l-5 -35l-120 446q-5 17 -2 30t13.5 20t25.5 7q18 0 26.5 -8t13.5 -29l99 -397h-28l233 405q9 15 19 22t25 7q16 0 25.5 -7.5t10.5 -20t-8 -27.5l-352 -595q-8 -15 -18 -22.5t-26 -7.5zM186 625q-30 0 -30 23q0 15 9 23.5
t24 8.5h247q30 0 30 -23q0 -14 -8.5 -23t-24.5 -9h-247z" />
    <glyph glyph-name="uni0237" unicode="&#x237;" horiz-adv-x="236" 
d="M-83 -191q-14 0 -22.5 6t-11 15.5t0 19t9.5 16t20 7.5q52 1 84 27.5t41 84.5l74 468q4 20 15 30t31 10q19 0 28 -12t6 -35l-73 -456q-9 -62 -34 -101t-66.5 -58.5t-101.5 -21.5z" />
    <glyph glyph-name="uni0253" unicode="&#x253;" horiz-adv-x="583" 
d="M295 -9q-58 0 -104 29.5t-63 89.5l8 12l-14 -89q-3 -20 -13.5 -30t-30.5 -10q-19 0 -28.5 12.5t-6.5 35.5l81 506q14 87 59.5 127t128.5 40q33 0 46 -8.5t13 -25.5q0 -14 -8 -24t-20 -10q-4 0 -13 1t-17 1q-44 0 -72 -25.5t-36 -76.5l-26 -163h-11q26 52 73.5 82
t109.5 30q57 0 99.5 -25t65.5 -72t23 -111q0 -80 -28.5 -147.5t-83 -108t-132.5 -40.5zM285 56q56 0 94 31t58 83t20 114q0 72 -35 109t-96 37q-55 0 -93.5 -31t-58.5 -82t-20 -115q0 -71 35 -108.5t96 -37.5z" />
    <glyph glyph-name="uni0257" unicode="&#x257;" horiz-adv-x="583" 
d="M231 -9q-56 0 -98 25.5t-65.5 72.5t-23.5 110q0 81 28.5 148.5t83 107.5t132.5 40q58 0 104 -29t63 -90l-7 1l27 170q13 87 58.5 127t127.5 40q33 0 46.5 -8.5t13.5 -25.5q0 -14 -8 -24t-20 -10q-4 0 -13 1t-17 1q-45 0 -72 -25.5t-36 -77.5l-81 -511q-3 -20 -14.5 -30.5
t-31.5 -10.5q-19 0 -27.5 13t-4.5 36l12 75l7 -14q-26 -51 -73.5 -81.5t-110.5 -30.5zM257 56q56 0 94 31t58 83t20 114q0 72 -35 109t-96 37q-55 0 -93.5 -31t-58.5 -82t-20 -115q0 -71 35 -108.5t96 -37.5z" />
    <glyph glyph-name="uni0259" unicode="&#x259;" horiz-adv-x="532" 
d="M229 -9q-78 0 -122.5 35.5t-60 91.5t-6.5 118q3 14 10 19.5t20 5.5h356l-9 -54h-328l21 14q-6 -46 3.5 -84.5t38.5 -62t78 -23.5q55 0 91 24.5t56 63t26 78.5l4 24q14 86 -24.5 137.5t-123.5 51.5q-36 0 -71.5 -9.5t-63.5 -30.5q-14 -9 -24 -8.5t-17 6.5t-9 16t2 20.5
t14 18.5q33 26 81.5 39t92.5 13q70 0 120 -26t77 -74t27 -114q0 -79 -31.5 -145t-89.5 -105.5t-138 -39.5z" />
    <glyph glyph-name="uni0292" unicode="&#x292;" horiz-adv-x="495" 
d="M185 -189q-53 0 -108 14t-100 45q-12 8 -15.5 18t-1.5 20t9.5 17t18.5 7.5t23 -8.5q39 -26 81 -37t87 -11q82 0 124 43t42 117q0 50 -34 82.5t-100 32.5h-79q-13 0 -20 7t-5 17.5t12 19.5l262 247l-2 -21h-287q-19 0 -28 9t-7 24q6 32 39 32h339q13 0 22 -5.5t11.5 -15
t-2.5 -20.5t-17 -21l-252 -237l-17 24h61q60 0 101 -23.5t62.5 -62.5t21.5 -87q0 -66 -28.5 -117t-82.5 -80.5t-130 -29.5z" />
    <glyph glyph-name="uni02B9" unicode="&#x2b9;" horiz-adv-x="221" 
d="M142 421q-13 0 -20.5 8t-6.5 27l18 215q2 17 14 29t33 12q22 0 34 -14t6 -38l-47 -209q-3 -15 -11.5 -22.5t-19.5 -7.5z" />
    <glyph glyph-name="uni02BA" unicode="&#x2ba;" horiz-adv-x="392" 
d="M142 421q-13 0 -20.5 7.5t-6.5 26.5l18 216q2 17 14 29t33 12q15 0 25.5 -6t15 -17.5t0.5 -27.5l-48 -210q-3 -15 -11.5 -22.5t-19.5 -7.5zM313 421q-13 0 -20.5 7.5t-6.5 26.5l18 216q2 17 14 29t33 12q15 0 25.5 -6t15 -17.5t0.5 -27.5l-48 -210q-3 -15 -11.5 -22.5
t-19.5 -7.5z" />
    <glyph glyph-name="uni02BB" unicode="&#x2bb;" horiz-adv-x="500" 
d="M307 563q-23 0 -35.5 12.5t-12.5 37.5q0 22 7 45.5t19 44.5t28 36q9 10 19.5 10t16.5 -5.5t6 -15.5t-10 -20q-15 -16 -22.5 -31t-9.5 -34l-3 15q24 0 37.5 -11.5t13.5 -32.5q0 -24 -15 -37.5t-39 -13.5z" />
    <glyph glyph-name="uni02BC" unicode="&#x2bc;" horiz-adv-x="323" 
d="M235 584q-10 -10 -20 -10.5t-16.5 5.5t-6 15.5t9.5 20.5q15 15 22 31t10 33l3 -15q-24 0 -37.5 12.5t-13.5 31.5q0 25 15 38.5t39 13.5q23 0 35.5 -13t12.5 -38q0 -21 -7 -45t-19 -44.5t-27 -35.5z" />
    <glyph glyph-name="uni02BE" unicode="&#x2be;" horiz-adv-x="500" 
d="M326 556q-16 -3 -24 3t-7 17q2 12 9.5 16.5t20.5 8.5q20 6 31.5 22.5t11.5 36.5q0 14 -6.5 25t-18.5 18t-18 12t-5 15q2 11 11 16.5t22 1.5q31 -9 47.5 -32.5t16.5 -53.5q0 -39 -26 -68t-65 -38z" />
    <glyph glyph-name="uni02BF" unicode="&#x2bf;" horiz-adv-x="500" 
d="M277 559q-31 8 -47.5 32t-16.5 53q0 39 26 68.5t65 38.5q17 3 25 -3.5t6 -17.5t-9.5 -15.5t-20.5 -8.5q-20 -7 -31.5 -23t-11.5 -37q0 -13 6.5 -24.5t18.5 -18.5q12 -6 18.5 -11t4.5 -16t-10.5 -16t-22.5 -1z" />
    <glyph glyph-name="circumflex" unicode="&#x2c6;" horiz-adv-x="472" 
d="M420 580q6 -12 2 -21t-13.5 -13t-19 -1.5t-14.5 12.5l-72 142l-106 -143q-7 -10 -17 -12t-18 2.5t-10.5 13.5t5.5 21l99 153q11 17 23.5 24.5t28.5 7.5q15 0 26.5 -8t18.5 -24z" />
    <glyph glyph-name="caron" unicode="&#x2c7;" horiz-adv-x="475" 
d="M294 542q-15 0 -27 7.5t-19 24.5l-66 153q-6 12 -2 21t13 13t19 1.5t16 -14.5l72 -143l107 145q8 11 18 13t18 -3t10.5 -13.5t-5.5 -20.5l-98 -150q-10 -17 -25 -25.5t-31 -8.5z" />
    <glyph glyph-name="uni02C8" unicode="&#x2c8;" horiz-adv-x="500" 
d="M305 588q-14 0 -20.5 9.5t-4.5 26.5l24 148q4 30 34 30q15 0 21 -9t4 -26l-24 -148q-4 -31 -34 -31z" />
    <glyph glyph-name="uni02C9" unicode="&#x2c9;" horiz-adv-x="500" 
d="M190 625q-30 0 -30 23q0 15 9 23.5t24 8.5h247q30 0 30 -23q0 -14 -8.5 -23t-24.5 -9h-247z" />
    <glyph glyph-name="uni02CA" unicode="&#x2ca;" horiz-adv-x="500" 
d="M331 555q-9 -10 -18.5 -11t-17.5 4t-10.5 14.5t4.5 21.5l99 161q9 15 20 18.5t21.5 0.5t18 -11.5t8 -19.5t-8.5 -23z" />
    <glyph glyph-name="uni02CB" unicode="&#x2cb;" horiz-adv-x="500" 
d="M262 559l-106 152q-10 14 -8.5 25t9.5 18.5t19.5 9.5t23 -3.5t19.5 -19.5l90 -158q7 -12 3.5 -22t-12 -14.5t-19 -2t-19.5 14.5z" />
    <glyph glyph-name="uni02CC" unicode="&#x2cc;" horiz-adv-x="500" 
d="M168 -277q-14 0 -20.5 9.5t-4.5 26.5l24 148q4 30 34 30q15 0 21.5 -9t3.5 -27l-24 -148q-4 -30 -34 -30z" />
    <glyph glyph-name="breve" unicode="&#x2d8;" horiz-adv-x="506" 
d="M316 549q-41 0 -72.5 20t-49 57.5t-18.5 89.5q-1 13 5 20.5t18 8.5q12 2 20 -4t8 -20q2 -57 26.5 -87t65.5 -30t70 30.5t41 88.5q3 12 10.5 18t18.5 4q13 -1 18.5 -11t1.5 -25q-11 -50 -33.5 -86t-55.5 -55t-74 -19z" />
    <glyph glyph-name="dotaccent" unicode="&#x2d9;" horiz-adv-x="299" 
d="M207 605q-20 0 -31.5 10t-11.5 28q0 28 15.5 43t42.5 15q20 0 31.5 -10t11.5 -28q0 -27 -15.5 -42.5t-42.5 -15.5z" />
    <glyph glyph-name="ring" unicode="&#x2da;" horiz-adv-x="441" 
d="M287 547q-33 0 -60 15t-43 41.5t-16 58.5q0 33 16 59t43 41.5t60 15.5q34 0 60.5 -15.5t42.5 -41.5t16 -59q0 -32 -16 -58.5t-42.5 -41.5t-60.5 -15zM287 590q32 0 52 21t20 51q0 31 -20 51.5t-52 20.5q-31 0 -51.5 -20.5t-20.5 -50.5q0 -31 20.5 -52t51.5 -21z" />
    <glyph glyph-name="ogonek" unicode="&#x2db;" horiz-adv-x="386" 
d="M145 -192q-48 0 -73 25.5t-25 63.5q0 46 28.5 82t77.5 57l26 -36q-24 -10 -40.5 -24t-25 -30.5t-8.5 -36.5q0 -23 14 -37t39 -14q9 0 17.5 1.5t19.5 4.5q12 4 18.5 -1t8 -14.5t-2 -18t-12.5 -12.5q-14 -5 -31 -7.5t-31 -2.5z" />
    <glyph glyph-name="tilde" unicode="&#x2dc;" horiz-adv-x="544" 
d="M178 588q-11 1 -16.5 8.5t-2.5 18.5q6 27 17 48t25 35t32 21t38 7q24 0 41.5 -11.5t32 -26t29 -26.5t33.5 -12q22 0 38.5 16.5t25.5 45.5q3 10 10.5 15t17.5 4q11 -1 16.5 -8t2.5 -19q-8 -35 -24.5 -60t-38 -38t-48.5 -13q-25 0 -43 11.5t-32.5 26.5t-29 26.5t-32.5 11.5
q-22 0 -39 -16.5t-25 -44.5q-3 -11 -10 -16t-18 -4z" />
    <glyph glyph-name="hungarumlaut" unicode="&#x2dd;" horiz-adv-x="429" 
d="M322 559q-5 -11 -13.5 -13.5t-16 0t-11.5 10.5t0 18l59 164q5 15 15 21.5t21 6t19 -7t11 -17t-4 -23.5zM194 559q-4 -11 -13 -13.5t-16.5 0t-11.5 10.5t0 18l60 164q5 15 15 21.5t21 6t19 -7t11 -17t-4 -23.5z" />
    <glyph glyph-name="gravecomb" unicode="&#x300;" 
d="M-25 558l-107 153q-9 14 -8 25t9 18.5t19.5 9.5t23 -3.5t19.5 -20.5l90 -156q6 -13 3 -22.5t-11.5 -14.5t-19 -3t-18.5 14z" />
    <glyph glyph-name="acutecomb" unicode="&#x301;" 
d="M43 555q-9 -10 -19 -11t-17.5 4t-9.5 14.5t6 21.5l107 161q10 15 21.5 18.5t21.5 0.5t17 -11.5t7 -19.5t-9 -23z" />
    <glyph glyph-name="uni0302" unicode="&#x302;" 
d="M143 580q6 -12 2 -21t-13.5 -13t-19 -1.5t-14.5 12.5l-72 142l-106 -143q-7 -10 -17 -12t-18 2.5t-10.5 13.5t5.5 21l99 153q11 17 23.5 24.5t28.5 7.5q15 0 26.5 -8t18.5 -24z" />
    <glyph glyph-name="tildecomb" unicode="&#x303;" 
d="M-141 588q-11 1 -16.5 8.5t-2.5 18.5q6 27 17 48t25 35t32 21t38 7q24 0 41.5 -11.5t32 -26t29 -26.5t33.5 -12q22 0 38.5 16.5t25.5 45.5q3 10 10.5 15t17.5 4q11 -1 16.5 -8t2.5 -19q-8 -35 -24.5 -60t-38 -38t-48.5 -13q-25 0 -43 11.5t-32.5 26.5t-29 26.5
t-32.5 11.5q-22 0 -39 -16.5t-25 -44.5q-3 -11 -10 -16t-18 -4z" />
    <glyph glyph-name="uni0304" unicode="&#x304;" 
d="M-98 625q-30 0 -30 23q0 15 9 23.5t24 8.5h247q30 0 30 -23q0 -14 -8.5 -23t-24.5 -9h-247z" />
    <glyph glyph-name="uni0306" unicode="&#x306;" 
d="M19 549q-41 0 -72.5 20t-49 57.5t-18.5 89.5q-1 13 5 20.5t18 8.5q12 2 20 -4t8 -20q2 -57 26.5 -87t65.5 -30t70 30.5t41 88.5q3 12 10.5 18t18.5 4q13 -1 18.5 -11t1.5 -25q-11 -50 -33.5 -86t-55.5 -55t-74 -19z" />
    <glyph glyph-name="uni0307" unicode="&#x307;" 
d="M19 605q-20 0 -31.5 10t-11.5 28q0 28 15.5 43t42.5 15q20 0 31.5 -10t11.5 -28q0 -27 -15.5 -42.5t-42.5 -15.5z" />
    <glyph glyph-name="uni0308" unicode="&#x308;" 
d="M107 606q-19 0 -29.5 9.5t-10.5 27.5q0 26 14 41t40 15q20 0 30 -10t10 -27q0 -26 -14 -41t-40 -15zM-67 606q-20 0 -30.5 9.5t-10.5 27.5q0 26 14.5 41t39.5 15q20 0 30.5 -10t10.5 -27q0 -26 -14 -41t-40 -15z" />
    </font>
</defs>
</svg>
