<?xml version="1.0" standalone="no"?>
<!DOCTYPE svg PUBLIC "-//W3C//DTD SVG 1.1//EN" "http://www.w3.org/Graphics/SVG/1.1/DTD/svg11.dtd" >
<svg xmlns="http://www.w3.org/2000/svg" xmlns:xlink="http://www.w3.org/1999/xlink" version="1.1">
<metadata>
Created by FontForge 20170731 at Wed Feb 16 15:57:25 2022
 By Aleksey,,,
Copyright 2014 The Nunito Project Authors (https://github.com/googlefonts/nunito)
</metadata>
<defs>
<font id="Nunito-SemiBold" horiz-adv-x="0" >
  <font-face 
    font-family="Nunito SemiBold"
    font-weight="600"
    font-stretch="normal"
    units-per-em="1000"
    panose-1="0 0 0 0 0 0 0 0 0 0"
    ascent="800"
    descent="-200"
    x-height="488"
    cap-height="705"
    bbox="-250.737 -277 1318 1050"
    underline-thickness="28"
    underline-position="-122"
    unicode-range="U+000D-FB02"
  />
<missing-glyph horiz-adv-x="500" 
d="M50 -180v885h400v-885h-400zM100 -130h300v785h-300v-785z" />
    <glyph glyph-name="fi" unicode="fi" horiz-adv-x="582" 
d="M151 -7q-24 0 -37.5 13.5t-13.5 37.5v366h-56q-19 0 -30 10.5t-11 28.5q0 19 11 29t30 10h85l-29 -27v36q0 97 48 148t141 60l30 2q18 2 29 -4.5t15 -18t1 -23.5t-10.5 -20.5t-18.5 -9.5l-27 -2q-56 -4 -81.5 -33t-25.5 -85v-39l-14 16h274q25 0 38 -14.5t13 -39.5v-385
q0 -26 -12.5 -40.5t-38.5 -14.5q-24 0 -37 14.5t-13 40.5v361h-210v-366q0 -51 -50 -51zM463 597q-29 0 -45 15t-16 42q0 28 16 42.5t45 14.5q30 0 45.5 -14.5t15.5 -42.5q0 -27 -15.5 -42t-45.5 -15z" />
    <glyph glyph-name="fl" unicode="fl" horiz-adv-x="654" 
d="M151 -7q-24 0 -37.5 13.5t-13.5 37.5v366h-56q-19 0 -30 10.5t-11 28.5q0 19 11 29t30 10h85l-29 -27v36q0 99 49 149.5t143 59.5l31 2q17 2 27 -5t13 -18t0.5 -22.5t-10.5 -20.5t-20 -10l-19 -1q-59 -5 -86 -33.5t-27 -86.5v-39l-14 16h111q21 0 31.5 -10t10.5 -29
q0 -18 -10.5 -28.5t-31.5 -10.5h-97v-366q0 -51 -50 -51zM575 -9q-78 0 -117.5 45.5t-39.5 131.5v493q0 25 13 38t37 13t37.5 -13t13.5 -38v-487q0 -50 20.5 -74.5t59.5 -24.5q9 0 16 0.5t14 1.5q12 1 17 -6.5t5 -30.5q0 -21 -9 -32.5t-29 -14.5q-9 -1 -19 -1.5t-19 -0.5z
" />
    <glyph glyph-name=".notdef" horiz-adv-x="500" 
d="M50 -180v885h400v-885h-400zM100 -130h300v785h-300v-785z" />
    <glyph glyph-name=".null" 
 />
    <glyph glyph-name="nonmarkingreturn" horiz-adv-x="333" 
 />
    <glyph glyph-name="NULL" 
 />
    <glyph glyph-name="NULL" 
 />
    <glyph glyph-name="CR" unicode="&#xd;" horiz-adv-x="264" 
 />
    <glyph glyph-name="space" unicode=" " horiz-adv-x="264" 
 />
    <glyph glyph-name="exclam" unicode="!" horiz-adv-x="237" 
d="M120 190q-16 0 -24.5 10t-10.5 28l-24 418q-2 30 13 48t46 18q29 0 44 -18t12 -48l-24 -418q-1 -18 -9.5 -28t-22.5 -10zM120 -4q-29 0 -47 18t-18 46t18 45.5t47 17.5t46 -17.5t17 -45.5t-17 -46t-46 -18z" />
    <glyph glyph-name="quotedbl" unicode="&#x22;" horiz-adv-x="417" 
d="M116 415q-14 0 -25 10.5t-13 28.5l-16 199q-3 25 13 42t41 17q16 0 29 -7.5t19.5 -21t4.5 -30.5l-16 -199q-1 -18 -11.5 -28.5t-25.5 -10.5zM302 415q-14 0 -25 10.5t-13 28.5l-16 199q-3 25 13 42t41 17q16 0 29 -7.5t19.5 -21t4.5 -30.5l-16 -199q-1 -18 -11.5 -28.5
t-25.5 -10.5z" />
    <glyph glyph-name="numbersign" unicode="#" horiz-adv-x="600" 
d="M123 -7q-19 0 -26.5 12t-3.5 32l28 148l35 -8h-79q-13 0 -22.5 4t-14 12t-4.5 19q0 17 10.5 25.5t30.5 8.5h92l-38 -8l47 239l27 -10h-108q-13 0 -22 4.5t-14 12t-5 18.5q0 17 11 25.5t30 8.5h121l-32 -9l30 149q4 19 15 27.5t28 8.5q18 0 25.5 -11.5t3.5 -32.5l-26 -132
h144l28 140q4 19 15 27.5t28 8.5q18 0 25.5 -11.5t3.5 -32.5l-27 -141l-27 9h71q14 0 23 -4t13.5 -11.5t4.5 -18.5q0 -16 -10.5 -25.5t-30.5 -9.5h-85l31 10l-47 -239l-27 8h108q13 0 22 -4t14 -11.5t5 -18.5q0 -17 -10.5 -26t-30.5 -9h-121l32 8l-32 -156q-3 -19 -14 -27.5
t-28 -8.5q-18 0 -26 11.5t-4 32.5l28 140h-144l-29 -148q-3 -19 -14 -27.5t-28 -8.5zM207 246h143l43 221h-143z" />
    <glyph glyph-name="dollar" unicode="$" horiz-adv-x="600" 
d="M310 -122q-18 0 -29.5 12t-11.5 29v95l20 -19q-70 1 -126 18.5t-94 42.5q-14 9 -20 23t-3.5 28t11.5 24t22 12t30 -8q31 -20 77.5 -36t113.5 -16q54 0 88.5 14t51 38t16.5 56q0 26 -11.5 45t-37.5 32.5t-69 22.5l-103 22q-91 20 -135.5 66t-44.5 121q0 59 28.5 105t80 73
t120.5 31l-15 -14v91q0 17 11.5 29t29.5 12q17 0 29 -12t12 -29v-91l-17 14q46 -1 98 -18.5t89 -49.5q12 -10 15.5 -23t0 -25t-12.5 -20t-23 -9t-30 10q-32 22 -70.5 35t-91.5 13q-70 0 -111 -33t-41 -86q0 -40 25 -64.5t84 -37.5l105 -22q96 -21 142 -65t46 -117
q0 -57 -29 -100.5t-79.5 -69t-116.5 -31.5l17 19v-96q0 -17 -11.5 -29t-29.5 -12z" />
    <glyph glyph-name="percent" unicode="%" horiz-adv-x="937" 
d="M313 3q-8 -15 -20.5 -20t-24.5 -2t-20 12t-9.5 22t6.5 28l378 657q8 16 20.5 21t24 2t20 -12t10.5 -22t-7 -28zM224 283q-82 0 -128 57.5t-46 158.5q0 68 21 116t60 73.5t93 25.5q81 0 127.5 -57t46.5 -158q0 -67 -20.5 -115.5t-59.5 -74.5t-94 -26zM224 354q28 0 48 16
t30.5 48t10.5 81q0 73 -23.5 109t-65.5 36q-28 0 -48 -16t-30.5 -48t-10.5 -81q0 -74 23.5 -109.5t65.5 -35.5zM713 -9q-81 0 -127 57t-46 159q0 67 20.5 115t59.5 74t93 26q82 0 128 -57.5t46 -157.5q0 -68 -20.5 -116.5t-59.5 -74t-94 -25.5zM713 61q28 0 48 16t30.5 48.5
t10.5 81.5q0 72 -23.5 108t-65.5 36q-27 0 -47.5 -16t-31 -48t-10.5 -80q0 -74 24 -110t65 -36z" />
    <glyph glyph-name="ampersand" unicode="&#x26;" horiz-adv-x="708" 
d="M293 -9q-72 0 -124.5 23t-80.5 64t-28 96q0 34 9 63t27.5 54.5t46 49t62.5 45.5l33 21l-14 -22q-46 49 -65.5 88t-19.5 80q0 48 22.5 84.5t64 56.5t96.5 20q75 0 121 -39.5t46 -108.5q0 -36 -14.5 -69t-47.5 -64t-90 -64l1 25l180 -197h-22q13 23 23.5 52t18 63t10.5 71
q3 21 14 31.5t31 10.5q21 0 32 -12t8 -35q-4 -49 -15 -92.5t-27 -81t-37 -69.5l-1 27l98 -103q15 -15 14.5 -30.5t-12 -25.5t-31.5 -10q-18 0 -29.5 6.5t-24.5 20.5l-70 76h24q-42 -49 -101.5 -77t-127.5 -28zM298 72q54 0 95 21.5t74 63.5l-3 -28l-209 223l41 -3l-30 -19
q-38 -25 -61.5 -47t-34 -46.5t-10.5 -54.5q0 -51 35.5 -80.5t102.5 -29.5zM322 640q-40 0 -64.5 -23t-24.5 -62q0 -20 6 -37.5t22.5 -39t44.5 -52.5h-25q46 28 72 49t38 42t12 45q0 37 -22.5 57.5t-58.5 20.5z" />
    <glyph glyph-name="quotesingle" unicode="'" horiz-adv-x="231" 
d="M116 415q-14 0 -25 10.5t-13 28.5l-16 199q-3 25 13 42t41 17q16 0 29 -7.5t19.5 -21t4.5 -30.5l-16 -199q-1 -18 -11.5 -28.5t-25.5 -10.5z" />
    <glyph glyph-name="parenleft" unicode="(" horiz-adv-x="336" 
d="M213 -166q-58 101 -85 209.5t-27 219.5q0 74 12 147t36.5 144t63.5 138q9 16 24.5 19.5t29 -2.5t20 -21t-1.5 -38q-26 -65 -42.5 -129t-25 -127.5t-8.5 -130.5q0 -66 8.5 -130t26 -127.5t41.5 -129.5q8 -23 1.5 -38t-20 -21t-29 -2t-24.5 19z" />
    <glyph glyph-name="parenright" unicode=")" horiz-adv-x="336" 
d="M123 -166q-9 -15 -24.5 -19t-29.5 2t-20 21t2 38q27 66 43 129.5t24.5 127.5t8.5 130q0 67 -9 130.5t-25.5 127t-41.5 129.5q-8 23 -1.5 38t20.5 21t29 2.5t24 -19.5q58 -100 85 -208.5t27 -220.5q0 -74 -12.5 -147.5t-36.5 -144.5t-63 -137z" />
    <glyph glyph-name="asterisk" unicode="*" horiz-adv-x="452" 
d="M127 363q-15 9 -17.5 24t8.5 32l67 104l15 -20l-125 -5q-20 -1 -32 8t-12 26t12 26t32 8l125 -6l-14 -20l-67 105q-11 18 -8.5 32.5t17.5 22.5q14 10 28.5 2.5t23.5 -25.5l52 -103h-12l52 103q9 19 23.5 26t29.5 -3q15 -9 16.5 -23.5t-9.5 -32.5l-67 -104l-13 20l124 6
q21 1 33 -8t12 -26q0 -18 -12 -26.5t-33 -7.5l-124 5l13 20l67 -104q11 -17 9.5 -31.5t-16.5 -23.5q-16 -9 -30.5 -2.5t-22.5 24.5l-52 104h12l-53 -104q-9 -18 -23 -24.5t-29 1.5z" />
    <glyph glyph-name="plus" unicode="+" horiz-adv-x="600" 
d="M300 33q-19 0 -28.5 10.5t-9.5 28.5v178h-175q-18 0 -28 9.5t-10 27.5t10 27.5t28 9.5h175v173q0 18 9.5 28t29.5 10q18 0 27.5 -10t9.5 -28v-173h175q19 0 28.5 -9.5t9.5 -27.5t-9.5 -27.5t-28.5 -9.5h-175v-178q0 -18 -9.5 -28.5t-28.5 -10.5z" />
    <glyph glyph-name="comma" unicode="," horiz-adv-x="237" 
d="M131 -101q-11 -14 -23.5 -16t-21.5 5t-10 19.5t11 27.5q18 22 24.5 45.5t6.5 41.5l4 -26q-30 0 -48.5 17.5t-18.5 46.5q0 28 17 45.5t46 17.5q30 0 47.5 -20.5t17.5 -58.5q0 -22 -4.5 -46t-15.5 -49t-32 -50z" />
    <glyph glyph-name="hyphen" unicode="-" horiz-adv-x="429" 
d="M105 226q-18 0 -30 12t-12 29q0 18 12 29.5t30 11.5h220q17 0 29 -11.5t12 -29.5q0 -17 -12 -29t-29 -12h-220z" />
    <glyph glyph-name="period" unicode="." horiz-adv-x="237" 
d="M120 -4q-29 0 -47 18t-18 46t18 45.5t47 17.5t46 -17.5t17 -45.5t-17 -46t-46 -18z" />
    <glyph glyph-name="slash" unicode="/" horiz-adv-x="297" 
d="M70 -32q-5 -16 -16 -23t-24 -7t-23.5 6.5t-15 18.5t0.5 29l235 728q5 16 16 23.5t23.5 7t23 -7t15 -18t0.5 -28.5z" />
    <glyph glyph-name="zero" unicode="0" horiz-adv-x="600" 
d="M300 -9q-123 0 -187.5 93.5t-64.5 268.5q0 119 29 199t85 121t138 41q124 0 188 -91.5t64 -268.5q0 -117 -29 -198t-85 -123t-138 -42zM300 77q77 0 113.5 67.5t36.5 209.5q0 143 -36.5 208.5t-113.5 65.5q-76 0 -113 -65.5t-37 -208.5q0 -142 37 -209.5t113 -67.5z" />
    <glyph glyph-name="one" unicode="1" horiz-adv-x="600" 
d="M155 0q-21 0 -33 12t-12 32q0 21 12 32t33 11h122v532h52l-146 -93q-16 -9 -29.5 -7t-23 11t-13 22t2 27t20.5 23l138 87q17 10 32.5 16.5t29.5 6.5q17 0 28.5 -9.5t11.5 -31.5v-584h112q22 0 34 -11t12 -32t-12 -32.5t-34 -11.5h-337z" />
    <glyph glyph-name="two" unicode="2" horiz-adv-x="600" 
d="M131 0q-27 0 -39 12.5t-12 34.5q0 14 7 27t20 27l213 228q49 52 70.5 95.5t21.5 87.5q0 56 -34 85t-100 29q-40 0 -77 -12t-74 -39q-15 -10 -28 -9t-22.5 10t-12.5 22t1 27t19 24q41 31 95 48t110 17q73 0 123.5 -22.5t76.5 -65.5t26 -105q0 -42 -13.5 -82t-41 -81.5
t-71.5 -87.5l-202 -212v29h318q22 0 34 -11t12 -32t-12 -32.5t-34 -11.5h-374z" />
    <glyph glyph-name="three" unicode="3" horiz-adv-x="600" 
d="M289 -9q-56 0 -114 15.5t-101 46.5q-16 10 -21.5 24.5t-2.5 27t12.5 21.5t23.5 10.5t31 -8.5q43 -26 84 -37.5t85 -11.5q48 0 81 14t49.5 41t16.5 65q0 57 -37.5 85.5t-108.5 28.5h-68q-23 0 -35 11.5t-12 32.5q0 20 12 31.5t35 11.5h58q43 0 73 14.5t46.5 41t16.5 64.5
q0 51 -33.5 78.5t-97.5 27.5q-41 0 -77.5 -11t-75.5 -39q-15 -10 -28.5 -8.5t-23 10t-13 21.5t1.5 27t20 24q42 31 95 47.5t109 16.5q70 0 120.5 -22t77 -63t26.5 -98q0 -43 -16 -78t-45.5 -59.5t-71.5 -34.5v11q73 -12 113 -59.5t40 -118.5q0 -62 -29.5 -107.5t-84.5 -69.5
t-131 -24z" />
    <glyph glyph-name="four" unicode="4" horiz-adv-x="600" 
d="M416 -7q-24 0 -38 13.5t-14 37.5v99h-268q-25 0 -40 11t-15 34q0 13 6.5 28t23.5 39l291 423q11 17 25 25.5t32 8.5q21 0 34.5 -12.5t13.5 -38.5v-431h63q24 0 35.5 -11t11.5 -32q0 -22 -11.5 -33t-35.5 -11h-63v-99q0 -24 -13.5 -37.5t-37.5 -13.5zM364 230v353h27
l-261 -381v28h234z" />
    <glyph glyph-name="five" unicode="5" horiz-adv-x="600" 
d="M311 -9q-55 0 -111 15.5t-102 48.5q-15 9 -20 23t-2 27.5t12.5 22.5t23.5 10.5t30 -8.5q39 -25 80.5 -38t86.5 -13q46 0 79 17t50.5 47.5t17.5 71.5q0 63 -37 103t-103 40q-38 0 -71 -13.5t-63 -44.5q-7 -8 -18.5 -14.5t-25.5 -6.5q-21 0 -32 11t-11 30v339q0 22 12 34
t34 12h335q22 0 34 -11t12 -32t-12 -32.5t-34 -11.5h-280v-254h-28q27 38 71.5 59t98.5 21q67 0 116 -28t76 -78.5t27 -117.5q0 -68 -30 -119.5t-85 -80.5t-131 -29z" />
    <glyph glyph-name="six" unicode="6" horiz-adv-x="600" 
d="M325 -9q-85 0 -144.5 41t-91 118.5t-31.5 186.5q0 91 20 161t58 118t92.5 73t123.5 25q45 0 92 -15.5t86 -46.5q13 -9 16.5 -22.5t0.5 -26t-12 -21.5t-22.5 -10.5t-28.5 8.5q-34 25 -67.5 35.5t-66.5 10.5q-62 0 -105 -30t-65 -90t-22 -149v-85h-11q7 54 33.5 93.5
t68.5 60.5t93 21q62 0 109.5 -29t74.5 -79.5t27 -115.5q0 -67 -29 -120t-80.5 -82.5t-118.5 -29.5zM319 75q41 0 72 18t48 50.5t17 75.5t-17 75t-48 50.5t-72 18.5t-71.5 -18.5t-48 -50.5t-17.5 -75t17.5 -75.5t48 -50.5t71.5 -18z" />
    <glyph glyph-name="seven" unicode="7" horiz-adv-x="600" 
d="M170 -7q-18 0 -30.5 8.5t-15 24t6.5 34.5l313 597v-39h-344q-22 0 -34 11.5t-12 31.5q0 21 12 32.5t34 11.5h393q22 0 35.5 -11.5t13.5 -32.5q0 -18 -4.5 -31t-12.5 -29l-297 -574q-9 -18 -23 -26t-35 -8z" />
    <glyph glyph-name="eight" unicode="8" horiz-adv-x="600" 
d="M300 -9q-80 0 -137.5 23t-88 67.5t-30.5 106.5q0 50 20 88.5t56 62.5t83 30v-18q-65 14 -103.5 61.5t-38.5 113.5q0 59 29.5 101.5t83.5 64.5t126 22q73 0 127 -22t83.5 -64.5t29.5 -101.5q0 -44 -17.5 -80.5t-49.5 -61t-75 -32.5v17q71 -10 114.5 -58.5t43.5 -122.5
q0 -62 -30.5 -106.5t-87.5 -67.5t-138 -23zM300 73q79 0 119 30.5t40 91.5t-40 91t-119 30q-78 0 -118.5 -30t-40.5 -91t40.5 -91.5t118.5 -30.5zM300 398q45 0 76.5 14.5t48.5 41t17 62.5q0 54 -37.5 85t-104.5 31t-104 -31t-37 -85q0 -55 37 -86.5t104 -31.5z" />
    <glyph glyph-name="nine" unicode="9" horiz-adv-x="600" 
d="M248 -9q-44 0 -91.5 15.5t-86.5 46.5q-13 9 -16.5 22.5t-0.5 26t12 22t22.5 11t28.5 -8.5q34 -25 67.5 -36t66.5 -11q62 0 105 30t65 90t22 149v85h11q-7 -53 -33.5 -93t-68.5 -61t-93 -21q-61 0 -109 29t-75 80t-27 115q0 68 29 120.5t80.5 82t118.5 29.5
q86 0 145 -40.5t90.5 -118.5t31.5 -187q0 -91 -20 -161t-58 -118t-92.5 -73t-123.5 -25zM282 343q40 0 71 18t48.5 51t17.5 75q0 43 -17.5 75.5t-48.5 50.5t-71 18q-41 0 -71.5 -18t-48 -50.5t-17.5 -75.5q0 -42 17.5 -75t48 -51t71.5 -18z" />
    <glyph glyph-name="colon" unicode=":" horiz-adv-x="237" 
d="M120 -4q-29 0 -47 18t-18 46t18 45.5t47 17.5t46 -17.5t17 -45.5t-17 -46t-46 -18zM120 365q-29 0 -47 18t-18 45q0 29 18 46.5t47 17.5t46 -17.5t17 -46.5q0 -27 -17 -45t-46 -18z" />
    <glyph glyph-name="semicolon" unicode=";" horiz-adv-x="237" 
d="M131 -101q-11 -14 -23.5 -16t-21.5 5t-10 19.5t11 27.5q18 22 24.5 45.5t6.5 41.5l4 -26q-30 0 -48.5 17.5t-18.5 46.5q0 28 17 45.5t46 17.5q30 0 47.5 -20.5t17.5 -58.5q0 -22 -4.5 -46t-15.5 -49t-32 -50zM120 365q-29 0 -47 18t-18 45q0 29 18 46.5t47 17.5t46 -17.5
t17 -46.5q0 -27 -17 -45t-46 -18z" />
    <glyph glyph-name="less" unicode="&#x3c;" horiz-adv-x="600" 
d="M506 51l-414 182q-39 16 -39 55q0 19 10 32t29 21l414 183q14 6 25.5 2.5t18.5 -12.5t8 -21t-4.5 -22.5t-20.5 -16.5l-442 -192v50l442 -192q15 -6 20.5 -16.5t4.5 -22t-8 -21t-18.5 -12.5t-25.5 3z" />
    <glyph glyph-name="equal" unicode="=" horiz-adv-x="600" 
d="M87 350q-18 0 -28 9.5t-10 27.5t10 27.5t28 9.5h426q19 0 28.5 -9.5t9.5 -27.5t-9.5 -27.5t-28.5 -9.5h-426zM87 151q-18 0 -28 9.5t-10 27.5t10 27t28 9h426q19 0 28.5 -9t9.5 -27q0 -19 -9.5 -28t-28.5 -9h-426z" />
    <glyph glyph-name="greater" unicode="&#x3e;" horiz-adv-x="600" 
d="M95 51q-14 -6 -25.5 -3t-18.5 12.5t-8 21t5 22t19 16.5l443 192v-50l-443 192q-13 6 -19 16.5t-5 22.5t8 21t18.5 12.5t25.5 -2.5l414 -183q39 -16 39 -53q0 -19 -10 -33t-29 -22z" />
    <glyph glyph-name="question" unicode="?" horiz-adv-x="450" 
d="M215 191q-15 0 -24 10.5t-9 27.5q0 33 8 62.5t26 59.5t48 64q24 27 37.5 48t19.5 40.5t6 40.5q0 38 -27 60t-76 22q-43 0 -79 -12.5t-70 -35.5q-19 -12 -33.5 -11t-24 9.5t-12 22t4 28t23.5 26.5q40 29 93 45t104 16q60 0 105 -20t70 -56t25 -85q0 -31 -9 -59
t-28.5 -56.5t-54.5 -62.5q-31 -31 -50 -56.5t-27.5 -49t-11.5 -49.5q-1 -13 -10 -21t-24 -8zM214 -4q-29 0 -47 18t-18 46t18 45.5t47 17.5q30 0 46.5 -17.5t16.5 -45.5t-16.5 -46t-46.5 -18z" />
    <glyph glyph-name="at" unicode="@" horiz-adv-x="948" 
d="M485 -164q-95 0 -174 30.5t-135.5 88t-87 137t-30.5 179.5q0 99 31.5 180.5t90.5 140.5t140.5 90.5t179.5 31.5q117 0 205 -46.5t136.5 -129.5t48.5 -195q0 -87 -24 -150.5t-67 -98.5t-101 -35q-60 0 -92 34t-31 94l25 1q-25 -63 -71 -96t-98 -33q-79 0 -122.5 49
t-43.5 135q0 73 28 130.5t77 90.5t111 33q53 0 87.5 -27t45.5 -77h-14l11 61q6 37 44 37q19 0 28.5 -11t5.5 -32l-37 -211q-3 -15 -4.5 -27.5t-1.5 -23.5q0 -32 14.5 -48t42.5 -16q36 0 63 27.5t42 77.5t15 116q0 94 -40 162.5t-112.5 105.5t-171.5 37q-110 0 -192.5 -46.5
t-128.5 -131.5t-46 -199q0 -115 43.5 -198t123 -127t186.5 -44q70 0 127 18t100 52q15 12 28.5 9.5t21 -13.5t5.5 -24.5t-17 -25.5q-46 -38 -113.5 -60t-151.5 -22zM444 126q41 0 73.5 25.5t51 70t18.5 101.5q0 53 -23.5 79.5t-71.5 26.5q-41 0 -74 -24t-51.5 -65.5
t-18.5 -95.5q0 -57 25 -87.5t71 -30.5z" />
    <glyph glyph-name="A" unicode="A" horiz-adv-x="736" 
d="M78 -7q-20 0 -32 9t-14 24t6 34l271 608q10 24 25.5 34t34.5 10q18 0 33.5 -10t25.5 -34l271 -608q9 -19 7 -34.5t-13 -24t-31 -8.5q-22 0 -35 11t-23 34l-70 162l47 -28h-426l46 28l-69 -162q-10 -24 -22 -34.5t-32 -10.5zM367 590l-151 -358l-25 24h353l-23 -24
l-152 358h-2z" />
    <glyph glyph-name="B" unicode="B" horiz-adv-x="682" 
d="M138 0q-27 0 -41.5 14.5t-14.5 41.5v593q0 27 14.5 41.5t41.5 14.5h238q73 0 124.5 -22t79 -63t27.5 -99q0 -64 -38 -108t-103 -59v15q74 -10 116 -55.5t42 -118.5q0 -94 -62 -144.5t-174 -50.5h-250zM182 80h194q75 0 111 29.5t36 89.5t-36 89t-111 29h-194v-237z
M182 397h178q72 0 109 29t37 85t-37 85t-109 29h-178v-228z" />
    <glyph glyph-name="C" unicode="C" horiz-adv-x="676" 
d="M398 -9q-107 0 -183 44t-116.5 125.5t-40.5 192.5q0 83 23 149.5t66.5 114t107 72.5t143.5 25q59 0 113.5 -16t94.5 -46q17 -11 22.5 -26.5t2 -29.5t-13.5 -23.5t-25.5 -10.5t-33.5 11q-33 25 -73 37t-84 12q-76 0 -128 -31.5t-79 -91.5t-27 -146t27 -146.5t79 -92
t128 -31.5q44 0 84.5 12.5t76.5 37.5q18 11 32.5 10t24.5 -10t13.5 -22.5t-1 -28t-19.5 -24.5q-41 -33 -97 -50t-117 -17z" />
    <glyph glyph-name="D" unicode="D" horiz-adv-x="751" 
d="M138 0q-27 0 -41.5 14.5t-14.5 41.5v593q0 27 14.5 41.5t41.5 14.5h193q174 0 268.5 -90.5t94.5 -261.5q0 -85 -24 -151t-70.5 -110.5t-113.5 -68t-155 -23.5h-193zM186 87h139q66 0 114.5 16.5t81.5 49.5t49 83t16 117q0 133 -65.5 199t-195.5 66h-139v-531z" />
    <glyph glyph-name="E" unicode="E" horiz-adv-x="589" 
d="M138 0q-27 0 -41.5 14.5t-14.5 41.5v593q0 27 14.5 41.5t41.5 14.5h365q21 0 32 -10.5t11 -30.5q0 -21 -11 -32t-32 -11h-321v-221h299q22 0 32.5 -11t10.5 -31q0 -21 -10.5 -31.5t-32.5 -10.5h-299v-232h321q21 0 32 -11t11 -31q0 -21 -11 -31.5t-32 -10.5h-365z" />
    <glyph glyph-name="F" unicode="F" horiz-adv-x="554" 
d="M137 -7q-26 0 -40.5 14t-14.5 41v601q0 27 14.5 41.5t41.5 14.5h356q22 0 32.5 -10.5t10.5 -30.5q0 -21 -10.5 -32t-32.5 -11h-308v-225h288q20 0 31.5 -10.5t11.5 -30.5q0 -21 -11.5 -32t-31.5 -11h-288v-264q0 -55 -49 -55z" />
    <glyph glyph-name="G" unicode="G" horiz-adv-x="731" 
d="M412 -9q-115 0 -194 43.5t-119.5 124.5t-40.5 193q0 84 23.5 150.5t68 114t109 72.5t146.5 25q60 0 118 -15.5t106 -50.5q14 -10 18 -23t0.5 -26.5t-13 -23.5t-23 -12t-29.5 8q-39 27 -82 39.5t-95 12.5q-78 0 -131.5 -32t-80.5 -92.5t-27 -146.5q0 -133 63 -202t187 -69
q45 0 88.5 8.5t83.5 24.5l-21 -52v233h-129q-20 0 -31.5 10.5t-11.5 29.5t11.5 28.5t31.5 9.5h173q21 0 32 -11t11 -32v-252q0 -18 -6.5 -30.5t-21.5 -18.5q-43 -17 -101 -27.5t-113 -10.5z" />
    <glyph glyph-name="H" unicode="H" horiz-adv-x="767" 
d="M134 -7q-25 0 -38.5 14t-13.5 39v613q0 26 13.5 39.5t38.5 13.5t38.5 -13.5t13.5 -39.5v-258h395v258q0 26 13.5 39.5t38.5 13.5t38 -13.5t13 -39.5v-613q0 -25 -13 -39t-38 -14t-38.5 14t-13.5 39v268h-395v-268q0 -25 -13 -39t-39 -14z" />
    <glyph glyph-name="I" unicode="I" horiz-adv-x="268" 
d="M134 -7q-25 0 -38.5 14t-13.5 39v613q0 26 13.5 39.5t38.5 13.5t38.5 -13.5t13.5 -39.5v-613q0 -25 -13 -39t-39 -14z" />
    <glyph glyph-name="J" unicode="J" horiz-adv-x="338" 
d="M36 -6q-23 -1 -36 12t-13 33q0 15 9.5 27t27.5 13l31 2q48 4 73 32.5t25 79.5v467q0 26 13 39t38 13t38.5 -13t13.5 -39v-467q0 -60 -21.5 -102.5t-62.5 -66.5t-102 -28z" />
    <glyph glyph-name="K" unicode="K" horiz-adv-x="643" 
d="M134 -7q-25 0 -38.5 14t-13.5 39v614q0 26 13.5 39t38.5 13t38.5 -13t13.5 -39v-272h2l307 297q15 14 28.5 20.5t30.5 6.5q23 0 33.5 -11.5t8.5 -27.5t-17 -31l-319 -304l2 51l332 -320q18 -17 19 -35t-11 -29.5t-34 -11.5q-20 0 -32 8t-28 23l-320 305h-2v-283
q0 -25 -13 -39t-39 -14z" />
    <glyph glyph-name="L" unicode="L" horiz-adv-x="552" 
d="M135 0q-25 0 -39 14t-14 39v603q0 26 13.5 39.5t38.5 13.5t38.5 -13.5t13.5 -39.5v-567h310q22 0 34 -11.5t12 -32.5t-12 -33t-34 -12h-361z" />
    <glyph glyph-name="M" unicode="M" horiz-adv-x="861" 
d="M132 -7q-23 0 -35.5 13t-12.5 36v621q0 24 13 36.5t35 12.5q21 0 32.5 -7.5t21.5 -26.5l262 -489h-31l261 489q10 19 21 26.5t32 7.5q22 0 34 -12.5t12 -36.5v-621q0 -23 -11.5 -36t-34.5 -13t-35 13t-12 36v516h22l-232 -429q-8 -15 -17 -22t-25 -7t-26 7.5t-18 21.5
l-234 430h24v-517q0 -23 -11.5 -36t-34.5 -13z" />
    <glyph glyph-name="N" unicode="N" horiz-adv-x="743" 
d="M131 -7q-23 0 -36 13t-13 37v617q0 25 12.5 38.5t33.5 13.5q18 0 27.5 -6.5t22.5 -23.5l412 -543h-25v524q0 23 12.5 36t35.5 13q24 0 36 -13t12 -36v-621q0 -23 -11.5 -36t-30.5 -13q-18 0 -29.5 7t-24.5 24l-410 542h23v-523q0 -24 -12 -37t-35 -13z" />
    <glyph glyph-name="O" unicode="O" horiz-adv-x="775" 
d="M388 -9q-100 0 -174.5 44.5t-115 126t-40.5 191.5q0 83 23 149.5t66 114t104 72.5t137 25q101 0 175 -44t114.5 -125t40.5 -191q0 -83 -23 -150t-66.5 -115t-104.5 -73t-136 -25zM388 81q70 0 119.5 32t76 93t26.5 147q0 129 -58 200t-164 71q-70 0 -119.5 -31.5
t-76 -92.5t-26.5 -147q0 -128 58.5 -200t163.5 -72z" />
    <glyph glyph-name="P" unicode="P" horiz-adv-x="642" 
d="M134 -7q-25 0 -38.5 14t-13.5 39v606q0 26 14 39.5t39 13.5h239q114 0 176 -56.5t62 -158.5q0 -103 -62 -159.5t-176 -56.5h-188v-228q0 -25 -13 -39t-39 -14zM186 357h173q75 0 113.5 33.5t38.5 99.5q0 65 -38.5 98.5t-113.5 33.5h-173v-265z" />
    <glyph glyph-name="Q" unicode="Q" horiz-adv-x="775" 
d="M643 -124q12 -18 10 -33t-12.5 -25.5t-26 -13t-31 3.5t-26.5 24l-66 107q-15 25 -41 38.5t-63 13.5l82 33q47 0 74.5 -16.5t54.5 -59.5zM388 -9q-100 0 -174.5 44.5t-115 126t-40.5 191.5q0 83 23 149.5t66 114t104 72.5t137 25q101 0 175 -44t114.5 -125t40.5 -191
q0 -83 -23 -150t-66.5 -115t-104.5 -73t-136 -25zM388 81q70 0 119.5 32t76 93t26.5 147q0 129 -58 200t-164 71q-70 0 -119.5 -31.5t-76 -92.5t-26.5 -147q0 -128 58.5 -200t163.5 -72z" />
    <glyph glyph-name="R" unicode="R" horiz-adv-x="677" 
d="M134 -7q-25 0 -38.5 14t-13.5 39v606q0 26 14 39.5t39 13.5h239q114 0 176 -54t62 -153q0 -64 -28 -110t-81.5 -70t-128.5 -24l9 14h26q40 0 69.5 -20t53.5 -64l86 -160q10 -18 9.5 -34.5t-12 -26.5t-32.5 -10q-22 0 -35.5 9.5t-24.5 28.5l-105 194q-21 39 -48 52.5
t-71 13.5h-113v-245q0 -25 -13 -39t-39 -14zM186 369h171q76 0 115 32t39 95q0 62 -39 94t-115 32h-171v-253z" />
    <glyph glyph-name="S" unicode="S" horiz-adv-x="622" 
d="M317 -9q-46 0 -90 7t-83 21.5t-70 35.5q-15 11 -20.5 25t-3 27.5t11.5 23.5t22 12.5t29 -8.5q45 -29 95 -42.5t109 -13.5q85 0 125.5 30.5t40.5 79.5q0 40 -29 63.5t-97 37.5l-107 22q-95 20 -141.5 66t-46.5 124q0 47 19.5 86t54.5 67.5t84 43.5t107 15q62 0 116.5 -16
t97.5 -49q13 -9 17.5 -22.5t2 -26.5t-11.5 -22t-23 -10.5t-31 9.5q-39 26 -79.5 37.5t-89.5 11.5t-85.5 -15t-56 -42t-19.5 -64q0 -42 27 -67t90 -38l106 -22q100 -21 149 -65t49 -117q0 -47 -19 -84.5t-54 -64.5t-84.5 -41.5t-111.5 -14.5z" />
    <glyph glyph-name="T" unicode="T" horiz-adv-x="611" 
d="M306 -7q-25 0 -38.5 14t-13.5 39v572h-212q-21 0 -33 11.5t-12 32.5t12 32t33 11h527q22 0 34 -11t12 -32t-12 -32.5t-34 -11.5h-212v-572q0 -25 -12.5 -39t-38.5 -14z" />
    <glyph glyph-name="U" unicode="U" horiz-adv-x="733" 
d="M367 -9q-71 0 -125 18.5t-90.5 55.5t-55.5 92t-19 127v376q0 26 13.5 39t38.5 13t38.5 -13t13.5 -39v-374q0 -103 47.5 -154t138.5 -51q92 0 139 51t47 154v374q0 26 13.5 39t37.5 13q25 0 38 -13t13 -39v-376q0 -96 -32.5 -161.5t-96.5 -98.5t-159 -33z" />
    <glyph glyph-name="V" unicode="V" horiz-adv-x="700" 
d="M350 -7q-22 0 -36.5 10.5t-23.5 31.5l-269 609q-8 21 -4 36t16.5 23.5t30.5 8.5q23 0 35 -10t20 -30l252 -584h-37l250 585q9 19 21.5 29t34.5 10q18 0 29.5 -8.5t14.5 -23.5t-6 -36l-268 -609q-9 -21 -23 -31.5t-37 -10.5z" />
    <glyph glyph-name="W" unicode="W" horiz-adv-x="1107" 
d="M319 -7q-22 0 -35.5 11t-22.5 34l-215 613q-9 26 3.5 43.5t41.5 17.5q22 0 34.5 -10t19.5 -32l195 -574h-37l200 572q9 22 21 33t32 11t31.5 -11t20.5 -34l196 -571h-33l197 574q7 21 19.5 31.5t33.5 10.5q26 0 38.5 -17.5t2.5 -43.5l-216 -614q-9 -22 -22 -33t-35 -11
q-23 0 -36 11t-21 34l-189 541h22l-191 -542q-8 -22 -20.5 -33t-34.5 -11z" />
    <glyph glyph-name="X" unicode="X" horiz-adv-x="660" 
d="M88 -7q-20 0 -33 10.5t-15 27t11 33.5l236 317v-42l-223 300q-13 18 -11.5 35t14.5 27.5t32 10.5q16 0 28.5 -7.5t25.5 -25.5l194 -266h-32l192 266q13 18 25.5 25.5t29.5 7.5q20 0 33 -10.5t14.5 -27t-12.5 -35.5l-223 -300v42l235 -317q13 -17 11.5 -33.5t-14.5 -27
t-34 -10.5q-15 0 -28 8t-27 25l-206 282h38l-205 -282q-13 -17 -26.5 -25t-29.5 -8z" />
    <glyph glyph-name="Y" unicode="Y" horiz-adv-x="606" 
d="M303 -7q-25 0 -38.5 14t-13.5 40v317l23 -66l-247 343q-11 15 -10 31.5t13.5 28t33.5 11.5q16 0 29.5 -8t25.5 -25l198 -275h-24l198 275q13 18 25 25.5t30 7.5q21 0 32.5 -10.5t12 -27t-12.5 -34.5l-245 -342l21 66v-317q0 -54 -51 -54z" />
    <glyph glyph-name="Z" unicode="Z" horiz-adv-x="596" 
d="M95 0q-20 0 -32.5 8t-17 22.5t0 32t18.5 36.5l400 554v-35h-377q-23 0 -35 11.5t-12 32.5t12 32t35 11h425q20 0 33 -8t17.5 -22t0 -32t-18.5 -37l-401 -554v35h392q23 0 35 -11t12 -32t-12 -32.5t-35 -11.5h-440z" />
    <glyph glyph-name="bracketleft" unicode="[" horiz-adv-x="333" 
d="M151 -180q-18 0 -30.5 12.5t-12.5 30.5v799q0 19 12.5 31t30.5 12h140q18 0 29 -11t11 -28q0 -16 -11 -27.5t-29 -11.5h-82v-729h82q18 0 29 -11.5t11 -27.5q0 -17 -11 -28t-29 -11h-140z" />
    <glyph glyph-name="backslash" unicode="\" horiz-adv-x="297" 
d="M227 -32l-235 729q-5 17 0 28.5t15 18t23 7t24 -7t16 -23.5l235 -728q4 -17 -0.5 -29t-15 -18.5t-23.5 -6.5t-23.5 7t-15.5 23z" />
    <glyph glyph-name="bracketright" unicode="]" horiz-adv-x="333" 
d="M42 -180q-18 0 -29 11t-11 28q0 16 11 27.5t29 11.5h82v729h-82q-18 0 -29 11.5t-11 27.5q0 17 11 28t29 11h140q18 0 30.5 -12t12.5 -31v-799q0 -18 -12.5 -30.5t-30.5 -12.5h-140z" />
    <glyph glyph-name="asciicircum" unicode="^" horiz-adv-x="600" 
d="M98 133q-25 0 -33 15t1 37l184 417q8 18 20 25.5t30 7.5q35 0 50 -33l184 -417q9 -22 1.5 -37t-33.5 -15q-14 0 -23 6.5t-17 24.5l-187 429h50l-187 -429q-8 -18 -16.5 -24.5t-23.5 -6.5z" />
    <glyph glyph-name="underscore" unicode="_" horiz-adv-x="500" 
d="M47 -63q-15 0 -24.5 9t-9.5 22t9.5 22.5t24.5 9.5h407q14 0 23.5 -9.5t9.5 -22.5t-9.5 -22t-23.5 -9h-407z" />
    <glyph glyph-name="grave" unicode="`" horiz-adv-x="366" 
d="M207 558l-100 149q-9 14 -7 27t12 22t23 12.5t26 -1.5t21 -21l80 -157q6 -13 2 -24t-15 -17t-22.5 -4t-19.5 14z" />
    <glyph glyph-name="a" unicode="a" horiz-adv-x="537" 
d="M227 -9q-51 0 -91.5 20t-63.5 54t-23 77q0 54 27.5 85.5t91 45t171.5 13.5h47v-62h-46q-72 0 -114 -7t-59.5 -23.5t-17.5 -45.5q0 -38 26 -61.5t72 -23.5q37 0 65 17.5t44.5 47.5t16.5 69v115q0 57 -24 82t-79 25q-32 0 -66.5 -8t-71.5 -27q-17 -8 -29 -5t-19 13.5
t-7.5 23t6 24.5t22.5 18q44 21 87 30t81 9q67 0 110.5 -21t64.5 -64t21 -111v-257q0 -24 -12 -37.5t-35 -13.5q-22 0 -35 13.5t-13 37.5v65h9q-8 -37 -29.5 -63.5t-53.5 -40.5t-73 -14z" />
    <glyph glyph-name="b" unicode="b" horiz-adv-x="591" 
d="M333 -9q-64 0 -111 32.5t-63 86.5l11 18v-84q0 -24 -13 -37.5t-36 -13.5q-24 0 -37 13.5t-13 37.5v617q0 25 13 38t37 13t37.5 -13t13.5 -38v-280h-12q16 53 63 84.5t110 31.5q66 0 114 -31t74.5 -87t26.5 -135q0 -77 -26.5 -134.5t-75 -88t-113.5 -30.5zM308 69
q42 0 73 20t48 59t17 96q0 86 -37.5 130t-100.5 44q-41 0 -72.5 -19.5t-48.5 -58.5t-17 -96q0 -85 38 -130t100 -45z" />
    <glyph glyph-name="c" unicode="c" horiz-adv-x="467" 
d="M286 -9q-75 0 -129.5 31.5t-84.5 89t-30 135.5q0 58 17 104.5t48.5 78.5t77 49.5t101.5 17.5q35 0 73.5 -10.5t71.5 -34.5q13 -8 16.5 -19.5t1 -23.5t-11 -20.5t-20.5 -10t-26 6.5q-24 17 -49 24.5t-48 7.5q-36 0 -63.5 -11.5t-46.5 -33t-28.5 -53.5t-9.5 -73
q0 -82 38.5 -128.5t109.5 -46.5q23 0 48 7t49 24q14 8 26 6t19.5 -10.5t10 -20t-1.5 -23.5t-17 -20q-32 -23 -69.5 -33t-72.5 -10z" />
    <glyph glyph-name="d" unicode="d" horiz-adv-x="591" 
d="M257 -9q-64 0 -112.5 30.5t-75.5 88t-27 134.5q0 79 27 135t75.5 87t112.5 31t110.5 -31.5t62.5 -84.5h-11v280q0 25 13 38t37 13t37.5 -13t13.5 -38v-617q0 -24 -13 -37.5t-37 -13.5t-37 13.5t-13 37.5v88l11 -22q-16 -54 -62.5 -86.5t-111.5 -32.5zM283 69q41 0 72 20
t48.5 59t17.5 96q0 86 -38 130t-100 44q-42 0 -73 -19.5t-48.5 -58.5t-17.5 -96q0 -85 38 -130t101 -45z" />
    <glyph glyph-name="e" unicode="e" horiz-adv-x="537" 
d="M300 -9q-80 0 -137.5 30.5t-89 87t-31.5 134.5q0 76 31 133t85 89t123 32q51 0 91 -16.5t68.5 -48t43 -76.5t14.5 -101q0 -17 -10 -25.5t-30 -8.5h-336v62h308l-17 -14q0 50 -14.5 85t-43 53.5t-70.5 18.5q-47 0 -79.5 -22t-49.5 -61t-17 -91v-6q0 -88 41.5 -132.5
t120.5 -44.5q30 0 63.5 8t63.5 27q17 10 30.5 9t22 -9t10.5 -20t-4 -24.5t-21 -22.5q-34 -23 -79 -34.5t-87 -11.5z" />
    <glyph glyph-name="f" unicode="f" horiz-adv-x="347" 
d="M151 -7q-24 0 -37.5 13.5t-13.5 37.5v366h-56q-19 0 -30 10.5t-11 28.5q0 19 11 29t30 10h85l-29 -27v36q0 99 49 149.5t143 59.5l31 2q17 2 27 -5t13 -18t0.5 -22.5t-10.5 -20.5t-20 -10l-19 -1q-59 -5 -86 -33.5t-27 -86.5v-39l-14 16h111q21 0 31.5 -10t10.5 -29
q0 -18 -10.5 -28.5t-31.5 -10.5h-97v-366q0 -51 -50 -51z" />
    <glyph glyph-name="g" unicode="g" horiz-adv-x="594" 
d="M292 -189q-54 0 -104.5 11t-91.5 36q-15 8 -20 19.5t-2.5 23.5t10.5 21t19.5 12t24.5 -4q44 -24 83.5 -32.5t73.5 -8.5q70 0 105 35.5t35 104.5v102h9q-15 -55 -63 -87t-111 -32q-66 0 -115 30.5t-76 85t-27 127.5q0 55 15.5 99t44 76t69 49.5t89.5 17.5q64 0 111.5 -32
t61.5 -87l-10 -17v83q0 25 13.5 38t36.5 13q24 0 37 -13t13 -38v-403q0 -114 -59 -172t-172 -58zM284 91q44 0 75 20t48 57t17 87q0 75 -37.5 119t-102.5 44q-43 0 -74 -20t-48.5 -56.5t-17.5 -86.5q0 -76 38 -120t102 -44z" />
    <glyph glyph-name="h" unicode="h" horiz-adv-x="576" 
d="M121 -7q-24 0 -37 13.5t-13 37.5v617q0 25 13 38t37 13t37.5 -13t13.5 -38v-277h-14q22 56 69 84.5t108 28.5q58 0 96.5 -21.5t57.5 -65t19 -109.5v-257q0 -24 -13 -37.5t-37 -13.5q-25 0 -38 13.5t-13 37.5v251q0 63 -24.5 92t-76.5 29q-61 0 -97.5 -38t-36.5 -102v-232
q0 -51 -51 -51z" />
    <glyph glyph-name="i" unicode="i" horiz-adv-x="243" 
d="M121 -6q-24 0 -37 14.5t-13 40.5v390q0 26 13 40t37 14t37.5 -14t13.5 -40v-390q0 -26 -13 -40.5t-38 -14.5zM121 597q-30 0 -46.5 15t-16.5 42q0 28 16.5 42.5t46.5 14.5t46.5 -14.5t16.5 -42.5q0 -27 -16.5 -42t-46.5 -15z" />
    <glyph glyph-name="j" unicode="j" horiz-adv-x="246" 
d="M-7 -190q-18 -1 -29.5 6t-16 18t-3 22.5t10 20t22.5 9.5q50 3 73.5 27t23.5 76v455q0 25 13.5 38t37.5 13q25 0 37.5 -13t12.5 -38v-447q0 -62 -20.5 -102.5t-60.5 -60.5t-101 -24zM125 597q-30 0 -46.5 15t-16.5 42q0 28 16.5 42.5t46.5 14.5t46 -14.5t16 -42.5
q0 -27 -16 -42t-46 -15z" />
    <glyph glyph-name="k" unicode="k" horiz-adv-x="516" 
d="M121 -7q-24 0 -37 13.5t-13 37.5v617q0 25 13 38t37 13t37.5 -13t13.5 -38v-386h2l187 186q16 16 29 25t34 9t32 -11t11 -26.5t-15 -31.5l-198 -196v47l216 -215q16 -16 15 -32t-13 -26.5t-30 -10.5q-23 0 -36.5 9t-31.5 27l-200 194h-2v-179q0 -51 -51 -51z" />
    <glyph glyph-name="l" unicode="l" horiz-adv-x="306" 
d="M228 -9q-78 0 -117.5 45.5t-39.5 131.5v493q0 25 13 38t37 13t37.5 -13t13.5 -38v-487q0 -50 20.5 -74.5t59.5 -24.5q9 0 16 0.5t14 1.5q12 1 17 -6.5t5 -30.5q0 -21 -9 -32.5t-29 -14.5q-9 -1 -19 -1.5t-19 -0.5z" />
    <glyph glyph-name="m" unicode="m" horiz-adv-x="866" 
d="M123 -7q-24 0 -37 13.5t-13 37.5v400q0 25 13 38t36 13q24 0 36.5 -13t12.5 -38v-82l-11 22q20 53 62 83t101 30q61 0 99 -29t52 -89h-14q19 55 65 86.5t107 31.5q56 0 92 -21.5t54 -65t18 -109.5v-257q0 -24 -13.5 -37.5t-37.5 -13.5t-37 13.5t-13 37.5v252
q0 62 -21.5 91t-70.5 29q-55 0 -87 -38t-32 -105v-229q0 -24 -13 -37.5t-37 -13.5t-37.5 13.5t-13.5 37.5v252q0 62 -21 91t-70 29q-55 0 -86.5 -38t-31.5 -105v-229q0 -51 -51 -51z" />
    <glyph glyph-name="n" unicode="n" horiz-adv-x="576" 
d="M121 -7q-24 0 -37 13.5t-13 37.5v400q0 25 13 38t36 13q24 0 36.5 -13t12.5 -38v-78l-11 18q22 56 69 84.5t108 28.5q58 0 96.5 -21.5t57.5 -65t19 -109.5v-257q0 -24 -13 -37.5t-37 -13.5q-25 0 -38 13.5t-13 37.5v251q0 63 -24.5 92t-76.5 29q-61 0 -97.5 -38
t-36.5 -102v-232q0 -51 -51 -51z" />
    <glyph glyph-name="o" unicode="o" horiz-adv-x="565" 
d="M283 -9q-74 0 -127.5 31t-83.5 88t-30 134q0 59 17 105t48.5 79.5t76 51t99.5 17.5q73 0 126.5 -31t83.5 -87.5t30 -134.5q0 -58 -17 -105t-48.5 -80t-76 -50.5t-98.5 -17.5zM283 69q41 0 72 20t48.5 59t17.5 96q0 86 -38 130t-100 44q-42 0 -73 -19.5t-48.5 -58.5
t-17.5 -96q0 -85 38 -130t101 -45z" />
    <glyph glyph-name="p" unicode="p" horiz-adv-x="591" 
d="M121 -187q-24 0 -37 13t-13 38v580q0 25 13 38t36 13q24 0 37 -13t13 -38v-87l-11 21q16 54 63 86.5t111 32.5q65 0 113.5 -31t75 -87t26.5 -135q0 -77 -26.5 -134.5t-74.5 -88t-114 -30.5q-63 0 -110 32t-63 85h12v-244q0 -25 -13.5 -38t-37.5 -13zM308 69q42 0 73 20
t48 59t17 96q0 86 -37.5 130t-100.5 44q-41 0 -72.5 -19.5t-48.5 -58.5t-17 -96q0 -85 38 -130t100 -45z" />
    <glyph glyph-name="q" unicode="q" horiz-adv-x="591" 
d="M469 -187q-24 0 -37 13t-13 38v244h11q-16 -53 -62.5 -85t-110.5 -32t-112.5 30.5t-75.5 88t-27 134.5q0 79 27 135t75.5 87t112.5 31q65 0 111.5 -32.5t62.5 -86.5l-11 -21v87q0 25 13 38t37 13t37 -13t13 -38v-580q0 -25 -13.5 -38t-37.5 -13zM283 69q41 0 72 20
t48.5 59t17.5 96q0 86 -38 130t-100 44q-42 0 -73 -19.5t-48.5 -58.5t-17.5 -96q0 -85 38 -130t101 -45z" />
    <glyph glyph-name="r" unicode="r" horiz-adv-x="373" 
d="M122 -7q-25 0 -38 13.5t-13 37.5v400q0 25 13 38t36 13q24 0 36.5 -13t12.5 -38v-73h-10q16 60 59 91t110 36q18 1 28.5 -9t11.5 -31q2 -21 -9 -33.5t-34 -14.5l-19 -2q-65 -6 -99 -41t-34 -96v-227q0 -24 -12.5 -37.5t-38.5 -13.5z" />
    <glyph glyph-name="s" unicode="s" horiz-adv-x="484" 
d="M242 -9q-44 0 -90.5 10t-85.5 34q-13 9 -18 20t-3.5 22.5t9 20t19 10.5t24.5 -5q39 -22 75 -30.5t71 -8.5q53 0 80 19t27 51q0 26 -18 40.5t-54 22.5l-95 19q-62 13 -94 46t-32 84q0 46 25 80t70 52.5t104 18.5q44 0 83 -11t72 -33q13 -7 17 -18.5t1.5 -22.5t-10.5 -19.5
t-19.5 -10t-25.5 5.5q-30 19 -59.5 27t-58.5 8q-53 0 -79.5 -19.5t-26.5 -52.5q0 -25 16 -41t50 -23l95 -19q65 -13 98.5 -44t33.5 -84q0 -69 -55 -109t-146 -40z" />
    <glyph glyph-name="t" unicode="t" horiz-adv-x="365" 
d="M279 -9q-60 0 -101 21t-61 62t-20 100v236h-60q-20 0 -31 10.5t-11 28.5q0 19 11 29t31 10h60v103q0 25 13.5 38t37.5 13t37 -13t13 -38v-103h117q20 0 31 -10t11 -29q0 -18 -11 -28.5t-31 -10.5h-117v-228q0 -53 22.5 -80t73.5 -27q18 0 31.5 3.5t22.5 4.5q11 0 18 -7.5
t7 -28.5q0 -15 -5.5 -28t-19.5 -17q-12 -4 -32.5 -7.5t-36.5 -3.5z" />
    <glyph glyph-name="u" unicode="u" horiz-adv-x="569" 
d="M245 -9q-59 0 -98.5 22t-59 65.5t-19.5 109.5v256q0 26 13 38.5t37 12.5t37.5 -12.5t13.5 -38.5v-257q0 -59 24 -87t76 -28q57 0 92.5 38.5t35.5 101.5v232q0 26 13 38.5t38 12.5q24 0 37 -12.5t13 -38.5v-400q0 -51 -49 -51q-23 0 -36 13.5t-13 37.5v85l13 -22
q-20 -56 -64 -86t-104 -30z" />
    <glyph glyph-name="v" unicode="v" horiz-adv-x="520" 
d="M260 -7q-21 0 -36.5 11t-25.5 34l-167 388q-8 18 -6 34t15 25.5t35 9.5q19 0 30 -9t20 -31l151 -372h-28l154 372q9 22 20.5 31t32.5 9q18 0 28.5 -9.5t13 -25t-5.5 -33.5l-169 -389q-9 -23 -25 -34t-37 -11z" />
    <glyph glyph-name="w" unicode="w" horiz-adv-x="846" 
d="M249 -7q-21 0 -36.5 10.5t-24.5 33.5l-147 389q-8 20 -5 35.5t15.5 24.5t32.5 9q18 0 29.5 -8.5t19.5 -32.5l131 -369h-24l136 373q7 19 19 28t31 9t31.5 -9t18.5 -28l133 -373h-22l133 371q8 23 20.5 31t28.5 8q20 0 30.5 -10t12 -25.5t-5.5 -33.5l-147 -389
q-9 -22 -24.5 -33t-35.5 -11q-21 0 -36.5 11t-24.5 33l-140 379h50l-139 -379q-8 -22 -23.5 -33t-36.5 -11z" />
    <glyph glyph-name="x" unicode="x" horiz-adv-x="534" 
d="M88 -6q-18 0 -29.5 10.5t-12 26.5t13.5 35l169 211v-50l-158 197q-16 18 -15 34.5t13 26.5t29 10q19 0 31.5 -6.5t23.5 -21.5l133 -169h-36l134 169q11 15 23.5 21.5t30.5 6.5t29.5 -10.5t12 -27t-14.5 -34.5l-158 -194v45l169 -208q15 -18 14.5 -34.5t-12.5 -27
t-30 -10.5t-30.5 7t-24.5 21l-143 180h34l-142 -180q-11 -13 -23.5 -20.5t-30.5 -7.5z" />
    <glyph glyph-name="y" unicode="y" horiz-adv-x="520" 
d="M186 -187q-18 0 -29.5 9.5t-13 25t5.5 33.5l68 153v-43l-187 435q-7 18 -5 34t15 25.5t35 9.5q19 0 30 -9t20 -31l151 -373h-28l153 373q9 23 21 31.5t33 8.5q18 0 28.5 -9.5t13 -25t-5.5 -33.5l-250 -575q-10 -23 -22.5 -31t-32.5 -8z" />
    <glyph glyph-name="z" unicode="z" horiz-adv-x="468" 
d="M90 0q-16 0 -26 7.5t-13.5 20t0 27t15.5 27.5l272 353v-25h-254q-19 0 -29 10.5t-10 28.5q0 19 10 29t29 10h302q19 0 30.5 -8t15 -20t0.5 -26t-15 -27l-276 -357v27h267q40 0 40 -38q0 -18 -10.5 -28.5t-29.5 -10.5h-318z" />
    <glyph glyph-name="braceleft" unicode="{" horiz-adv-x="370" 
d="M254 -180q-34 0 -59 12.5t-37.5 37.5t-12.5 61v212q0 41 -15.5 60t-56.5 20q-15 0 -24.5 12t-9.5 28q0 17 9.5 28t24.5 12q41 1 56.5 20t15.5 59v212q0 54 28.5 82.5t80.5 28.5h71q19 0 31 -11t12 -28q0 -16 -10.5 -27.5t-26.5 -11.5h-44q-20 0 -30.5 -11t-10.5 -33v-212
q0 -30 -12.5 -55.5t-33.5 -40.5t-47 -15v4q26 0 47 -14.5t33.5 -39.5t12.5 -56v-212q0 -22 10.5 -33t30.5 -11h44q16 0 26.5 -11.5t10.5 -27.5q0 -17 -12 -28t-31 -11h-71z" />
    <glyph glyph-name="bar" unicode="|" horiz-adv-x="275" 
d="M138 -188q-25 0 -38 13t-13 38v798q0 26 13 38.5t38 12.5q24 0 37 -12.5t13 -38.5v-798q0 -51 -50 -51z" />
    <glyph glyph-name="braceright" unicode="}" horiz-adv-x="370" 
d="M45 -180q-18 0 -30.5 11t-12.5 28q0 16 10.5 27.5t26.5 11.5h44q21 0 31 11t10 33v212q0 31 12.5 56t34 40t46.5 15v-4q-25 0 -46.5 14.5t-34 40t-12.5 55.5v212q0 22 -10 33t-31 11h-44q-16 0 -26.5 11.5t-10.5 27.5q0 17 12.5 28t30.5 11h70q36 0 60.5 -12.5t37 -37.5
t12.5 -61v-212q0 -40 16 -59t55 -20q17 -1 26 -12.5t9 -28.5q0 -15 -9 -27t-26 -12q-39 -1 -55 -20t-16 -60v-212q0 -54 -28 -82.5t-82 -28.5h-70z" />
    <glyph glyph-name="asciitilde" unicode="~" horiz-adv-x="600" 
d="M412 213q-25 0 -53.5 9.5t-67.5 31.5q-39 21 -60.5 28.5t-36.5 7.5q-20 0 -37.5 -8t-32.5 -32q-9 -15 -22 -17t-23.5 5.5t-14.5 20.5t5 28q21 37 52 55.5t67 18.5q25 0 53 -8.5t67 -29.5q35 -19 58 -29t40 -10q20 0 38 8.5t33 32.5q9 15 22 16.5t24 -5.5t14.5 -20
t-5.5 -28q-21 -37 -52 -56t-68 -19z" />
    <glyph glyph-name="uni00A0" unicode="&#xa0;" horiz-adv-x="264" 
 />
    <glyph glyph-name="exclamdown" unicode="&#xa1;" horiz-adv-x="237" 
d="M120 -187q-31 0 -46 18t-13 48l24 382q2 19 10.5 28.5t24.5 9.5q14 0 23 -9.5t10 -28.5l23 -382q2 -30 -12.5 -48t-43.5 -18zM120 365q-29 0 -47 18t-18 45q0 29 18 46.5t47 17.5t46 -17.5t17 -46.5q0 -27 -17 -45t-46 -18z" />
    <glyph glyph-name="cent" unicode="&#xa2;" horiz-adv-x="600" 
d="M320 -122q-18 0 -30 12t-12 30v100l17 -25q-63 8 -110 41t-72.5 87t-25.5 121q0 49 14.5 91t42 75t66 54t84.5 27l-16 -29v111q0 18 12 30t30 12t29.5 -12t11.5 -30v-106l-25 27q40 0 80.5 -11.5t70.5 -32.5q12 -9 16.5 -21t1.5 -24t-11 -20t-20 -9.5t-27 7.5
q-22 15 -50 22.5t-56 7.5q-35 0 -62.5 -12t-47.5 -34t-30.5 -53t-10.5 -68q0 -77 40 -123.5t110 -46.5q27 0 54.5 7t52.5 23q17 10 29 8t19.5 -11t9.5 -21t-3 -24t-18 -20q-29 -20 -69.5 -32.5t-80.5 -13.5l27 24v-96q0 -18 -11.5 -30t-29.5 -12z" />
    <glyph glyph-name="sterling" unicode="&#xa3;" horiz-adv-x="600" 
d="M82 0q-18 0 -30.5 13t-12.5 30q0 19 12.5 31t30.5 12h75l-19 -18v270l18 -21h-79q-16 0 -27 10.5t-11 26.5t11 26t27 10h79l-18 -20v134q0 65 25 112t75 72.5t125 25.5q51 0 102.5 -16t85.5 -43q14 -11 18 -24.5t-0.5 -26t-14.5 -20.5t-23.5 -8.5t-27.5 10.5
q-32 24 -66.5 33.5t-71.5 9.5q-62 0 -93 -31t-31 -90v-136l-11 18h153q16 0 27.5 -10t11.5 -26t-11.5 -26.5t-27.5 -10.5h-142v-231h279q19 0 31.5 -12t12.5 -31q0 -17 -12.5 -30t-31.5 -13h-438z" />
    <glyph glyph-name="currency" unicode="&#xa4;" horiz-adv-x="600" 
d="M50 -11q-11 10 -11 23.5t11 23.5l57 59q-23 31 -36 69.5t-13 80.5q0 43 13 81.5t36 69.5l-57 59q-10 10 -10 23t10 23q9 11 22.5 10.5t24.5 -11.5l57 -58q30 25 67.5 38t78.5 13q40 0 77 -12.5t67 -36.5l55 56q10 11 25 11.5t24 -9.5q11 -11 11 -25t-11 -25l-56 -57
q24 -31 36 -69.5t12 -80.5t-12.5 -80.5t-36.5 -70.5l57 -58q10 -10 10 -23.5t-10 -23.5q-9 -10 -23 -10t-24 11l-56 58q-30 -24 -67 -37.5t-78 -13.5t-78.5 13.5t-68.5 36.5l-57 -57q-10 -11 -23 -11.5t-23 10.5zM299 81q43 0 78 22.5t55.5 59.5t20.5 82q0 46 -20.5 83
t-55.5 59.5t-78 21.5q-42 0 -77.5 -22t-56 -59t-20.5 -83q0 -45 20.5 -82t55.5 -59.5t78 -22.5z" />
    <glyph glyph-name="yen" unicode="&#xa5;" horiz-adv-x="600" 
d="M300 -7q-25 0 -38.5 14t-13.5 40v121h-145q-19 0 -29.5 9.5t-10.5 26.5t10.5 27t29.5 10h145v81h-145q-19 0 -29.5 9.5t-10.5 26.5q0 18 10.5 27.5t29.5 9.5h119v-18l-189 267q-10 15 -8.5 31t13.5 26.5t31 10.5q17 0 28.5 -7.5t22.5 -23.5l192 -277h-24l192 276
q11 18 23 25t29 7q20 0 32 -10.5t13 -26.5t-11 -33l-187 -265v18h118q19 0 29.5 -9.5t10.5 -27.5q0 -17 -10.5 -26.5t-29.5 -9.5h-145v-81h145q19 0 29.5 -10t10.5 -27t-10.5 -26.5t-29.5 -9.5h-145v-121q0 -54 -52 -54z" />
    <glyph glyph-name="brokenbar" unicode="&#xa6;" horiz-adv-x="275" 
d="M138 365q-25 0 -38 13t-13 38v245q0 26 13 38.5t38 12.5q24 0 37 -12.5t13 -38.5v-245q0 -51 -50 -51zM138 -187q-25 0 -38 13t-13 38v245q0 25 13 38.5t38 13.5q24 0 37 -13.5t13 -38.5v-245q0 -51 -50 -51z" />
    <glyph glyph-name="section" unicode="&#xa7;" horiz-adv-x="556" 
d="M255 -189q-54 0 -100.5 11t-80.5 33q-12 8 -16.5 19.5t-2 22.5t10 20t19 11t25.5 -6q30 -17 69.5 -27t75.5 -10q38 0 65.5 11.5t43 34t15.5 55.5t-18 58t-65 47l-118 54q-51 24 -82 50t-44 56t-13 67q0 44 22 83t60 65l-9 -28q-14 15 -23.5 38t-9.5 56q0 57 28.5 97.5
t78 62.5t112.5 22q52 0 97 -11.5t80 -33.5q12 -8 16.5 -19.5t2 -23t-10.5 -20.5t-19.5 -11t-25.5 7q-29 18 -66.5 28t-74.5 10q-35 0 -62 -12t-42.5 -34.5t-15.5 -54.5q0 -34 18 -58.5t66 -46.5l117 -54q53 -24 83 -50t43.5 -56t13.5 -67q0 -45 -22 -83.5t-60 -64.5l8 28
q15 -15 24 -38.5t9 -56.5q0 -56 -28.5 -96.5t-78.5 -62.5t-115 -22zM130 334q0 -33 21.5 -60.5t76.5 -53.5l101 -47q32 -15 54 -31.5t35 -31.5l-28 -3q19 17 28 38.5t9 44.5q0 35 -21.5 62t-77.5 53l-101 46q-31 16 -53.5 32.5t-35.5 31.5l28 3q-18 -17 -27 -38.5t-9 -45.5z
" />
    <glyph glyph-name="dieresis" unicode="&#xa8;" horiz-adv-x="488" 
d="M335 600q-26 0 -40 14t-14 40q0 25 14 38.5t40 13.5q25 0 39 -13.5t14 -38.5q0 -26 -13.5 -40t-39.5 -14zM154 600q-25 0 -39.5 14t-14.5 40q0 25 14.5 38.5t39.5 13.5q26 0 40 -13.5t14 -38.5q0 -26 -14 -40t-40 -14z" />
    <glyph glyph-name="copyright" unicode="&#xa9;" horiz-adv-x="815" 
d="M408 -9q-77 0 -143 27.5t-115 76.5t-76.5 115t-27.5 143t27.5 143t76.5 114.5t115 76t143 27.5t143 -27.5t114.5 -76t76 -114.5t27.5 -143t-27.5 -143t-76 -115t-114.5 -76.5t-143 -27.5zM408 39q67 0 123.5 23.5t98.5 66.5t65.5 100t23.5 124t-23.5 124t-65.5 99.5
t-98.5 66t-123.5 23.5t-124 -23.5t-99 -66t-65.5 -99.5t-23.5 -124t23.5 -124t65.5 -100t99 -66.5t124 -23.5zM423 137q-98 0 -155 59.5t-57 158.5t57 156t155 57q32 0 65 -9.5t60 -27.5q12 -7 16 -17.5t2 -21t-8.5 -18t-17 -9.5t-23.5 6q-22 14 -44 20t-43 6
q-62 0 -96.5 -37.5t-34.5 -105.5q0 -67 34.5 -106.5t96.5 -39.5q21 0 43 6t45 20q16 9 27.5 4.5t17 -16.5t2.5 -25t-16 -22q-27 -18 -60.5 -28t-65.5 -10z" />
    <glyph glyph-name="ordfeminine" unicode="&#xaa;" horiz-adv-x="332" 
d="M136 409q-49 0 -80 26.5t-31 66.5q0 46 41.5 66t116.5 20h57v-40h-54q-48 0 -70.5 -11t-22.5 -34q0 -19 14 -32t45 -13q23 0 41 10t28 29.5t10 46.5v58q0 31 -17 45.5t-52 14.5q-18 0 -38.5 -4t-42.5 -13q-15 -5 -24 0t-12.5 15t1.5 20t18 15q26 11 51.5 15t50.5 4
q44 0 73.5 -13t44 -38.5t14.5 -63.5v-157q0 -33 -32 -33q-16 0 -24 10t-8 24v27h-2q-17 -31 -39.5 -46t-56.5 -15z" />
    <glyph glyph-name="guillemotleft" unicode="&#xab;" horiz-adv-x="465" 
d="M196 86q-14 -5 -27.5 -1.5t-21.5 16.5l-81 131q-10 17 -10 33.5t10 33.5l79 130q9 14 22.5 18t27.5 -2q16 -7 21 -23t-4 -34l-59 -122l59 -123q9 -18 4.5 -34t-20.5 -23zM389 86q-14 -5 -27.5 -1.5t-21.5 16.5l-81 131q-10 17 -10 33.5t10 33.5l79 130q9 14 22.5 18
t27.5 -2q16 -7 21 -23t-4 -34l-59 -122l59 -123q9 -18 4.5 -34t-20.5 -23z" />
    <glyph glyph-name="logicalnot" unicode="&#xac;" horiz-adv-x="600" 
d="M506 137q-20 0 -29.5 10.5t-9.5 29.5v175h-380q-18 0 -28 9.5t-10 27.5q0 17 10 26.5t28 9.5h418q19 0 29 -10t10 -29v-209q0 -40 -38 -40z" />
    <glyph glyph-name="uni00AD" unicode="&#xad;" horiz-adv-x="429" 
d="M105 226q-18 0 -30 12t-12 29q0 18 12 29.5t30 11.5h220q17 0 29 -11.5t12 -29.5q0 -17 -12 -29t-29 -12h-220z" />
    <glyph glyph-name="registered" unicode="&#xae;" horiz-adv-x="815" 
d="M408 -9q-77 0 -143 27.5t-115 76.5t-76.5 115t-27.5 143t27.5 143t76.5 114.5t115 76t143 27.5t143 -27.5t114.5 -76t76 -114.5t27.5 -143t-27.5 -143t-76 -115t-114.5 -76.5t-143 -27.5zM408 39q67 0 123.5 23.5t98.5 66.5t65.5 100t23.5 124t-23.5 124t-65.5 99.5
t-98.5 66t-123.5 23.5t-124 -23.5t-99 -66t-65.5 -99.5t-23.5 -124t23.5 -124t65.5 -100t99 -66.5t124 -23.5zM299 136q-40 0 -40 42v339q0 22 12 34.5t36 12.5h129q69 0 106 -33.5t37 -89.5q0 -58 -37 -88.5t-103 -30.5l16 11q31 0 50.5 -13t33.5 -53l29 -80
q9 -25 -3.5 -38t-33.5 -13q-15 0 -24 9t-14 23l-35 102q-8 23 -25 31t-41 8h-68l15 11v-142q0 -42 -40 -42zM338 371h87q39 0 58 16t19 50t-19 50t-58 16h-87v-132z" />
    <glyph glyph-name="macron" unicode="&#xaf;" horiz-adv-x="512" 
d="M134 621q-34 0 -34 32q0 15 9 23.5t25 8.5h245q33 0 33 -32q0 -15 -8.5 -23.5t-24.5 -8.5h-245z" />
    <glyph glyph-name="degree" unicode="&#xb0;" horiz-adv-x="375" 
d="M188 413q-44 0 -78.5 20t-54.5 54t-20 77t20 76.5t54.5 53.5t78.5 20q43 0 77 -19.5t54 -53.5t20 -77t-20 -77.5t-54 -54t-77 -19.5zM188 475q37 0 60.5 25t23.5 64q0 38 -23.5 63t-60.5 25q-38 0 -62 -25t-24 -63q0 -39 24 -64t62 -25z" />
    <glyph glyph-name="plusminus" unicode="&#xb1;" horiz-adv-x="600" 
d="M300 125q-19 0 -28.5 10.5t-9.5 29.5v129h-175q-18 0 -28 10t-10 28q0 17 10 26.5t28 9.5h175v130q0 19 9.5 29.5t29.5 10.5q18 0 27.5 -10.5t9.5 -29.5v-130h175q19 0 28.5 -9.5t9.5 -26.5q0 -18 -9.5 -28t-28.5 -10h-175v-129q0 -19 -9.5 -29.5t-28.5 -10.5zM87 0
q-18 0 -28 10t-10 27q0 18 10 27.5t28 9.5h426q19 0 28.5 -9.5t9.5 -27.5t-9.5 -27.5t-28.5 -9.5h-426z" />
    <glyph glyph-name="uni00B2" unicode="&#xb2;" horiz-adv-x="380" 
d="M88 282q-17 0 -28 10t-11 26q0 14 5.5 24.5t15.5 20.5l112 118q27 29 38.5 52t11.5 47q0 29 -16.5 44t-48.5 15q-19 0 -40 -6.5t-39 -18.5q-16 -9 -28.5 -5.5t-18.5 15t-3 25t18 23.5q26 18 60 27.5t68 9.5q42 0 72.5 -14.5t47.5 -41.5t17 -63q0 -33 -16 -65t-51 -69
l-108 -113v9h164q36 0 36 -35q0 -16 -9.5 -25.5t-26.5 -9.5h-222z" />
    <glyph glyph-name="uni00B3" unicode="&#xb3;" horiz-adv-x="380" 
d="M186 278q-39 0 -73 9.5t-60 26.5q-15 10 -18.5 24t3 25.5t19 15t30.5 -6.5q21 -13 43.5 -19t46.5 -6q34 0 55.5 15t21.5 46q0 29 -20.5 40.5t-55.5 11.5h-47q-19 0 -28.5 9.5t-9.5 26.5q0 16 9.5 25.5t28.5 9.5h35q36 0 56 13.5t20 41.5q0 24 -18 38.5t-52 14.5
q-19 0 -40 -6t-40 -17q-17 -10 -31 -6.5t-20 14.5t-3 24.5t18 23.5q26 18 60.5 27.5t68.5 9.5q64 0 101.5 -30t37.5 -80q0 -41 -25.5 -68.5t-60.5 -36.5v10q44 -5 71 -32t27 -74q0 -38 -20 -65t-53.5 -41t-76.5 -14z" />
    <glyph glyph-name="acute" unicode="&#xb4;" horiz-adv-x="366" 
d="M159 558q-8 -12 -19.5 -14t-22.5 4t-15.5 17t1.5 24l81 157q8 16 20.5 21t26 1.5t23 -12.5t11.5 -22.5t-7 -26.5z" />
    <glyph glyph-name="uni00B5" unicode="&#xb5;" horiz-adv-x="600" 
d="M136 -187q-24 0 -37 13t-13 38v580q0 26 13 38.5t37 12.5t37.5 -12.5t13.5 -38.5v-256q0 -59 23.5 -86.5t76.5 -27.5q56 0 92 37.5t36 101.5v231q0 26 13 38.5t37 12.5t37.5 -12.5t13.5 -38.5v-400q0 -51 -49 -51q-24 0 -37 12.5t-13 31.5v70h7q-14 -56 -52.5 -86
t-87.5 -30q-40 0 -69.5 14.5t-45.5 54.5h9l7 -195q1 -25 -11.5 -38.5t-37.5 -13.5z" />
    <glyph glyph-name="paragraph" unicode="&#xb6;" horiz-adv-x="604" 
d="M284 -187q-18 0 -28 10t-10 29v445q-62 0 -108 26.5t-71.5 72t-25.5 106.5q0 60 25.5 105.5t72 71.5t109.5 26h224q24 0 37.5 -13t13.5 -37v-803q0 -39 -39 -39q-19 0 -28.5 10t-9.5 29v779h-123v-779q0 -39 -39 -39z" />
    <glyph glyph-name="periodcentered" unicode="&#xb7;" horiz-adv-x="237" 
d="M120 204q-29 0 -47 17.5t-18 45.5t18 45.5t47 17.5t46 -17.5t17 -45.5t-17 -45.5t-46 -17.5z" />
    <glyph glyph-name="cedilla" unicode="&#xb8;" horiz-adv-x="411" 
d="M195 -194q-18 0 -38.5 3t-36.5 9q-13 5 -17.5 15t-1.5 20t12.5 15.5t22.5 -0.5q12 -4 25 -6t28 -2q26 0 41.5 8.5t15.5 24.5q0 12 -9 19t-29 7q-7 0 -15 -0.5t-17 -3.5q-7 -2 -12.5 -2t-10.5 4q-4 4 -5 10t0 15l12 78h58l-13 -76l-28 9q12 3 24 5t22 2q39 0 63 -18
t24 -52q0 -37 -32 -60.5t-83 -23.5z" />
    <glyph glyph-name="uni00B9" unicode="&#xb9;" horiz-adv-x="380" 
d="M109 282q-36 0 -36 35q0 17 9 26t27 9h65v280h36l-83 -50q-17 -10 -31.5 -5.5t-21 16.5t-3 26.5t20.5 24.5l82 49q12 7 23 11t23 4t20 -4.5t12 -13t4 -20.5v-318h47q37 0 37 -35q0 -16 -9.5 -25.5t-27.5 -9.5h-194z" />
    <glyph glyph-name="ordmasculine" unicode="&#xba;" horiz-adv-x="345" 
d="M173 410q-44 0 -78 19t-54 53.5t-20 80.5q0 47 20 80.5t54 52t78 18.5t78 -18.5t53.5 -52t19.5 -80.5q0 -46 -19.5 -80.5t-53.5 -53.5t-78 -19zM173 464q38 0 60 25.5t22 73.5t-22 73t-60 25t-60.5 -24.5t-22.5 -73.5t22.5 -74t60.5 -25z" />
    <glyph glyph-name="guillemotright" unicode="&#xbb;" horiz-adv-x="465" 
d="M76 86q-15 7 -19.5 23t3.5 34l60 123l-60 122q-8 18 -2.5 34t20.5 23q14 6 28 2t22 -18l78 -130q11 -17 11 -33.5t-11 -33.5l-80 -131q-8 -13 -22 -16.5t-28 1.5zM269 86q-15 7 -19.5 23t3.5 34l60 123l-60 122q-8 18 -2.5 34t20.5 23q14 6 28 2t22 -18l78 -130
q11 -17 11 -33.5t-11 -33.5l-80 -131q-8 -13 -22 -16.5t-28 1.5z" />
    <glyph glyph-name="onequarter" unicode="&#xbc;" horiz-adv-x="902" 
d="M109 282q-36 0 -36 35q0 17 9 26t27 9h65v280h36l-83 -50q-17 -10 -31.5 -5.5t-21 16.5t-3 26.5t20.5 24.5l82 49q12 7 23 11t23 4t20 -4.5t12 -13t4 -20.5v-318h47q37 0 37 -35q0 -16 -9.5 -25.5t-27.5 -9.5h-194zM320 4q-9 -14 -20 -18.5t-22.5 -1.5t-20 11t-10.5 21
t7 27l380 658q8 14 20 18.5t23.5 1.5t19.5 -11.5t9.5 -21t-6.5 -26.5zM784 -4q-20 0 -31 10.5t-11 28.5v43h-151q-20 0 -31 10.5t-11 26.5q0 12 6 23t15 24l162 237q5 7 17 17.5t33 10.5t31.5 -11.5t10.5 -32.5v-235h29q14 0 24 -8.5t10 -25.5q0 -20 -10 -28t-24 -8h-29v-43
q0 -18 -10.5 -28.5t-29.5 -10.5zM742 148v187h20l-141 -205v18h121z" />
    <glyph glyph-name="onehalf" unicode="&#xbd;" horiz-adv-x="948" 
d="M109 282q-36 0 -36 35q0 17 9 26t27 9h65v280h36l-83 -50q-17 -10 -31.5 -5.5t-21 16.5t-3 26.5t20.5 24.5l82 49q12 7 23 11t23 4t20 -4.5t12 -13t4 -20.5v-318h47q37 0 37 -35q0 -16 -9.5 -25.5t-27.5 -9.5h-194zM320 4q-9 -14 -20 -18.5t-22.5 -1.5t-20 11t-10.5 21
t7 27l380 658q8 14 20 18.5t23.5 1.5t19.5 -11.5t9.5 -21t-6.5 -26.5zM656 0q-17 0 -28 10t-11 26q0 14 5.5 24.5t15.5 20.5l112 118q27 29 38.5 52t11.5 47q0 29 -16.5 44t-48.5 15q-19 0 -40 -6.5t-39 -18.5q-16 -9 -28.5 -5.5t-18.5 15t-3 25t18 23.5q26 18 60 27.5
t68 9.5q42 0 72.5 -14.5t47.5 -41.5t17 -63q0 -33 -16 -65t-51 -69l-108 -113v9h164q36 0 36 -35q0 -16 -9.5 -25.5t-26.5 -9.5h-222z" />
    <glyph glyph-name="threequarters" unicode="&#xbe;" horiz-adv-x="902" 
d="M186 278q-39 0 -73 9.5t-60 26.5q-15 10 -18.5 24t3 25.5t19 15t30.5 -6.5q21 -13 43.5 -19t46.5 -6q34 0 55.5 15t21.5 46q0 29 -20.5 40.5t-55.5 11.5h-47q-19 0 -28.5 9.5t-9.5 26.5q0 16 9.5 25.5t28.5 9.5h35q36 0 56 13.5t20 41.5q0 24 -18 38.5t-52 14.5
q-19 0 -40 -6t-40 -17q-17 -10 -31 -6.5t-20 14.5t-3 24.5t18 23.5q26 18 60.5 27.5t68.5 9.5q64 0 101.5 -30t37.5 -80q0 -41 -25.5 -68.5t-60.5 -36.5v10q44 -5 71 -32t27 -74q0 -38 -20 -65t-53.5 -41t-76.5 -14zM320 4q-9 -14 -20 -18.5t-22.5 -1.5t-20 11t-10.5 21
t7 27l380 658q8 14 20 18.5t23.5 1.5t19.5 -11.5t9.5 -21t-6.5 -26.5zM784 -4q-20 0 -31 10.5t-11 28.5v43h-151q-20 0 -31 10.5t-11 26.5q0 12 6 23t15 24l162 237q5 7 17 17.5t33 10.5t31.5 -11.5t10.5 -32.5v-235h29q14 0 24 -8.5t10 -25.5q0 -20 -10 -28t-24 -8h-29v-43
q0 -18 -10.5 -28.5t-29.5 -10.5zM742 148v187h20l-141 -205v18h121z" />
    <glyph glyph-name="questiondown" unicode="&#xbf;" horiz-adv-x="450" 
d="M221 -189q-60 0 -105 19t-70 53.5t-25 79.5q0 43 19.5 80.5t71.5 84.5q32 28 50.5 51.5t27.5 45t12 43.5q1 13 9.5 21t23.5 8q16 0 24.5 -10t8.5 -28q0 -27 -7.5 -53.5t-25 -54t-48.5 -59.5q-37 -36 -50 -61.5t-13 -52.5q0 -36 27 -57.5t75 -21.5q43 0 80 11.5t71 33.5
q18 11 33.5 10t25 -10t12 -22.5t-4 -27.5t-24.5 -25q-41 -27 -91 -42.5t-107 -15.5zM237 365q-29 0 -46.5 17.5t-17.5 45.5t17.5 46t46.5 18t46.5 -18t17.5 -46t-17.5 -45.5t-46.5 -17.5z" />
    <glyph glyph-name="Agrave" unicode="&#xc0;" horiz-adv-x="736" 
d="M78 -7q-20 0 -32 9t-14 24t6 34l271 608q10 24 25.5 34t34.5 10q18 0 33.5 -10t25.5 -34l271 -608q9 -19 7 -34.5t-13 -24t-31 -8.5q-22 0 -35 11t-23 34l-70 162l47 -28h-426l46 28l-69 -162q-10 -24 -22 -34.5t-32 -10.5zM367 590l-151 -358l-25 24h353l-23 -24
l-152 358h-2zM327 770l-100 115q-11 12 -10.5 24.5t9 22t21 14t25.5 1t23 -17.5l84 -123q8 -12 5 -23t-12.5 -18t-22 -6.5t-22.5 11.5z" />
    <glyph glyph-name="Aacute" unicode="&#xc1;" horiz-adv-x="736" 
d="M78 -7q-20 0 -32 9t-14 24t6 34l271 608q10 24 25.5 34t34.5 10q18 0 33.5 -10t25.5 -34l271 -608q9 -19 7 -34.5t-13 -24t-31 -8.5q-22 0 -35 11t-23 34l-70 162l47 -28h-426l46 28l-69 -162q-10 -24 -22 -34.5t-32 -10.5zM367 590l-151 -358l-25 24h353l-23 -24
l-152 358h-2zM411 770q-10 -11 -22 -11.5t-21.5 6.5t-12.5 18t5 23l84 123q9 14 22.5 17.5t26 -1t20.5 -14t9 -22t-10 -24.5z" />
    <glyph glyph-name="Acircumflex" unicode="&#xc2;" horiz-adv-x="736" 
d="M78 -7q-20 0 -32 9t-14 24t6 34l271 608q10 24 25.5 34t34.5 10q18 0 33.5 -10t25.5 -34l271 -608q9 -19 7 -34.5t-13 -24t-31 -8.5q-22 0 -35 11t-23 34l-70 162l47 -28h-426l46 28l-69 -162q-10 -24 -22 -34.5t-32 -10.5zM367 590l-151 -358l-25 24h353l-23 -24
l-152 358h-2zM278 770q-10 -12 -22.5 -13t-22 5.5t-12.5 17t6 22.5l81 113q12 18 27.5 25.5t33.5 7.5q19 0 34 -7.5t28 -25.5l80 -113q10 -12 7 -22.5t-12.5 -17t-22 -5.5t-23.5 13l-91 107z" />
    <glyph glyph-name="Atilde" unicode="&#xc3;" horiz-adv-x="736" 
d="M78 -7q-20 0 -32 9t-14 24t6 34l271 608q10 24 25.5 34t34.5 10q18 0 33.5 -10t25.5 -34l271 -608q9 -19 7 -34.5t-13 -24t-31 -8.5q-22 0 -35 11t-23 34l-70 162l47 -28h-426l46 28l-69 -162q-10 -24 -22 -34.5t-32 -10.5zM367 590l-151 -358l-25 24h353l-23 -24
l-152 358h-2zM183 775q-14 0 -21.5 9t-4.5 24q11 54 44 83.5t79 29.5q28 0 52 -10.5t46 -24.5t42.5 -25t40.5 -11q26 0 42.5 15.5t21.5 39.5q4 12 11.5 18t18.5 5q14 -1 21.5 -9.5t4.5 -23.5q-11 -54 -43 -84t-79 -30q-28 0 -52.5 11t-46.5 25t-42.5 25t-40.5 11
q-26 0 -42.5 -15.5t-21.5 -39.5q-3 -12 -10.5 -18t-19.5 -5z" />
    <glyph glyph-name="Adieresis" unicode="&#xc4;" horiz-adv-x="736" 
d="M78 -7q-20 0 -32 9t-14 24t6 34l271 608q10 24 25.5 34t34.5 10q18 0 33.5 -10t25.5 -34l271 -608q9 -19 7 -34.5t-13 -24t-31 -8.5q-22 0 -35 11t-23 34l-70 162l47 -28h-426l46 28l-69 -162q-10 -24 -22 -34.5t-32 -10.5zM367 590l-151 -358l-25 24h353l-23 -24
l-152 358h-2zM460 795q-26 0 -40 14t-14 40q0 25 14 38.5t40 13.5q25 0 39 -13.5t14 -38.5q0 -26 -13.5 -40t-39.5 -14zM279 795q-25 0 -39.5 14t-14.5 40q0 25 14.5 38.5t39.5 13.5q26 0 40 -13.5t14 -38.5q0 -26 -14 -40t-40 -14z" />
    <glyph glyph-name="Aring" unicode="&#xc5;" horiz-adv-x="736" 
d="M78 -7q-20 0 -32 9t-14 24t6 34l271 608q10 24 25.5 34t34.5 10q18 0 33.5 -10t25.5 -34l271 -608q9 -19 7 -34.5t-13 -24t-31 -8.5q-22 0 -35 11t-23 34l-70 162l47 -28h-426l46 28l-69 -162q-10 -24 -22 -34.5t-32 -10.5zM367 590l-151 -358l-25 24h353l-23 -24
l-152 358h-2zM369 756q-34 0 -62 16.5t-44 43.5t-16 60q0 34 16 60.5t44 42t62 15.5q35 0 62.5 -15.5t43.5 -42t16 -60.5q0 -33 -16 -60t-43.5 -43.5t-62.5 -16.5zM369 806q31 0 50 20t19 50q0 29 -19 48.5t-50 19.5q-30 0 -49.5 -19.5t-19.5 -48.5q0 -30 19.5 -50t49.5 -20
z" />
    <glyph glyph-name="AE" unicode="&#xc6;" horiz-adv-x="987" 
d="M47 -7q-22 0 -34 9t-12 24t10 32l379 617q9 16 22 23t31 7h455q22 0 33.5 -10.5t11.5 -30.5q0 -21 -11.5 -32t-33.5 -11h-408l24 31l60 -280l-36 28h340q21 0 32.5 -11t11.5 -31q0 -21 -11.5 -31.5t-32.5 -10.5h-322l24 28l63 -292l-39 32h294q22 0 33.5 -11t11.5 -31
q0 -21 -11.5 -31.5t-33.5 -10.5h-297q-40 0 -49 39l-35 164l36 -31h-389l40 28l-104 -174q-9 -16 -21 -24.5t-32 -8.5zM433 587l-211 -356l-9 25h318l-19 -27l-77 358h-2z" />
    <glyph glyph-name="Ccedilla" unicode="&#xc7;" horiz-adv-x="676" 
d="M398 -9q-107 0 -183 44t-116.5 125.5t-40.5 192.5q0 83 23 149.5t66.5 114t107 72.5t143.5 25q59 0 113.5 -16t94.5 -46q17 -11 22.5 -26.5t2 -29.5t-13.5 -23.5t-25.5 -10.5t-33.5 11q-33 25 -73 37t-84 12q-76 0 -128 -31.5t-79 -91.5t-27 -146t27 -146.5t79 -92
t128 -31.5q44 0 84.5 12.5t76.5 37.5q18 11 32.5 10t24.5 -10t13.5 -22.5t-1 -28t-19.5 -24.5q-41 -33 -97 -50t-117 -17zM390 -194q-18 0 -38.5 3t-36.5 9q-13 5 -17.5 15t-1.5 20t12.5 15.5t22.5 -0.5q12 -4 25 -6t28 -2q26 0 41.5 8.5t15.5 24.5q0 12 -9 19t-29 7
q-7 0 -15 -0.5t-17 -3.5q-7 -2 -12.5 -2t-10.5 4q-4 4 -5 10t0 15l12 78h58l-13 -76l-28 9q12 3 24 5t22 2q39 0 63 -18t24 -52q0 -37 -32 -60.5t-83 -23.5z" />
    <glyph glyph-name="Egrave" unicode="&#xc8;" horiz-adv-x="589" 
d="M138 0q-27 0 -41.5 14.5t-14.5 41.5v593q0 27 14.5 41.5t41.5 14.5h365q21 0 32 -10.5t11 -30.5q0 -21 -11 -32t-32 -11h-321v-221h299q22 0 32.5 -11t10.5 -31q0 -21 -10.5 -31.5t-32.5 -10.5h-299v-232h321q21 0 32 -11t11 -31q0 -21 -11 -31.5t-32 -10.5h-365z
M284 770l-100 115q-11 12 -10.5 24.5t9 22t21 14t25.5 1t23 -17.5l84 -123q8 -12 5 -23t-12.5 -18t-22 -6.5t-22.5 11.5z" />
    <glyph glyph-name="Eacute" unicode="&#xc9;" horiz-adv-x="589" 
d="M138 0q-27 0 -41.5 14.5t-14.5 41.5v593q0 27 14.5 41.5t41.5 14.5h365q21 0 32 -10.5t11 -30.5q0 -21 -11 -32t-32 -11h-321v-221h299q22 0 32.5 -11t10.5 -31q0 -21 -10.5 -31.5t-32.5 -10.5h-299v-232h321q21 0 32 -11t11 -31q0 -21 -11 -31.5t-32 -10.5h-365z
M368 770q-10 -11 -22 -11.5t-21.5 6.5t-12.5 18t5 23l84 123q9 14 22.5 17.5t26 -1t20.5 -14t9 -22t-10 -24.5z" />
    <glyph glyph-name="Ecircumflex" unicode="&#xca;" horiz-adv-x="589" 
d="M138 0q-27 0 -41.5 14.5t-14.5 41.5v593q0 27 14.5 41.5t41.5 14.5h365q21 0 32 -10.5t11 -30.5q0 -21 -11 -32t-32 -11h-321v-221h299q22 0 32.5 -11t10.5 -31q0 -21 -10.5 -31.5t-32.5 -10.5h-299v-232h321q21 0 32 -11t11 -31q0 -21 -11 -31.5t-32 -10.5h-365z
M235 770q-10 -12 -22.5 -13t-22 5.5t-12.5 17t6 22.5l81 113q12 18 27.5 25.5t33.5 7.5q19 0 34 -7.5t28 -25.5l80 -113q10 -12 7 -22.5t-12.5 -17t-22 -5.5t-23.5 13l-91 107z" />
    <glyph glyph-name="Edieresis" unicode="&#xcb;" horiz-adv-x="589" 
d="M138 0q-27 0 -41.5 14.5t-14.5 41.5v593q0 27 14.5 41.5t41.5 14.5h365q21 0 32 -10.5t11 -30.5q0 -21 -11 -32t-32 -11h-321v-221h299q22 0 32.5 -11t10.5 -31q0 -21 -10.5 -31.5t-32.5 -10.5h-299v-232h321q21 0 32 -11t11 -31q0 -21 -11 -31.5t-32 -10.5h-365z
M417 795q-26 0 -40 14t-14 40q0 25 14 38.5t40 13.5q25 0 39 -13.5t14 -38.5q0 -26 -13.5 -40t-39.5 -14zM236 795q-25 0 -39.5 14t-14.5 40q0 25 14.5 38.5t39.5 13.5q26 0 40 -13.5t14 -38.5q0 -26 -14 -40t-40 -14z" />
    <glyph glyph-name="Igrave" unicode="&#xcc;" horiz-adv-x="268" 
d="M134 -7q-25 0 -38.5 14t-13.5 39v613q0 26 13.5 39.5t38.5 13.5t38.5 -13.5t13.5 -39.5v-613q0 -25 -13 -39t-39 -14zM92 770l-100 115q-11 12 -10.5 24.5t9 22t21 14t25.5 1t23 -17.5l84 -123q8 -12 5 -23t-12.5 -18t-22 -6.5t-22.5 11.5z" />
    <glyph glyph-name="Iacute" unicode="&#xcd;" horiz-adv-x="268" 
d="M134 -7q-25 0 -38.5 14t-13.5 39v613q0 26 13.5 39.5t38.5 13.5t38.5 -13.5t13.5 -39.5v-613q0 -25 -13 -39t-39 -14zM176 770q-10 -11 -22 -11.5t-21.5 6.5t-12.5 18t5 23l84 123q9 14 22.5 17.5t26 -1t20.5 -14t9 -22t-10 -24.5z" />
    <glyph glyph-name="Icircumflex" unicode="&#xce;" horiz-adv-x="268" 
d="M134 -7q-25 0 -38.5 14t-13.5 39v613q0 26 13.5 39.5t38.5 13.5t38.5 -13.5t13.5 -39.5v-613q0 -25 -13 -39t-39 -14zM43 770q-10 -12 -22.5 -13t-22 5.5t-12.5 17t6 22.5l81 113q12 18 27.5 25.5t33.5 7.5q19 0 34 -7.5t28 -25.5l80 -113q10 -12 7 -22.5t-12.5 -17
t-22 -5.5t-23.5 13l-91 107z" />
    <glyph glyph-name="Idieresis" unicode="&#xcf;" horiz-adv-x="268" 
d="M134 -7q-25 0 -38.5 14t-13.5 39v613q0 26 13.5 39.5t38.5 13.5t38.5 -13.5t13.5 -39.5v-613q0 -25 -13 -39t-39 -14zM225 795q-26 0 -40 14t-14 40q0 25 14 38.5t40 13.5q25 0 39 -13.5t14 -38.5q0 -26 -13.5 -40t-39.5 -14zM44 795q-25 0 -39.5 14t-14.5 40
q0 25 14.5 38.5t39.5 13.5q26 0 40 -13.5t14 -38.5q0 -26 -14 -40t-40 -14z" />
    <glyph glyph-name="Eth" unicode="&#xd0;" horiz-adv-x="751" 
d="M138 0q-27 0 -41.5 14.5t-14.5 41.5v593q0 27 14.5 41.5t41.5 14.5h193q174 0 268.5 -90.5t94.5 -261.5q0 -85 -24 -151t-70.5 -110.5t-113.5 -68t-155 -23.5h-193zM186 87h139q66 0 114.5 16.5t81.5 49.5t49 83t16 117q0 133 -65.5 199t-195.5 66h-139v-531zM28 319
q-20 0 -30 10t-10 29q0 18 10 28t30 10h319q19 0 29.5 -9.5t10.5 -28.5t-10.5 -29t-29.5 -10h-319z" />
    <glyph glyph-name="Ntilde" unicode="&#xd1;" horiz-adv-x="743" 
d="M131 -7q-23 0 -36 13t-13 37v617q0 25 12.5 38.5t33.5 13.5q18 0 27.5 -6.5t22.5 -23.5l412 -543h-25v524q0 23 12.5 36t35.5 13q24 0 36 -13t12 -36v-621q0 -23 -11.5 -36t-30.5 -13q-18 0 -29.5 7t-24.5 24l-410 542h23v-523q0 -24 -12 -37t-35 -13zM186 775
q-14 0 -21.5 9t-4.5 24q11 54 44 83.5t79 29.5q28 0 52 -10.5t46 -24.5t42.5 -25t40.5 -11q26 0 42.5 15.5t21.5 39.5q4 12 11.5 18t18.5 5q14 -1 21.5 -9.5t4.5 -23.5q-11 -54 -43 -84t-79 -30q-28 0 -52.5 11t-46.5 25t-42.5 25t-40.5 11q-26 0 -42.5 -15.5t-21.5 -39.5
q-3 -12 -10.5 -18t-19.5 -5z" />
    <glyph glyph-name="Ograve" unicode="&#xd2;" horiz-adv-x="775" 
d="M388 -9q-100 0 -174.5 44.5t-115 126t-40.5 191.5q0 83 23 149.5t66 114t104 72.5t137 25q101 0 175 -44t114.5 -125t40.5 -191q0 -83 -23 -150t-66.5 -115t-104.5 -73t-136 -25zM388 81q70 0 119.5 32t76 93t26.5 147q0 129 -58 200t-164 71q-70 0 -119.5 -31.5
t-76 -92.5t-26.5 -147q0 -128 58.5 -200t163.5 -72zM345 770l-100 115q-11 12 -10.5 24.5t9 22t21 14t25.5 1t23 -17.5l84 -123q8 -12 5 -23t-12.5 -18t-22 -6.5t-22.5 11.5z" />
    <glyph glyph-name="Oacute" unicode="&#xd3;" horiz-adv-x="775" 
d="M388 -9q-100 0 -174.5 44.5t-115 126t-40.5 191.5q0 83 23 149.5t66 114t104 72.5t137 25q101 0 175 -44t114.5 -125t40.5 -191q0 -83 -23 -150t-66.5 -115t-104.5 -73t-136 -25zM388 81q70 0 119.5 32t76 93t26.5 147q0 129 -58 200t-164 71q-70 0 -119.5 -31.5
t-76 -92.5t-26.5 -147q0 -128 58.5 -200t163.5 -72zM429 770q-10 -11 -22 -11.5t-21.5 6.5t-12.5 18t5 23l84 123q9 14 22.5 17.5t26 -1t20.5 -14t9 -22t-10 -24.5z" />
    <glyph glyph-name="Ocircumflex" unicode="&#xd4;" horiz-adv-x="775" 
d="M388 -9q-100 0 -174.5 44.5t-115 126t-40.5 191.5q0 83 23 149.5t66 114t104 72.5t137 25q101 0 175 -44t114.5 -125t40.5 -191q0 -83 -23 -150t-66.5 -115t-104.5 -73t-136 -25zM388 81q70 0 119.5 32t76 93t26.5 147q0 129 -58 200t-164 71q-70 0 -119.5 -31.5
t-76 -92.5t-26.5 -147q0 -128 58.5 -200t163.5 -72zM296 770q-10 -12 -22.5 -13t-22 5.5t-12.5 17t6 22.5l81 113q12 18 27.5 25.5t33.5 7.5q19 0 34 -7.5t28 -25.5l80 -113q10 -12 7 -22.5t-12.5 -17t-22 -5.5t-23.5 13l-91 107z" />
    <glyph glyph-name="Otilde" unicode="&#xd5;" horiz-adv-x="775" 
d="M388 -9q-100 0 -174.5 44.5t-115 126t-40.5 191.5q0 83 23 149.5t66 114t104 72.5t137 25q101 0 175 -44t114.5 -125t40.5 -191q0 -83 -23 -150t-66.5 -115t-104.5 -73t-136 -25zM388 81q70 0 119.5 32t76 93t26.5 147q0 129 -58 200t-164 71q-70 0 -119.5 -31.5
t-76 -92.5t-26.5 -147q0 -128 58.5 -200t163.5 -72zM201 775q-14 0 -21.5 9t-4.5 24q11 54 44 83.5t79 29.5q28 0 52 -10.5t46 -24.5t42.5 -25t40.5 -11q26 0 42.5 15.5t21.5 39.5q4 12 11.5 18t18.5 5q14 -1 21.5 -9.5t4.5 -23.5q-11 -54 -43 -84t-79 -30q-28 0 -52.5 11
t-46.5 25t-42.5 25t-40.5 11q-26 0 -42.5 -15.5t-21.5 -39.5q-3 -12 -10.5 -18t-19.5 -5z" />
    <glyph glyph-name="Odieresis" unicode="&#xd6;" horiz-adv-x="775" 
d="M388 -9q-100 0 -174.5 44.5t-115 126t-40.5 191.5q0 83 23 149.5t66 114t104 72.5t137 25q101 0 175 -44t114.5 -125t40.5 -191q0 -83 -23 -150t-66.5 -115t-104.5 -73t-136 -25zM388 81q70 0 119.5 32t76 93t26.5 147q0 129 -58 200t-164 71q-70 0 -119.5 -31.5
t-76 -92.5t-26.5 -147q0 -128 58.5 -200t163.5 -72zM478 795q-26 0 -40 14t-14 40q0 25 14 38.5t40 13.5q25 0 39 -13.5t14 -38.5q0 -26 -13.5 -40t-39.5 -14zM297 795q-25 0 -39.5 14t-14.5 40q0 25 14.5 38.5t39.5 13.5q26 0 40 -13.5t14 -38.5q0 -26 -14 -40t-40 -14z
" />
    <glyph glyph-name="multiply" unicode="&#xd7;" horiz-adv-x="600" 
d="M140 73q-13 -13 -28 -12t-25 11t-11 25t13 28l159 160l-162 162q-11 11 -12.5 23t4 22t15.5 15.5t22.5 4t23.5 -12.5l161 -161l161 161q14 14 29 13t25.5 -11.5t11.5 -25t-13 -28.5l-162 -162l159 -160q11 -11 13 -22.5t-4 -21.5t-15.5 -15.5t-21.5 -4.5t-23 12l-160 160
z" />
    <glyph glyph-name="Oslash" unicode="&#xd8;" horiz-adv-x="775" 
d="M388 -9q-100 0 -174.5 44.5t-115 126t-40.5 191.5q0 83 23 149.5t66 114t104 72.5t137 25q101 0 175 -44t114.5 -125t40.5 -191q0 -83 -23 -150t-66.5 -115t-104.5 -73t-136 -25zM388 81q70 0 119.5 32t76 93t26.5 147q0 129 -58 200t-164 71q-70 0 -119.5 -31.5
t-76 -92.5t-26.5 -147q0 -128 58.5 -200t163.5 -72zM213 -27q-9 -14 -20.5 -18.5t-23.5 -1t-21 12.5t-10.5 22t6.5 27l43 73l30 49l280 481l23 40l43 74q8 14 19.5 18.5t24 1t21 -12t10.5 -21.5t-7 -28l-43 -73l-29 -49l-281 -480l-22 -41z" />
    <glyph glyph-name="Ugrave" unicode="&#xd9;" horiz-adv-x="733" 
d="M367 -9q-71 0 -125 18.5t-90.5 55.5t-55.5 92t-19 127v376q0 26 13.5 39t38.5 13t38.5 -13t13.5 -39v-374q0 -103 47.5 -154t138.5 -51q92 0 139 51t47 154v374q0 26 13.5 39t37.5 13q25 0 38 -13t13 -39v-376q0 -96 -32.5 -161.5t-96.5 -98.5t-159 -33zM325 770
l-100 115q-11 12 -10.5 24.5t9 22t21 14t25.5 1t23 -17.5l84 -123q8 -12 5 -23t-12.5 -18t-22 -6.5t-22.5 11.5z" />
    <glyph glyph-name="Uacute" unicode="&#xda;" horiz-adv-x="733" 
d="M367 -9q-71 0 -125 18.5t-90.5 55.5t-55.5 92t-19 127v376q0 26 13.5 39t38.5 13t38.5 -13t13.5 -39v-374q0 -103 47.5 -154t138.5 -51q92 0 139 51t47 154v374q0 26 13.5 39t37.5 13q25 0 38 -13t13 -39v-376q0 -96 -32.5 -161.5t-96.5 -98.5t-159 -33zM409 770
q-10 -11 -22 -11.5t-21.5 6.5t-12.5 18t5 23l84 123q9 14 22.5 17.5t26 -1t20.5 -14t9 -22t-10 -24.5z" />
    <glyph glyph-name="Ucircumflex" unicode="&#xdb;" horiz-adv-x="733" 
d="M367 -9q-71 0 -125 18.5t-90.5 55.5t-55.5 92t-19 127v376q0 26 13.5 39t38.5 13t38.5 -13t13.5 -39v-374q0 -103 47.5 -154t138.5 -51q92 0 139 51t47 154v374q0 26 13.5 39t37.5 13q25 0 38 -13t13 -39v-376q0 -96 -32.5 -161.5t-96.5 -98.5t-159 -33zM276 770
q-10 -12 -22.5 -13t-22 5.5t-12.5 17t6 22.5l81 113q12 18 27.5 25.5t33.5 7.5q19 0 34 -7.5t28 -25.5l80 -113q10 -12 7 -22.5t-12.5 -17t-22 -5.5t-23.5 13l-91 107z" />
    <glyph glyph-name="Udieresis" unicode="&#xdc;" horiz-adv-x="733" 
d="M367 -9q-71 0 -125 18.5t-90.5 55.5t-55.5 92t-19 127v376q0 26 13.5 39t38.5 13t38.5 -13t13.5 -39v-374q0 -103 47.5 -154t138.5 -51q92 0 139 51t47 154v374q0 26 13.5 39t37.5 13q25 0 38 -13t13 -39v-376q0 -96 -32.5 -161.5t-96.5 -98.5t-159 -33zM458 795
q-26 0 -40 14t-14 40q0 25 14 38.5t40 13.5q25 0 39 -13.5t14 -38.5q0 -26 -13.5 -40t-39.5 -14zM277 795q-25 0 -39.5 14t-14.5 40q0 25 14.5 38.5t39.5 13.5q26 0 40 -13.5t14 -38.5q0 -26 -14 -40t-40 -14z" />
    <glyph glyph-name="Yacute" unicode="&#xdd;" horiz-adv-x="606" 
d="M303 -7q-25 0 -38.5 14t-13.5 40v317l23 -66l-247 343q-11 15 -10 31.5t13.5 28t33.5 11.5q16 0 29.5 -8t25.5 -25l198 -275h-24l198 275q13 18 25 25.5t30 7.5q21 0 32.5 -10.5t12 -27t-12.5 -34.5l-245 -342l21 66v-317q0 -54 -51 -54zM345 770q-10 -11 -22 -11.5
t-21.5 6.5t-12.5 18t5 23l84 123q9 14 22.5 17.5t26 -1t20.5 -14t9 -22t-10 -24.5z" />
    <glyph glyph-name="Thorn" unicode="&#xde;" horiz-adv-x="644" 
d="M134 -4q-25 0 -38.5 14t-13.5 39v607q0 26 14.5 39.5t38.5 13.5q25 0 38 -13t13 -35v-79h189q115 0 176.5 -56.5t61.5 -159.5q0 -102 -61.5 -159t-176.5 -57h-189v-101q0 -25 -13 -39t-39 -14zM186 233h175q75 0 113.5 34t38.5 99q0 66 -38.5 99.5t-113.5 33.5h-175v-266
z" />
    <glyph glyph-name="germandbls" unicode="&#xdf;" horiz-adv-x="632" 
d="M418 -9q-43 0 -87 11.5t-80 34.5q-13 9 -18 20.5t-2.5 23.5t10.5 20.5t20 10.5t25 -6q33 -20 69 -28.5t64 -8.5q44 0 68.5 18t24.5 50q0 27 -22 44.5t-79 34.5q-80 25 -112 57t-32 81q0 21 7 40.5t23.5 41t45.5 47.5t40.5 46t11.5 44q0 30 -22 47.5t-62 17.5
q-68 0 -103.5 -40t-35.5 -114v-440q0 -24 -13.5 -37.5t-37.5 -13.5t-37 13.5t-13 37.5v427q0 116 62.5 179.5t177.5 63.5q56 0 96.5 -16t62 -46t21.5 -71q0 -36 -16 -66t-56 -66q-22 -20 -35 -34t-17.5 -25.5t-4.5 -24.5q0 -24 22 -41.5t81 -35.5q76 -23 108.5 -58t32.5 -88
q0 -46 -23 -79.5t-65.5 -52.5t-99.5 -19z" />
    <glyph glyph-name="agrave" unicode="&#xe0;" horiz-adv-x="537" 
d="M227 -9q-51 0 -91.5 20t-63.5 54t-23 77q0 54 27.5 85.5t91 45t171.5 13.5h47v-62h-46q-72 0 -114 -7t-59.5 -23.5t-17.5 -45.5q0 -38 26 -61.5t72 -23.5q37 0 65 17.5t44.5 47.5t16.5 69v115q0 57 -24 82t-79 25q-32 0 -66.5 -8t-71.5 -27q-17 -8 -29 -5t-19 13.5
t-7.5 23t6 24.5t22.5 18q44 21 87 30t81 9q67 0 110.5 -21t64.5 -64t21 -111v-257q0 -24 -12 -37.5t-35 -13.5q-22 0 -35 13.5t-13 37.5v65h9q-8 -37 -29.5 -63.5t-53.5 -40.5t-73 -14zM237 558l-100 149q-9 14 -7 27t12 22t23 12.5t26 -1.5t21 -21l80 -157q6 -13 2 -24
t-15 -17t-22.5 -4t-19.5 14z" />
    <glyph glyph-name="aacute" unicode="&#xe1;" horiz-adv-x="537" 
d="M227 -9q-51 0 -91.5 20t-63.5 54t-23 77q0 54 27.5 85.5t91 45t171.5 13.5h47v-62h-46q-72 0 -114 -7t-59.5 -23.5t-17.5 -45.5q0 -38 26 -61.5t72 -23.5q37 0 65 17.5t44.5 47.5t16.5 69v115q0 57 -24 82t-79 25q-32 0 -66.5 -8t-71.5 -27q-17 -8 -29 -5t-19 13.5
t-7.5 23t6 24.5t22.5 18q44 21 87 30t81 9q67 0 110.5 -21t64.5 -64t21 -111v-257q0 -24 -12 -37.5t-35 -13.5q-22 0 -35 13.5t-13 37.5v65h9q-8 -37 -29.5 -63.5t-53.5 -40.5t-73 -14zM314 558q-8 -12 -19.5 -14t-22.5 4t-15.5 17t1.5 24l81 157q8 16 20.5 21t26 1.5
t23 -12.5t11.5 -22.5t-7 -26.5z" />
    <glyph glyph-name="acircumflex" unicode="&#xe2;" horiz-adv-x="537" 
d="M227 -9q-51 0 -91.5 20t-63.5 54t-23 77q0 54 27.5 85.5t91 45t171.5 13.5h47v-62h-46q-72 0 -114 -7t-59.5 -23.5t-17.5 -45.5q0 -38 26 -61.5t72 -23.5q37 0 65 17.5t44.5 47.5t16.5 69v115q0 57 -24 82t-79 25q-32 0 -66.5 -8t-71.5 -27q-17 -8 -29 -5t-19 13.5
t-7.5 23t6 24.5t22.5 18q44 21 87 30t81 9q67 0 110.5 -21t64.5 -64t21 -111v-257q0 -24 -12 -37.5t-35 -13.5q-22 0 -35 13.5t-13 37.5v65h9q-8 -37 -29.5 -63.5t-53.5 -40.5t-73 -14zM412 589q7 -14 3 -25t-14 -16.5t-21.5 -3.5t-19.5 14l-85 135l-85 -135
q-8 -12 -19.5 -14t-21.5 3.5t-14 16.5t3 25l79 143q10 19 24.5 28t33.5 9t34 -9t25 -28z" />
    <glyph glyph-name="atilde" unicode="&#xe3;" horiz-adv-x="537" 
d="M227 -9q-51 0 -91.5 20t-63.5 54t-23 77q0 54 27.5 85.5t91 45t171.5 13.5h47v-62h-46q-72 0 -114 -7t-59.5 -23.5t-17.5 -45.5q0 -38 26 -61.5t72 -23.5q37 0 65 17.5t44.5 47.5t16.5 69v115q0 57 -24 82t-79 25q-32 0 -66.5 -8t-71.5 -27q-17 -8 -29 -5t-19 13.5
t-7.5 23t6 24.5t22.5 18q44 21 87 30t81 9q67 0 110.5 -21t64.5 -64t21 -111v-257q0 -24 -12 -37.5t-35 -13.5q-22 0 -35 13.5t-13 37.5v65h9q-8 -37 -29.5 -63.5t-53.5 -40.5t-73 -14zM115 584q-12 1 -19 9t-4 24q4 22 12.5 42.5t21.5 36.5t32 25.5t44 9.5q24 0 43 -11
t35 -25t32 -25t35 -11q22 0 37.5 16t20.5 42q2 10 9 15.5t21 4.5q12 0 19 -8t4 -25q-5 -29 -18.5 -55t-36 -42t-55.5 -16q-24 0 -43 10.5t-35.5 24.5t-32.5 25t-34 11q-22 0 -37 -15.5t-21 -42.5q-1 -10 -8.5 -15.5t-21.5 -4.5z" />
    <glyph glyph-name="adieresis" unicode="&#xe4;" horiz-adv-x="537" 
d="M227 -9q-51 0 -91.5 20t-63.5 54t-23 77q0 54 27.5 85.5t91 45t171.5 13.5h47v-62h-46q-72 0 -114 -7t-59.5 -23.5t-17.5 -45.5q0 -38 26 -61.5t72 -23.5q37 0 65 17.5t44.5 47.5t16.5 69v115q0 57 -24 82t-79 25q-32 0 -66.5 -8t-71.5 -27q-17 -8 -29 -5t-19 13.5
t-7.5 23t6 24.5t22.5 18q44 21 87 30t81 9q67 0 110.5 -21t64.5 -64t21 -111v-257q0 -24 -12 -37.5t-35 -13.5q-22 0 -35 13.5t-13 37.5v65h9q-8 -37 -29.5 -63.5t-53.5 -40.5t-73 -14zM366 600q-26 0 -40 14t-14 40q0 25 14 38.5t40 13.5q25 0 39 -13.5t14 -38.5
q0 -26 -13.5 -40t-39.5 -14zM185 600q-25 0 -39.5 14t-14.5 40q0 25 14.5 38.5t39.5 13.5q26 0 40 -13.5t14 -38.5q0 -26 -14 -40t-40 -14z" />
    <glyph glyph-name="aring" unicode="&#xe5;" horiz-adv-x="537" 
d="M227 -9q-51 0 -91.5 20t-63.5 54t-23 77q0 54 27.5 85.5t91 45t171.5 13.5h47v-62h-46q-72 0 -114 -7t-59.5 -23.5t-17.5 -45.5q0 -38 26 -61.5t72 -23.5q37 0 65 17.5t44.5 47.5t16.5 69v115q0 57 -24 82t-79 25q-32 0 -66.5 -8t-71.5 -27q-17 -8 -29 -5t-19 13.5
t-7.5 23t6 24.5t22.5 18q44 21 87 30t81 9q67 0 110.5 -21t64.5 -64t21 -111v-257q0 -24 -12 -37.5t-35 -13.5q-22 0 -35 13.5t-13 37.5v65h9q-8 -37 -29.5 -63.5t-53.5 -40.5t-73 -14zM275 546q-34 0 -62 16t-44 43.5t-16 60.5t16 60t44 42.5t62 15.5q35 0 62.5 -15.5
t43.5 -42.5t16 -60t-16 -60.5t-43.5 -43.5t-62.5 -16zM275 596q31 0 50 20t19 50q0 29 -19 48.5t-50 19.5q-30 0 -49.5 -19.5t-19.5 -48.5q0 -30 19.5 -50t49.5 -20z" />
    <glyph glyph-name="ae" unicode="&#xe6;" horiz-adv-x="863" 
d="M235 -9q-55 0 -97 20t-65.5 54t-23.5 77q0 54 28 85.5t91.5 44.5t172.5 13h45v-62h-46q-72 0 -114 -6.5t-59.5 -23t-17.5 -45.5q0 -38 26 -61.5t73 -23.5q38 0 66 18t44 49.5t16 71.5v109q0 57 -24.5 82.5t-77.5 25.5q-33 0 -67.5 -8t-72.5 -27q-16 -8 -28 -5t-19 13.5
t-7.5 23t6 24.5t22.5 18q44 21 87 30t81 9q71 0 114.5 -28t60.5 -84h-26q26 54 77 83t111 29q49 0 88.5 -16.5t67.5 -47.5t43 -76t15 -101v-3q0 -15 -10.5 -22.5t-30.5 -7.5h-321v62h292l-16 -13q0 49 -14 83t-42.5 52.5t-70.5 18.5q-43 0 -74.5 -20.5t-48.5 -59t-17 -91.5
v-7q0 -88 39 -133.5t118 -45.5q29 0 62.5 8t64.5 27q17 10 30.5 9t21.5 -9t10.5 -20t-3.5 -24.5t-21 -22.5q-34 -23 -79 -34.5t-86 -11.5q-84 0 -143.5 36.5t-82.5 110.5h22q-15 -69 -65 -108t-125 -39z" />
    <glyph glyph-name="ccedilla" unicode="&#xe7;" horiz-adv-x="467" 
d="M286 -9q-75 0 -129.5 31.5t-84.5 89t-30 135.5q0 58 17 104.5t48.5 78.5t77 49.5t101.5 17.5q35 0 73.5 -10.5t71.5 -34.5q13 -8 16.5 -19.5t1 -23.5t-11 -20.5t-20.5 -10t-26 6.5q-24 17 -49 24.5t-48 7.5q-36 0 -63.5 -11.5t-46.5 -33t-28.5 -53.5t-9.5 -73
q0 -82 38.5 -128.5t109.5 -46.5q23 0 48 7t49 24q14 8 26 6t19.5 -10.5t10 -20t-1.5 -23.5t-17 -20q-32 -23 -69.5 -33t-72.5 -10zM283 -194q-18 0 -38.5 3t-36.5 9q-13 5 -17.5 15t-1.5 20t12.5 15.5t22.5 -0.5q12 -4 25 -6t28 -2q26 0 41.5 8.5t15.5 24.5q0 12 -9 19
t-29 7q-7 0 -15 -0.5t-17 -3.5q-7 -2 -12.5 -2t-10.5 4q-4 4 -5 10t0 15l12 78h58l-13 -76l-28 9q12 3 24 5t22 2q39 0 63 -18t24 -52q0 -37 -32 -60.5t-83 -23.5z" />
    <glyph glyph-name="egrave" unicode="&#xe8;" horiz-adv-x="537" 
d="M300 -9q-80 0 -137.5 30.5t-89 87t-31.5 134.5q0 76 31 133t85 89t123 32q51 0 91 -16.5t68.5 -48t43 -76.5t14.5 -101q0 -17 -10 -25.5t-30 -8.5h-336v62h308l-17 -14q0 50 -14.5 85t-43 53.5t-70.5 18.5q-47 0 -79.5 -22t-49.5 -61t-17 -91v-6q0 -88 41.5 -132.5
t120.5 -44.5q30 0 63.5 8t63.5 27q17 10 30.5 9t22 -9t10.5 -20t-4 -24.5t-21 -22.5q-34 -23 -79 -34.5t-87 -11.5zM244 558l-100 149q-9 14 -7 27t12 22t23 12.5t26 -1.5t21 -21l80 -157q6 -13 2 -24t-15 -17t-22.5 -4t-19.5 14z" />
    <glyph glyph-name="eacute" unicode="&#xe9;" horiz-adv-x="537" 
d="M300 -9q-80 0 -137.5 30.5t-89 87t-31.5 134.5q0 76 31 133t85 89t123 32q51 0 91 -16.5t68.5 -48t43 -76.5t14.5 -101q0 -17 -10 -25.5t-30 -8.5h-336v62h308l-17 -14q0 50 -14.5 85t-43 53.5t-70.5 18.5q-47 0 -79.5 -22t-49.5 -61t-17 -91v-6q0 -88 41.5 -132.5
t120.5 -44.5q30 0 63.5 8t63.5 27q17 10 30.5 9t22 -9t10.5 -20t-4 -24.5t-21 -22.5q-34 -23 -79 -34.5t-87 -11.5zM321 558q-8 -12 -19.5 -14t-22.5 4t-15.5 17t1.5 24l81 157q8 16 20.5 21t26 1.5t23 -12.5t11.5 -22.5t-7 -26.5z" />
    <glyph glyph-name="ecircumflex" unicode="&#xea;" horiz-adv-x="537" 
d="M300 -9q-80 0 -137.5 30.5t-89 87t-31.5 134.5q0 76 31 133t85 89t123 32q51 0 91 -16.5t68.5 -48t43 -76.5t14.5 -101q0 -17 -10 -25.5t-30 -8.5h-336v62h308l-17 -14q0 50 -14.5 85t-43 53.5t-70.5 18.5q-47 0 -79.5 -22t-49.5 -61t-17 -91v-6q0 -88 41.5 -132.5
t120.5 -44.5q30 0 63.5 8t63.5 27q17 10 30.5 9t22 -9t10.5 -20t-4 -24.5t-21 -22.5q-34 -23 -79 -34.5t-87 -11.5zM419 589q7 -14 3 -25t-14 -16.5t-21.5 -3.5t-19.5 14l-85 135l-85 -135q-8 -12 -19.5 -14t-21.5 3.5t-14 16.5t3 25l79 143q10 19 24.5 28t33.5 9t34 -9
t25 -28z" />
    <glyph glyph-name="edieresis" unicode="&#xeb;" horiz-adv-x="537" 
d="M300 -9q-80 0 -137.5 30.5t-89 87t-31.5 134.5q0 76 31 133t85 89t123 32q51 0 91 -16.5t68.5 -48t43 -76.5t14.5 -101q0 -17 -10 -25.5t-30 -8.5h-336v62h308l-17 -14q0 50 -14.5 85t-43 53.5t-70.5 18.5q-47 0 -79.5 -22t-49.5 -61t-17 -91v-6q0 -88 41.5 -132.5
t120.5 -44.5q30 0 63.5 8t63.5 27q17 10 30.5 9t22 -9t10.5 -20t-4 -24.5t-21 -22.5q-34 -23 -79 -34.5t-87 -11.5zM373 600q-26 0 -40 14t-14 40q0 25 14 38.5t40 13.5q25 0 39 -13.5t14 -38.5q0 -26 -13.5 -40t-39.5 -14zM192 600q-25 0 -39.5 14t-14.5 40q0 25 14.5 38.5
t39.5 13.5q26 0 40 -13.5t14 -38.5q0 -26 -14 -40t-40 -14z" />
    <glyph glyph-name="igrave" unicode="&#xec;" horiz-adv-x="243" 
d="M121 -6q-24 0 -37 14.5t-13 40.5v390q0 26 13 40t37 14t37.5 -14t13.5 -40v-390q0 -26 -13 -40.5t-38 -14.5zM83 558l-100 149q-9 14 -7 27t12 22t23 12.5t26 -1.5t21 -21l80 -157q6 -13 2 -24t-15 -17t-22.5 -4t-19.5 14z" />
    <glyph glyph-name="iacute" unicode="&#xed;" horiz-adv-x="243" 
d="M121 -6q-24 0 -37 14.5t-13 40.5v390q0 26 13 40t37 14t37.5 -14t13.5 -40v-390q0 -26 -13 -40.5t-38 -14.5zM160 558q-8 -12 -19.5 -14t-22.5 4t-15.5 17t1.5 24l81 157q8 16 20.5 21t26 1.5t23 -12.5t11.5 -22.5t-7 -26.5z" />
    <glyph glyph-name="icircumflex" unicode="&#xee;" horiz-adv-x="243" 
d="M121 -6q-24 0 -37 14.5t-13 40.5v390q0 26 13 40t37 14t37.5 -14t13.5 -40v-390q0 -26 -13 -40.5t-38 -14.5zM258 589q7 -14 3 -25t-14 -16.5t-21.5 -3.5t-19.5 14l-85 135l-85 -135q-8 -12 -19.5 -14t-21.5 3.5t-14 16.5t3 25l79 143q10 19 24.5 28t33.5 9t34 -9t25 -28
z" />
    <glyph glyph-name="idieresis" unicode="&#xef;" horiz-adv-x="243" 
d="M121 -6q-24 0 -37 14.5t-13 40.5v390q0 26 13 40t37 14t37.5 -14t13.5 -40v-390q0 -26 -13 -40.5t-38 -14.5zM212 600q-26 0 -40 14t-14 40q0 25 14 38.5t40 13.5q25 0 39 -13.5t14 -38.5q0 -26 -13.5 -40t-39.5 -14zM31 600q-25 0 -39.5 14t-14.5 40q0 25 14.5 38.5
t39.5 13.5q26 0 40 -13.5t14 -38.5q0 -26 -14 -40t-40 -14z" />
    <glyph glyph-name="eth" unicode="&#xf0;" horiz-adv-x="569" 
d="M279 -9q-71 0 -124 29t-83 81t-30 121t29.5 120t81.5 80t120 29q47 0 84.5 -15t62.5 -47t36 -82h-25q1 93 -38 162t-101 110h21l-149 -66q-18 -9 -32 -4t-19.5 17t0 26t25.5 22l104 46l3 -13q-18 10 -38.5 17.5t-42.5 14.5q-20 6 -27.5 19t-4 26t16.5 20.5t35 2.5
q42 -11 77.5 -26.5t68.5 -34.5l-28 1l124 55q18 8 32 3t19.5 -17t1 -25t-23.5 -21l-87 -38l4 12q50 -38 84.5 -89t52.5 -111t18 -130q0 -71 -16 -126t-48 -92.5t-78 -57t-106 -19.5zM282 70q43 0 74 18.5t47.5 53t16.5 80.5q0 70 -36.5 110.5t-101.5 40.5q-43 0 -73.5 -18.5
t-47.5 -52t-17 -80.5q0 -72 36.5 -112t101.5 -40z" />
    <glyph glyph-name="ntilde" unicode="&#xf1;" horiz-adv-x="576" 
d="M121 -7q-24 0 -37 13.5t-13 37.5v400q0 25 13 38t36 13q24 0 36.5 -13t12.5 -38v-78l-11 18q22 56 69 84.5t108 28.5q58 0 96.5 -21.5t57.5 -65t19 -109.5v-257q0 -24 -13 -37.5t-37 -13.5q-25 0 -38 13.5t-13 37.5v251q0 63 -24.5 92t-76.5 29q-61 0 -97.5 -38
t-36.5 -102v-232q0 -51 -51 -51zM129 584q-12 1 -19 9t-4 24q4 22 12.5 42.5t21.5 36.5t32 25.5t44 9.5q24 0 43 -11t35 -25t32 -25t35 -11q22 0 37.5 16t20.5 42q2 10 9 15.5t21 4.5q12 0 19 -8t4 -25q-5 -29 -18.5 -55t-36 -42t-55.5 -16q-24 0 -43 10.5t-35.5 24.5
t-32.5 25t-34 11q-22 0 -37 -15.5t-21 -42.5q-1 -10 -8.5 -15.5t-21.5 -4.5z" />
    <glyph glyph-name="ograve" unicode="&#xf2;" horiz-adv-x="565" 
d="M283 -9q-74 0 -127.5 31t-83.5 88t-30 134q0 59 17 105t48.5 79.5t76 51t99.5 17.5q73 0 126.5 -31t83.5 -87.5t30 -134.5q0 -58 -17 -105t-48.5 -80t-76 -50.5t-98.5 -17.5zM283 69q41 0 72 20t48.5 59t17.5 96q0 86 -38 130t-100 44q-42 0 -73 -19.5t-48.5 -58.5
t-17.5 -96q0 -85 38 -130t101 -45zM245 558l-100 149q-9 14 -7 27t12 22t23 12.5t26 -1.5t21 -21l80 -157q6 -13 2 -24t-15 -17t-22.5 -4t-19.5 14z" />
    <glyph glyph-name="oacute" unicode="&#xf3;" horiz-adv-x="565" 
d="M283 -9q-74 0 -127.5 31t-83.5 88t-30 134q0 59 17 105t48.5 79.5t76 51t99.5 17.5q73 0 126.5 -31t83.5 -87.5t30 -134.5q0 -58 -17 -105t-48.5 -80t-76 -50.5t-98.5 -17.5zM283 69q41 0 72 20t48.5 59t17.5 96q0 86 -38 130t-100 44q-42 0 -73 -19.5t-48.5 -58.5
t-17.5 -96q0 -85 38 -130t101 -45zM322 558q-8 -12 -19.5 -14t-22.5 4t-15.5 17t1.5 24l81 157q8 16 20.5 21t26 1.5t23 -12.5t11.5 -22.5t-7 -26.5z" />
    <glyph glyph-name="ocircumflex" unicode="&#xf4;" horiz-adv-x="565" 
d="M283 -9q-74 0 -127.5 31t-83.5 88t-30 134q0 59 17 105t48.5 79.5t76 51t99.5 17.5q73 0 126.5 -31t83.5 -87.5t30 -134.5q0 -58 -17 -105t-48.5 -80t-76 -50.5t-98.5 -17.5zM283 69q41 0 72 20t48.5 59t17.5 96q0 86 -38 130t-100 44q-42 0 -73 -19.5t-48.5 -58.5
t-17.5 -96q0 -85 38 -130t101 -45zM420 589q7 -14 3 -25t-14 -16.5t-21.5 -3.5t-19.5 14l-85 135l-85 -135q-8 -12 -19.5 -14t-21.5 3.5t-14 16.5t3 25l79 143q10 19 24.5 28t33.5 9t34 -9t25 -28z" />
    <glyph glyph-name="otilde" unicode="&#xf5;" horiz-adv-x="565" 
d="M283 -9q-74 0 -127.5 31t-83.5 88t-30 134q0 59 17 105t48.5 79.5t76 51t99.5 17.5q73 0 126.5 -31t83.5 -87.5t30 -134.5q0 -58 -17 -105t-48.5 -80t-76 -50.5t-98.5 -17.5zM283 69q41 0 72 20t48.5 59t17.5 96q0 86 -38 130t-100 44q-42 0 -73 -19.5t-48.5 -58.5
t-17.5 -96q0 -85 38 -130t101 -45zM123 584q-12 1 -19 9t-4 24q4 22 12.5 42.5t21.5 36.5t32 25.5t44 9.5q24 0 43 -11t35 -25t32 -25t35 -11q22 0 37.5 16t20.5 42q2 10 9 15.5t21 4.5q12 0 19 -8t4 -25q-5 -29 -18.5 -55t-36 -42t-55.5 -16q-24 0 -43 10.5t-35.5 24.5
t-32.5 25t-34 11q-22 0 -37 -15.5t-21 -42.5q-1 -10 -8.5 -15.5t-21.5 -4.5z" />
    <glyph glyph-name="odieresis" unicode="&#xf6;" horiz-adv-x="565" 
d="M283 -9q-74 0 -127.5 31t-83.5 88t-30 134q0 59 17 105t48.5 79.5t76 51t99.5 17.5q73 0 126.5 -31t83.5 -87.5t30 -134.5q0 -58 -17 -105t-48.5 -80t-76 -50.5t-98.5 -17.5zM283 69q41 0 72 20t48.5 59t17.5 96q0 86 -38 130t-100 44q-42 0 -73 -19.5t-48.5 -58.5
t-17.5 -96q0 -85 38 -130t101 -45zM374 600q-26 0 -40 14t-14 40q0 25 14 38.5t40 13.5q25 0 39 -13.5t14 -38.5q0 -26 -13.5 -40t-39.5 -14zM193 600q-25 0 -39.5 14t-14.5 40q0 25 14.5 38.5t39.5 13.5q26 0 40 -13.5t14 -38.5q0 -26 -14 -40t-40 -14z" />
    <glyph glyph-name="divide" unicode="&#xf7;" horiz-adv-x="600" 
d="M87 250q-18 0 -28 9.5t-10 27.5t10 27.5t28 9.5h426q19 0 28.5 -9.5t9.5 -27.5t-9.5 -27.5t-28.5 -9.5h-426zM294 40q-23 0 -36 13t-13 36t13 36t36 13t36 -12.5t13 -36.5q0 -23 -12.5 -36t-36.5 -13zM294 436q-23 0 -36 13t-13 36t13 36t36 13t36 -12.5t13 -36.5
q0 -23 -12.5 -36t-36.5 -13z" />
    <glyph glyph-name="oslash" unicode="&#xf8;" horiz-adv-x="565" 
d="M283 -9q-74 0 -127.5 31t-83.5 88t-30 134q0 59 17 105t48.5 79.5t76 51t99.5 17.5q73 0 126.5 -31t83.5 -87.5t30 -134.5q0 -58 -17 -105t-48.5 -80t-76 -50.5t-98.5 -17.5zM283 69q41 0 72 20t48.5 59t17.5 96q0 86 -38 130t-100 44q-42 0 -73 -19.5t-48.5 -58.5
t-17.5 -96q0 -85 38 -130t101 -45zM161 -32q-9 -14 -22 -16.5t-24 4.5t-15.5 20t5.5 28l300 516q9 14 22 16t24 -4.5t15.5 -19.5t-4.5 -28z" />
    <glyph glyph-name="ugrave" unicode="&#xf9;" horiz-adv-x="569" 
d="M245 -9q-59 0 -98.5 22t-59 65.5t-19.5 109.5v256q0 26 13 38.5t37 12.5t37.5 -12.5t13.5 -38.5v-257q0 -59 24 -87t76 -28q57 0 92.5 38.5t35.5 101.5v232q0 26 13 38.5t38 12.5q24 0 37 -12.5t13 -38.5v-400q0 -51 -49 -51q-23 0 -36 13.5t-13 37.5v85l13 -22
q-20 -56 -64 -86t-104 -30zM246 559l-100 149q-9 14 -7 27t12 22t23 12.5t26 -1.5t21 -21l80 -157q6 -13 2 -24t-15 -17t-22.5 -4t-19.5 14z" />
    <glyph glyph-name="uacute" unicode="&#xfa;" horiz-adv-x="569" 
d="M245 -9q-59 0 -98.5 22t-59 65.5t-19.5 109.5v256q0 26 13 38.5t37 12.5t37.5 -12.5t13.5 -38.5v-257q0 -59 24 -87t76 -28q57 0 92.5 38.5t35.5 101.5v232q0 26 13 38.5t38 12.5q24 0 37 -12.5t13 -38.5v-400q0 -51 -49 -51q-23 0 -36 13.5t-13 37.5v85l13 -22
q-20 -56 -64 -86t-104 -30zM323 559q-8 -12 -19.5 -14t-22.5 4t-15.5 17t1.5 24l81 157q8 16 20.5 21t26 1.5t23 -12.5t11.5 -22.5t-7 -26.5z" />
    <glyph glyph-name="ucircumflex" unicode="&#xfb;" horiz-adv-x="569" 
d="M245 -9q-59 0 -98.5 22t-59 65.5t-19.5 109.5v256q0 26 13 38.5t37 12.5t37.5 -12.5t13.5 -38.5v-257q0 -59 24 -87t76 -28q57 0 92.5 38.5t35.5 101.5v232q0 26 13 38.5t38 12.5q24 0 37 -12.5t13 -38.5v-400q0 -51 -49 -51q-23 0 -36 13.5t-13 37.5v85l13 -22
q-20 -56 -64 -86t-104 -30zM421 590q7 -14 3 -25t-14 -16.5t-21.5 -3.5t-19.5 14l-85 135l-85 -135q-8 -12 -19.5 -14t-21.5 3.5t-14 16.5t3 25l79 143q10 19 24.5 28t33.5 9t34 -9t25 -28z" />
    <glyph glyph-name="udieresis" unicode="&#xfc;" horiz-adv-x="569" 
d="M245 -9q-59 0 -98.5 22t-59 65.5t-19.5 109.5v256q0 26 13 38.5t37 12.5t37.5 -12.5t13.5 -38.5v-257q0 -59 24 -87t76 -28q57 0 92.5 38.5t35.5 101.5v232q0 26 13 38.5t38 12.5q24 0 37 -12.5t13 -38.5v-400q0 -51 -49 -51q-23 0 -36 13.5t-13 37.5v85l13 -22
q-20 -56 -64 -86t-104 -30zM375 601q-26 0 -40 14t-14 40q0 25 14 38.5t40 13.5q25 0 39 -13.5t14 -38.5q0 -26 -13.5 -40t-39.5 -14zM194 601q-25 0 -39.5 14t-14.5 40q0 25 14.5 38.5t39.5 13.5q26 0 40 -13.5t14 -38.5q0 -26 -14 -40t-40 -14z" />
    <glyph glyph-name="yacute" unicode="&#xfd;" horiz-adv-x="520" 
d="M186 -187q-18 0 -29.5 9.5t-13 25t5.5 33.5l68 153v-43l-187 435q-7 18 -5 34t15 25.5t35 9.5q19 0 30 -9t20 -31l151 -373h-28l153 373q9 23 21 31.5t33 8.5q18 0 28.5 -9.5t13 -25t-5.5 -33.5l-250 -575q-10 -23 -22.5 -31t-32.5 -8zM300 558q-8 -12 -19.5 -14t-22.5 4
t-15.5 17t1.5 24l81 157q8 16 20.5 21t26 1.5t23 -12.5t11.5 -22.5t-7 -26.5z" />
    <glyph glyph-name="thorn" unicode="&#xfe;" horiz-adv-x="591" 
d="M121 -187q-24 0 -37 13t-13 38v797q0 25 13 38t37 13t37.5 -13t13.5 -38v-283h-13q16 54 63 86.5t111 32.5q65 0 113.5 -31t75 -87t26.5 -135q0 -77 -26.5 -134.5t-74.5 -88t-114 -30.5q-63 0 -110 32t-63 85h12v-244q0 -25 -13.5 -38t-37.5 -13zM308 69q42 0 73 20
t48 59t17 96q0 86 -37.5 130t-100.5 44q-41 0 -72.5 -19.5t-48.5 -58.5t-17 -96q0 -85 38 -130t100 -45z" />
    <glyph glyph-name="ydieresis" unicode="&#xff;" horiz-adv-x="520" 
d="M186 -187q-18 0 -29.5 9.5t-13 25t5.5 33.5l68 153v-43l-187 435q-7 18 -5 34t15 25.5t35 9.5q19 0 30 -9t20 -31l151 -373h-28l153 373q9 23 21 31.5t33 8.5q18 0 28.5 -9.5t13 -25t-5.5 -33.5l-250 -575q-10 -23 -22.5 -31t-32.5 -8zM352 600q-26 0 -40 14t-14 40
q0 25 14 38.5t40 13.5q25 0 39 -13.5t14 -38.5q0 -26 -13.5 -40t-39.5 -14zM171 600q-25 0 -39.5 14t-14.5 40q0 25 14.5 38.5t39.5 13.5q26 0 40 -13.5t14 -38.5q0 -26 -14 -40t-40 -14z" />
    <glyph glyph-name="Amacron" unicode="&#x100;" horiz-adv-x="736" 
d="M78 -7q-20 0 -32 9t-14 24t6 34l271 608q10 24 25.5 34t34.5 10q18 0 33.5 -10t25.5 -34l271 -608q9 -19 7 -34.5t-13 -24t-31 -8.5q-22 0 -35 11t-23 34l-70 162l47 -28h-426l46 28l-69 -162q-10 -24 -22 -34.5t-32 -10.5zM367 590l-151 -358l-25 24h353l-23 -24
l-152 358h-2zM232 811q-34 0 -34 31q0 16 9 24t25 8h275q33 0 33 -32q0 -14 -8.5 -22.5t-24.5 -8.5h-275z" />
    <glyph glyph-name="amacron" unicode="&#x101;" horiz-adv-x="537" 
d="M227 -9q-51 0 -91.5 20t-63.5 54t-23 77q0 54 27.5 85.5t91 45t171.5 13.5h47v-62h-46q-72 0 -114 -7t-59.5 -23.5t-17.5 -45.5q0 -38 26 -61.5t72 -23.5q37 0 65 17.5t44.5 47.5t16.5 69v115q0 57 -24 82t-79 25q-32 0 -66.5 -8t-71.5 -27q-17 -8 -29 -5t-19 13.5
t-7.5 23t6 24.5t22.5 18q44 21 87 30t81 9q67 0 110.5 -21t64.5 -64t21 -111v-257q0 -24 -12 -37.5t-35 -13.5q-22 0 -35 13.5t-13 37.5v65h9q-8 -37 -29.5 -63.5t-53.5 -40.5t-73 -14zM153 621q-34 0 -34 32q0 15 9 23.5t25 8.5h245q33 0 33 -32q0 -15 -8.5 -23.5
t-24.5 -8.5h-245z" />
    <glyph glyph-name="Abreve" unicode="&#x102;" horiz-adv-x="736" 
d="M78 -7q-20 0 -32 9t-14 24t6 34l271 608q10 24 25.5 34t34.5 10q18 0 33.5 -10t25.5 -34l271 -608q9 -19 7 -34.5t-13 -24t-31 -8.5q-22 0 -35 11t-23 34l-70 162l47 -28h-426l46 28l-69 -162q-10 -24 -22 -34.5t-32 -10.5zM367 590l-151 -358l-25 24h353l-23 -24
l-152 358h-2zM369 760q-62 0 -108.5 35t-62.5 104q-4 17 4.5 27.5t20.5 11.5q11 1 18.5 -2.5t11.5 -9.5t6 -14q10 -48 42 -68t68 -20q37 0 68.5 20t41.5 68q2 8 6 14t12 9.5t18 2.5q12 -1 20.5 -11.5t4.5 -27.5q-15 -69 -62 -104t-109 -35z" />
    <glyph glyph-name="abreve" unicode="&#x103;" horiz-adv-x="537" 
d="M227 -9q-51 0 -91.5 20t-63.5 54t-23 77q0 54 27.5 85.5t91 45t171.5 13.5h47v-62h-46q-72 0 -114 -7t-59.5 -23.5t-17.5 -45.5q0 -38 26 -61.5t72 -23.5q37 0 65 17.5t44.5 47.5t16.5 69v115q0 57 -24 82t-79 25q-32 0 -66.5 -8t-71.5 -27q-17 -8 -29 -5t-19 13.5
t-7.5 23t6 24.5t22.5 18q44 21 87 30t81 9q67 0 110.5 -21t64.5 -64t21 -111v-257q0 -24 -12 -37.5t-35 -13.5q-22 0 -35 13.5t-13 37.5v65h9q-8 -37 -29.5 -63.5t-53.5 -40.5t-73 -14zM275 550q-45 0 -77.5 20.5t-53 56.5t-26.5 84q-3 17 5.5 27.5t21.5 10.5q14 1 23 -6.5
t11 -23.5q8 -52 33.5 -78.5t62.5 -26.5t63 26.5t33 78.5q2 16 11 23.5t23 6.5q14 0 22 -10.5t5 -27.5q-5 -48 -25.5 -84t-53.5 -56.5t-78 -20.5z" />
    <glyph glyph-name="Aogonek" unicode="&#x104;" horiz-adv-x="736" 
d="M678 -194q-51 0 -81 27.5t-30 73.5q0 32 16 60.5t44 49.5l1 -14q-8 7 -13 15t-11 20l-70 162l47 -28h-426l46 28l-69 -162q-10 -24 -22 -34.5t-32 -10.5t-32 9t-14.5 24t5.5 34l272 608q10 24 25.5 34t34.5 10q18 0 33.5 -10t25.5 -34l271 -608q9 -21 6.5 -37.5
t-16.5 -23.5q-12 -7 -24.5 -18.5t-21.5 -27.5t-9 -35q0 -27 16.5 -40.5t40.5 -13.5q8 0 16.5 1.5t16.5 3.5q16 5 24.5 -0.5t10.5 -16.5t-3 -21t-18 -16q-15 -5 -30.5 -7t-29.5 -2zM367 590l-151 -358l-25 24h353l-23 -24l-152 358h-2z" />
    <glyph glyph-name="aogonek" unicode="&#x105;" horiz-adv-x="537" 
d="M425 -194q-51 0 -81 27.5t-30 73.5q0 35 20.5 67t55.5 54l-4 -20q-6 8 -9 16.5t-3 20.5v64h9q-8 -37 -29.5 -63.5t-53.5 -40.5t-73 -14q-51 0 -91.5 20t-63.5 54t-23 77q0 54 27.5 85.5t91 45t171.5 13.5h47v-62h-46q-72 0 -114 -7t-59.5 -23.5t-17.5 -45.5
q0 -38 26 -61.5t72 -23.5q37 0 65 17.5t44.5 47.5t16.5 69v115q0 57 -24 82t-79 25q-32 0 -66.5 -8t-71.5 -27q-17 -8 -29 -5t-19 13.5t-7.5 23t6 24.5t22.5 18q44 21 87 30t81 9q67 0 110.5 -21t64.5 -64t21 -111v-257q0 -21 -8.5 -32.5t-23.5 -18.5q-22 -11 -39 -30
t-17 -45q0 -27 16.5 -40.5t40.5 -13.5q8 0 16.5 1.5t16.5 3.5q15 5 24 -0.5t11 -16.5t-3 -21t-18 -16q-15 -5 -30.5 -7t-29.5 -2z" />
    <glyph glyph-name="Cacute" unicode="&#x106;" horiz-adv-x="676" 
d="M398 -9q-107 0 -183 44t-116.5 125.5t-40.5 192.5q0 83 23 149.5t66.5 114t107 72.5t143.5 25q59 0 113.5 -16t94.5 -46q17 -11 22.5 -26.5t2 -29.5t-13.5 -23.5t-25.5 -10.5t-33.5 11q-33 25 -73 37t-84 12q-76 0 -128 -31.5t-79 -91.5t-27 -146t27 -146.5t79 -92
t128 -31.5q44 0 84.5 12.5t76.5 37.5q18 11 32.5 10t24.5 -10t13.5 -22.5t-1 -28t-19.5 -24.5q-41 -33 -97 -50t-117 -17zM431 770q-10 -11 -22 -11.5t-21.5 6.5t-12.5 18t5 23l84 123q9 14 22.5 17.5t26 -1t20.5 -14t9 -22t-10 -24.5z" />
    <glyph glyph-name="cacute" unicode="&#x107;" horiz-adv-x="467" 
d="M286 -9q-75 0 -129.5 31.5t-84.5 89t-30 135.5q0 58 17 104.5t48.5 78.5t77 49.5t101.5 17.5q35 0 73.5 -10.5t71.5 -34.5q13 -8 16.5 -19.5t1 -23.5t-11 -20.5t-20.5 -10t-26 6.5q-24 17 -49 24.5t-48 7.5q-36 0 -63.5 -11.5t-46.5 -33t-28.5 -53.5t-9.5 -73
q0 -82 38.5 -128.5t109.5 -46.5q23 0 48 7t49 24q14 8 26 6t19.5 -10.5t10 -20t-1.5 -23.5t-17 -20q-32 -23 -69.5 -33t-72.5 -10zM320 558q-8 -12 -19.5 -14t-22.5 4t-15.5 17t1.5 24l81 157q8 16 20.5 21t26 1.5t23 -12.5t11.5 -22.5t-7 -26.5z" />
    <glyph glyph-name="Ccircumflex" unicode="&#x108;" horiz-adv-x="676" 
d="M398 -9q-107 0 -183 44t-116.5 125.5t-40.5 192.5q0 83 23 149.5t66.5 114t107 72.5t143.5 25q59 0 113.5 -16t94.5 -46q17 -11 22.5 -26.5t2 -29.5t-13.5 -23.5t-25.5 -10.5t-33.5 11q-33 25 -73 37t-84 12q-76 0 -128 -31.5t-79 -91.5t-27 -146t27 -146.5t79 -92
t128 -31.5q44 0 84.5 12.5t76.5 37.5q18 11 32.5 10t24.5 -10t13.5 -22.5t-1 -28t-19.5 -24.5q-41 -33 -97 -50t-117 -17zM298 770q-10 -12 -22.5 -13t-22 5.5t-12.5 17t6 22.5l81 113q12 18 27.5 25.5t33.5 7.5q19 0 34 -7.5t28 -25.5l80 -113q10 -12 7 -22.5t-12.5 -17
t-22 -5.5t-23.5 13l-91 107z" />
    <glyph glyph-name="ccircumflex" unicode="&#x109;" horiz-adv-x="467" 
d="M286 -9q-75 0 -129.5 31.5t-84.5 89t-30 135.5q0 58 17 104.5t48.5 78.5t77 49.5t101.5 17.5q35 0 73.5 -10.5t71.5 -34.5q13 -8 16.5 -19.5t1 -23.5t-11 -20.5t-20.5 -10t-26 6.5q-24 17 -49 24.5t-48 7.5q-36 0 -63.5 -11.5t-46.5 -33t-28.5 -53.5t-9.5 -73
q0 -82 38.5 -128.5t109.5 -46.5q23 0 48 7t49 24q14 8 26 6t19.5 -10.5t10 -20t-1.5 -23.5t-17 -20q-32 -23 -69.5 -33t-72.5 -10zM418 589q7 -14 3 -25t-14 -16.5t-21.5 -3.5t-19.5 14l-85 135l-85 -135q-8 -12 -19.5 -14t-21.5 3.5t-14 16.5t3 25l79 143q10 19 24.5 28
t33.5 9t34 -9t25 -28z" />
    <glyph glyph-name="Cdotaccent" unicode="&#x10a;" horiz-adv-x="676" 
d="M398 -9q-107 0 -183 44t-116.5 125.5t-40.5 192.5q0 83 23 149.5t66.5 114t107 72.5t143.5 25q59 0 113.5 -16t94.5 -46q17 -11 22.5 -26.5t2 -29.5t-13.5 -23.5t-25.5 -10.5t-33.5 11q-33 25 -73 37t-84 12q-76 0 -128 -31.5t-79 -91.5t-27 -146t27 -146.5t79 -92
t128 -31.5q44 0 84.5 12.5t76.5 37.5q18 11 32.5 10t24.5 -10t13.5 -22.5t-1 -28t-19.5 -24.5q-41 -33 -97 -50t-117 -17zM389 797q-27 0 -41.5 14t-14.5 40q0 27 14.5 40.5t41.5 13.5q28 0 42 -13.5t14 -40.5q0 -26 -14 -40t-42 -14z" />
    <glyph glyph-name="cdotaccent" unicode="&#x10b;" horiz-adv-x="467" 
d="M286 -9q-75 0 -129.5 31.5t-84.5 89t-30 135.5q0 58 17 104.5t48.5 78.5t77 49.5t101.5 17.5q35 0 73.5 -10.5t71.5 -34.5q13 -8 16.5 -19.5t1 -23.5t-11 -20.5t-20.5 -10t-26 6.5q-24 17 -49 24.5t-48 7.5q-36 0 -63.5 -11.5t-46.5 -33t-28.5 -53.5t-9.5 -73
q0 -82 38.5 -128.5t109.5 -46.5q23 0 48 7t49 24q14 8 26 6t19.5 -10.5t10 -20t-1.5 -23.5t-17 -20q-32 -23 -69.5 -33t-72.5 -10zM281 600q-27 0 -41.5 14.5t-14.5 40.5t14.5 39.5t41.5 13.5q28 0 42.5 -13.5t14.5 -39.5q0 -27 -14.5 -41t-42.5 -14z" />
    <glyph glyph-name="Ccaron" unicode="&#x10c;" horiz-adv-x="676" 
d="M398 -9q-107 0 -183 44t-116.5 125.5t-40.5 192.5q0 83 23 149.5t66.5 114t107 72.5t143.5 25q59 0 113.5 -16t94.5 -46q17 -11 22.5 -26.5t2 -29.5t-13.5 -23.5t-25.5 -10.5t-33.5 11q-33 25 -73 37t-84 12q-76 0 -128 -31.5t-79 -91.5t-27 -146t27 -146.5t79 -92
t128 -31.5q44 0 84.5 12.5t76.5 37.5q18 11 32.5 10t24.5 -10t13.5 -22.5t-1 -28t-19.5 -24.5q-41 -33 -97 -50t-117 -17zM389 755q-18 0 -33.5 8t-27.5 25l-81 113q-9 12 -6 23t13 17.5t22 5t22 -13.5l91 -108l91 108q11 12 23 13.5t21.5 -5t12.5 -17t-6 -23.5l-80 -113
q-12 -17 -27.5 -25t-34.5 -8z" />
    <glyph glyph-name="ccaron" unicode="&#x10d;" horiz-adv-x="467" 
d="M286 -9q-75 0 -129.5 31.5t-84.5 89t-30 135.5q0 58 17 104.5t48.5 78.5t77 49.5t101.5 17.5q35 0 73.5 -10.5t71.5 -34.5q13 -8 16.5 -19.5t1 -23.5t-11 -20.5t-20.5 -10t-26 6.5q-24 17 -49 24.5t-48 7.5q-36 0 -63.5 -11.5t-46.5 -33t-28.5 -53.5t-9.5 -73
q0 -82 38.5 -128.5t109.5 -46.5q23 0 48 7t49 24q14 8 26 6t19.5 -10.5t10 -20t-1.5 -23.5t-17 -20q-32 -23 -69.5 -33t-72.5 -10zM281 537q-19 0 -33.5 10.5t-24.5 28.5l-79 143q-7 13 -3 24t14 16.5t21.5 3.5t19.5 -13l85 -136l85 136q8 11 19.5 13t21.5 -3.5t14 -16.5
t-3 -24l-78 -143q-10 -18 -25 -28.5t-34 -10.5z" />
    <glyph glyph-name="Dcaron" unicode="&#x10e;" horiz-adv-x="751" 
d="M138 0q-27 0 -41.5 14.5t-14.5 41.5v593q0 27 14.5 41.5t41.5 14.5h193q174 0 268.5 -90.5t94.5 -261.5q0 -85 -24 -151t-70.5 -110.5t-113.5 -68t-155 -23.5h-193zM186 87h139q66 0 114.5 16.5t81.5 49.5t49 83t16 117q0 133 -65.5 199t-195.5 66h-139v-531zM374 755
q-18 0 -33.5 8t-27.5 25l-81 113q-9 12 -6 23t13 17.5t22 5t22 -13.5l91 -108l91 108q11 12 23 13.5t21.5 -5t12.5 -17t-6 -23.5l-80 -113q-12 -17 -27.5 -25t-34.5 -8z" />
    <glyph glyph-name="dcaron" unicode="&#x10f;" horiz-adv-x="591" 
d="M257 -9q-64 0 -112.5 30.5t-75.5 88t-27 134.5q0 79 27 135t75.5 87t112.5 31t110.5 -31.5t62.5 -84.5h-11v280q0 25 13 38t37 13t37.5 -13t13.5 -38v-617q0 -24 -13 -37.5t-37 -13.5t-37 13.5t-13 37.5v88l11 -22q-16 -54 -62.5 -86.5t-111.5 -32.5zM283 69q41 0 72 20
t48.5 59t17.5 96q0 86 -38 130t-100 44q-42 0 -73 -19.5t-48.5 -58.5t-17.5 -96q0 -85 38 -130t101 -45zM589 508q-11 0 -18 7t-7 19v141q0 37 37 37q18 0 26.5 -10t6.5 -28l-19 -141q-4 -25 -26 -25z" />
    <glyph glyph-name="Dcroat" unicode="&#x110;" horiz-adv-x="751" 
d="M138 0q-27 0 -41.5 14.5t-14.5 41.5v593q0 27 14.5 41.5t41.5 14.5h193q174 0 268.5 -90.5t94.5 -261.5q0 -85 -24 -151t-70.5 -110.5t-113.5 -68t-155 -23.5h-193zM186 87h139q66 0 114.5 16.5t81.5 49.5t49 83t16 117q0 133 -65.5 199t-195.5 66h-139v-531zM28 319
q-20 0 -30 10t-10 29q0 18 10 28t30 10h319q19 0 29.5 -9.5t10.5 -28.5t-10.5 -29t-29.5 -10h-319z" />
    <glyph glyph-name="dcroat" unicode="&#x111;" horiz-adv-x="591" 
d="M258 -9q-64 0 -112.5 30.5t-75.5 88t-27 134.5q0 79 26.5 135t75 87t113.5 31q64 0 110.5 -31.5t62.5 -84.5h-11v168h-157q-18 0 -28.5 9.5t-10.5 27.5q0 17 10.5 26.5t28.5 9.5h199l-42 -43v89q0 20 13 32t37 12t37.5 -12t13.5 -32v-89l-43 43h98q19 0 29 -9.5t10 -26.5
q0 -18 -10 -27.5t-29 -9.5h-55v-505q0 -24 -13 -37.5t-37 -13.5q-25 0 -38 13.5t-13 37.5v86l11 -21q-16 -53 -62.5 -85.5t-110.5 -32.5zM283 69q42 0 73 20t48 59t17 96q0 86 -37.5 130t-100.5 44q-41 0 -72.5 -19.5t-48.5 -58.5t-17 -96q0 -85 38 -130t100 -45z" />
    <glyph glyph-name="Emacron" unicode="&#x112;" horiz-adv-x="589" 
d="M138 0q-27 0 -41.5 14.5t-14.5 41.5v593q0 27 14.5 41.5t41.5 14.5h365q21 0 32 -10.5t11 -30.5q0 -21 -11 -32t-32 -11h-321v-221h299q22 0 32.5 -11t10.5 -31q0 -21 -10.5 -31.5t-32.5 -10.5h-299v-232h321q21 0 32 -11t11 -31q0 -21 -11 -31.5t-32 -10.5h-365z
M189 811q-34 0 -34 31q0 16 9 24t25 8h275q33 0 33 -32q0 -14 -8.5 -22.5t-24.5 -8.5h-275z" />
    <glyph glyph-name="emacron" unicode="&#x113;" horiz-adv-x="537" 
d="M300 -9q-80 0 -137.5 30.5t-89 87t-31.5 134.5q0 76 31 133t85 89t123 32q51 0 91 -16.5t68.5 -48t43 -76.5t14.5 -101q0 -17 -10 -25.5t-30 -8.5h-336v62h308l-17 -14q0 50 -14.5 85t-43 53.5t-70.5 18.5q-47 0 -79.5 -22t-49.5 -61t-17 -91v-6q0 -88 41.5 -132.5
t120.5 -44.5q30 0 63.5 8t63.5 27q17 10 30.5 9t22 -9t10.5 -20t-4 -24.5t-21 -22.5q-34 -23 -79 -34.5t-87 -11.5zM160 621q-34 0 -34 32q0 15 9 23.5t25 8.5h245q33 0 33 -32q0 -15 -8.5 -23.5t-24.5 -8.5h-245z" />
    <glyph glyph-name="Ebreve" unicode="&#x114;" horiz-adv-x="589" 
d="M138 0q-27 0 -41.5 14.5t-14.5 41.5v593q0 27 14.5 41.5t41.5 14.5h365q21 0 32 -10.5t11 -30.5q0 -21 -11 -32t-32 -11h-321v-221h299q22 0 32.5 -11t10.5 -31q0 -21 -10.5 -31.5t-32.5 -10.5h-299v-232h321q21 0 32 -11t11 -31q0 -21 -11 -31.5t-32 -10.5h-365z
M326 760q-62 0 -108.5 35t-62.5 104q-4 17 4.5 27.5t20.5 11.5q11 1 18.5 -2.5t11.5 -9.5t6 -14q10 -48 42 -68t68 -20q37 0 68.5 20t41.5 68q2 8 6 14t12 9.5t18 2.5q12 -1 20.5 -11.5t4.5 -27.5q-15 -69 -62 -104t-109 -35z" />
    <glyph glyph-name="ebreve" unicode="&#x115;" horiz-adv-x="537" 
d="M300 -9q-80 0 -137.5 30.5t-89 87t-31.5 134.5q0 76 31 133t85 89t123 32q51 0 91 -16.5t68.5 -48t43 -76.5t14.5 -101q0 -17 -10 -25.5t-30 -8.5h-336v62h308l-17 -14q0 50 -14.5 85t-43 53.5t-70.5 18.5q-47 0 -79.5 -22t-49.5 -61t-17 -91v-6q0 -88 41.5 -132.5
t120.5 -44.5q30 0 63.5 8t63.5 27q17 10 30.5 9t22 -9t10.5 -20t-4 -24.5t-21 -22.5q-34 -23 -79 -34.5t-87 -11.5zM282 550q-45 0 -77.5 20.5t-53 56.5t-26.5 84q-3 17 5.5 27.5t21.5 10.5q14 1 23 -6.5t11 -23.5q8 -52 33.5 -78.5t62.5 -26.5t63 26.5t33 78.5
q2 16 11 23.5t23 6.5q14 0 22 -10.5t5 -27.5q-5 -48 -25.5 -84t-53.5 -56.5t-78 -20.5z" />
    <glyph glyph-name="Edotaccent" unicode="&#x116;" horiz-adv-x="589" 
d="M138 0q-27 0 -41.5 14.5t-14.5 41.5v593q0 27 14.5 41.5t41.5 14.5h365q21 0 32 -10.5t11 -30.5q0 -21 -11 -32t-32 -11h-321v-221h299q22 0 32.5 -11t10.5 -31q0 -21 -10.5 -31.5t-32.5 -10.5h-299v-232h321q21 0 32 -11t11 -31q0 -21 -11 -31.5t-32 -10.5h-365z
M326 797q-27 0 -41.5 14t-14.5 40q0 27 14.5 40.5t41.5 13.5q28 0 42 -13.5t14 -40.5q0 -26 -14 -40t-42 -14z" />
    <glyph glyph-name="edotaccent" unicode="&#x117;" horiz-adv-x="537" 
d="M300 -9q-80 0 -137.5 30.5t-89 87t-31.5 134.5q0 76 31 133t85 89t123 32q51 0 91 -16.5t68.5 -48t43 -76.5t14.5 -101q0 -17 -10 -25.5t-30 -8.5h-336v62h308l-17 -14q0 50 -14.5 85t-43 53.5t-70.5 18.5q-47 0 -79.5 -22t-49.5 -61t-17 -91v-6q0 -88 41.5 -132.5
t120.5 -44.5q30 0 63.5 8t63.5 27q17 10 30.5 9t22 -9t10.5 -20t-4 -24.5t-21 -22.5q-34 -23 -79 -34.5t-87 -11.5zM282 600q-27 0 -41.5 14.5t-14.5 40.5t14.5 39.5t41.5 13.5q28 0 42.5 -13.5t14.5 -39.5q0 -27 -14.5 -41t-42.5 -14z" />
    <glyph glyph-name="Eogonek" unicode="&#x118;" horiz-adv-x="589" 
d="M138 0q-27 0 -41.5 14.5t-14.5 41.5v593q0 27 14.5 41.5t41.5 14.5h365q21 0 32 -10.5t11 -30.5q0 -21 -11 -32t-32 -11h-321v-221h299q22 0 32.5 -11t10.5 -31q0 -21 -10.5 -31.5t-32.5 -10.5h-299v-232h321q21 0 32 -11t11 -31q0 -21 -11 -31.5t-32 -10.5h-365z
M476 -194q-51 0 -81 27.5t-30 73.5q0 41 26.5 76.5t72.5 55.5l32 -39q-16 -7 -30.5 -19t-23.5 -28t-9 -35q0 -27 16 -40.5t41 -13.5q8 0 16 1.5t16 3.5q16 5 24.5 -0.5t11 -16.5t-2.5 -21t-18 -16q-16 -5 -31.5 -7t-29.5 -2z" />
    <glyph glyph-name="eogonek" unicode="&#x119;" horiz-adv-x="537" 
d="M300 -9q-80 0 -137.5 30.5t-89 87t-31.5 134.5q0 76 31 133t85 89t123 32q51 0 91 -16.5t68.5 -48t43 -76.5t14.5 -101q0 -17 -10 -25.5t-30 -8.5h-336v62h308l-17 -14q0 50 -14.5 85t-43 53.5t-70.5 18.5q-47 0 -79.5 -22t-49.5 -61t-17 -91v-6q0 -88 41.5 -132.5
t120.5 -44.5q30 0 63.5 8t63.5 27q17 10 30.5 9t22 -9t10.5 -20t-4 -24.5t-21 -22.5q-34 -23 -79 -34.5t-87 -11.5zM343 -194q-51 0 -81 27.5t-30 73.5q0 41 26.5 76.5t72.5 55.5l32 -39q-16 -7 -30.5 -19t-23.5 -28t-9 -35q0 -27 16 -40.5t41 -13.5q8 0 16 1.5t16 3.5
q16 5 24.5 -0.5t11 -16.5t-2.5 -21t-18 -16q-16 -5 -31.5 -7t-29.5 -2z" />
    <glyph glyph-name="Ecaron" unicode="&#x11a;" horiz-adv-x="589" 
d="M138 0q-27 0 -41.5 14.5t-14.5 41.5v593q0 27 14.5 41.5t41.5 14.5h365q21 0 32 -10.5t11 -30.5q0 -21 -11 -32t-32 -11h-321v-221h299q22 0 32.5 -11t10.5 -31q0 -21 -10.5 -31.5t-32.5 -10.5h-299v-232h321q21 0 32 -11t11 -31q0 -21 -11 -31.5t-32 -10.5h-365z
M326 755q-18 0 -33.5 8t-27.5 25l-81 113q-9 12 -6 23t13 17.5t22 5t22 -13.5l91 -108l91 108q11 12 23 13.5t21.5 -5t12.5 -17t-6 -23.5l-80 -113q-12 -17 -27.5 -25t-34.5 -8z" />
    <glyph glyph-name="ecaron" unicode="&#x11b;" horiz-adv-x="537" 
d="M300 -9q-80 0 -137.5 30.5t-89 87t-31.5 134.5q0 76 31 133t85 89t123 32q51 0 91 -16.5t68.5 -48t43 -76.5t14.5 -101q0 -17 -10 -25.5t-30 -8.5h-336v62h308l-17 -14q0 50 -14.5 85t-43 53.5t-70.5 18.5q-47 0 -79.5 -22t-49.5 -61t-17 -91v-6q0 -88 41.5 -132.5
t120.5 -44.5q30 0 63.5 8t63.5 27q17 10 30.5 9t22 -9t10.5 -20t-4 -24.5t-21 -22.5q-34 -23 -79 -34.5t-87 -11.5zM282 537q-19 0 -33.5 10.5t-24.5 28.5l-79 143q-7 13 -3 24t14 16.5t21.5 3.5t19.5 -13l85 -136l85 136q8 11 19.5 13t21.5 -3.5t14 -16.5t-3 -24l-78 -143
q-10 -18 -25 -28.5t-34 -10.5z" />
    <glyph glyph-name="Gcircumflex" unicode="&#x11c;" horiz-adv-x="731" 
d="M412 -9q-115 0 -194 43.5t-119.5 124.5t-40.5 193q0 84 23.5 150.5t68 114t109 72.5t146.5 25q60 0 118 -15.5t106 -50.5q14 -10 18 -23t0.5 -26.5t-13 -23.5t-23 -12t-29.5 8q-39 27 -82 39.5t-95 12.5q-78 0 -131.5 -32t-80.5 -92.5t-27 -146.5q0 -133 63 -202t187 -69
q45 0 88.5 8.5t83.5 24.5l-21 -52v233h-129q-20 0 -31.5 10.5t-11.5 29.5t11.5 28.5t31.5 9.5h173q21 0 32 -11t11 -32v-252q0 -18 -6.5 -30.5t-21.5 -18.5q-43 -17 -101 -27.5t-113 -10.5zM305 770q-10 -12 -22.5 -13t-22 5.5t-12.5 17t6 22.5l81 113q12 18 27.5 25.5
t33.5 7.5q19 0 34 -7.5t28 -25.5l80 -113q10 -12 7 -22.5t-12.5 -17t-22 -5.5t-23.5 13l-91 107z" />
    <glyph glyph-name="gcircumflex" unicode="&#x11d;" horiz-adv-x="594" 
d="M292 -189q-54 0 -104.5 11t-91.5 36q-15 8 -20 19.5t-2.5 23.5t10.5 21t19.5 12t24.5 -4q44 -24 83.5 -32.5t73.5 -8.5q70 0 105 35.5t35 104.5v102h9q-15 -55 -63 -87t-111 -32q-66 0 -115 30.5t-76 85t-27 127.5q0 55 15.5 99t44 76t69 49.5t89.5 17.5q64 0 111.5 -32
t61.5 -87l-10 -17v83q0 25 13.5 38t36.5 13q24 0 37 -13t13 -38v-403q0 -114 -59 -172t-172 -58zM284 91q44 0 75 20t48 57t17 87q0 75 -37.5 119t-102.5 44q-43 0 -74 -20t-48.5 -56.5t-17.5 -86.5q0 -76 38 -120t102 -44zM436 589q7 -14 3 -25t-14 -16.5t-21.5 -3.5
t-19.5 14l-85 135l-85 -135q-8 -12 -19.5 -14t-21.5 3.5t-14 16.5t3 25l79 143q10 19 24.5 28t33.5 9t34 -9t25 -28z" />
    <glyph glyph-name="Gbreve" unicode="&#x11e;" horiz-adv-x="731" 
d="M412 -9q-115 0 -194 43.5t-119.5 124.5t-40.5 193q0 84 23.5 150.5t68 114t109 72.5t146.5 25q60 0 118 -15.5t106 -50.5q14 -10 18 -23t0.5 -26.5t-13 -23.5t-23 -12t-29.5 8q-39 27 -82 39.5t-95 12.5q-78 0 -131.5 -32t-80.5 -92.5t-27 -146.5q0 -133 63 -202t187 -69
q45 0 88.5 8.5t83.5 24.5l-21 -52v233h-129q-20 0 -31.5 10.5t-11.5 29.5t11.5 28.5t31.5 9.5h173q21 0 32 -11t11 -32v-252q0 -18 -6.5 -30.5t-21.5 -18.5q-43 -17 -101 -27.5t-113 -10.5zM396 760q-62 0 -108.5 35t-62.5 104q-4 17 4.5 27.5t20.5 11.5q11 1 18.5 -2.5
t11.5 -9.5t6 -14q10 -48 42 -68t68 -20q37 0 68.5 20t41.5 68q2 8 6 14t12 9.5t18 2.5q12 -1 20.5 -11.5t4.5 -27.5q-15 -69 -62 -104t-109 -35z" />
    <glyph glyph-name="gbreve" unicode="&#x11f;" horiz-adv-x="594" 
d="M292 -189q-54 0 -104.5 11t-91.5 36q-15 8 -20 19.5t-2.5 23.5t10.5 21t19.5 12t24.5 -4q44 -24 83.5 -32.5t73.5 -8.5q70 0 105 35.5t35 104.5v102h9q-15 -55 -63 -87t-111 -32q-66 0 -115 30.5t-76 85t-27 127.5q0 55 15.5 99t44 76t69 49.5t89.5 17.5q64 0 111.5 -32
t61.5 -87l-10 -17v83q0 25 13.5 38t36.5 13q24 0 37 -13t13 -38v-403q0 -114 -59 -172t-172 -58zM284 91q44 0 75 20t48 57t17 87q0 75 -37.5 119t-102.5 44q-43 0 -74 -20t-48.5 -56.5t-17.5 -86.5q0 -76 38 -120t102 -44zM299 550q-45 0 -77.5 20.5t-53 56.5t-26.5 84
q-3 17 5.5 27.5t21.5 10.5q14 1 23 -6.5t11 -23.5q8 -52 33.5 -78.5t62.5 -26.5t63 26.5t33 78.5q2 16 11 23.5t23 6.5q14 0 22 -10.5t5 -27.5q-5 -48 -25.5 -84t-53.5 -56.5t-78 -20.5z" />
    <glyph glyph-name="Gdotaccent" unicode="&#x120;" horiz-adv-x="731" 
d="M412 -9q-115 0 -194 43.5t-119.5 124.5t-40.5 193q0 84 23.5 150.5t68 114t109 72.5t146.5 25q60 0 118 -15.5t106 -50.5q14 -10 18 -23t0.5 -26.5t-13 -23.5t-23 -12t-29.5 8q-39 27 -82 39.5t-95 12.5q-78 0 -131.5 -32t-80.5 -92.5t-27 -146.5q0 -133 63 -202t187 -69
q45 0 88.5 8.5t83.5 24.5l-21 -52v233h-129q-20 0 -31.5 10.5t-11.5 29.5t11.5 28.5t31.5 9.5h173q21 0 32 -11t11 -32v-252q0 -18 -6.5 -30.5t-21.5 -18.5q-43 -17 -101 -27.5t-113 -10.5zM396 797q-27 0 -41.5 14t-14.5 40q0 27 14.5 40.5t41.5 13.5q28 0 42 -13.5
t14 -40.5q0 -26 -14 -40t-42 -14z" />
    <glyph glyph-name="gdotaccent" unicode="&#x121;" horiz-adv-x="594" 
d="M292 -189q-54 0 -104.5 11t-91.5 36q-15 8 -20 19.5t-2.5 23.5t10.5 21t19.5 12t24.5 -4q44 -24 83.5 -32.5t73.5 -8.5q70 0 105 35.5t35 104.5v102h9q-15 -55 -63 -87t-111 -32q-66 0 -115 30.5t-76 85t-27 127.5q0 55 15.5 99t44 76t69 49.5t89.5 17.5q64 0 111.5 -32
t61.5 -87l-10 -17v83q0 25 13.5 38t36.5 13q24 0 37 -13t13 -38v-403q0 -114 -59 -172t-172 -58zM284 91q44 0 75 20t48 57t17 87q0 75 -37.5 119t-102.5 44q-43 0 -74 -20t-48.5 -56.5t-17.5 -86.5q0 -76 38 -120t102 -44zM299 600q-27 0 -41.5 14.5t-14.5 40.5t14.5 39.5
t41.5 13.5q28 0 42.5 -13.5t14.5 -39.5q0 -27 -14.5 -41t-42.5 -14z" />
    <glyph glyph-name="uni0122" unicode="&#x122;" horiz-adv-x="731" 
d="M412 -9q-115 0 -194 43.5t-119.5 124.5t-40.5 193q0 84 23.5 150.5t68 114t109 72.5t146.5 25q60 0 118 -15.5t106 -50.5q14 -10 18 -23t0.5 -26.5t-13 -23.5t-23 -12t-29.5 8q-39 27 -82 39.5t-95 12.5q-78 0 -131.5 -32t-80.5 -92.5t-27 -146.5q0 -133 63 -202t187 -69
q45 0 88.5 8.5t83.5 24.5l-21 -52v233h-129q-20 0 -31.5 10.5t-11.5 29.5t11.5 28.5t31.5 9.5h173q21 0 32 -11t11 -32v-252q0 -18 -6.5 -30.5t-21.5 -18.5q-43 -17 -101 -27.5t-113 -10.5zM422 -255q-9 -11 -20 -12.5t-19 4t-9.5 16t7.5 23.5q11 15 16 33t5 32l3 -18
q-29 0 -45 14.5t-16 38.5q0 25 15.5 38.5t42.5 13.5q28 0 43.5 -15.5t15.5 -47.5q0 -19 -4 -40.5t-12.5 -42t-22.5 -37.5z" />
    <glyph glyph-name="uni0123" unicode="&#x123;" horiz-adv-x="594" 
d="M292 -189q-54 0 -104.5 11t-91.5 36q-15 8 -20 19.5t-2.5 23.5t10.5 21t19.5 12t24.5 -4q44 -24 83.5 -32.5t73.5 -8.5q70 0 105 35.5t35 104.5v102h9q-15 -55 -63 -87t-111 -32q-66 0 -115 30.5t-76 85t-27 127.5q0 55 15.5 99t44 76t69 49.5t89.5 17.5q64 0 111.5 -32
t61.5 -87l-10 -17v83q0 25 13.5 38t36.5 13q24 0 37 -13t13 -38v-403q0 -114 -59 -172t-172 -58zM284 91q44 0 75 20t48 57t17 87q0 75 -37.5 119t-102.5 44q-43 0 -74 -20t-48.5 -56.5t-17.5 -86.5q0 -76 38 -120t102 -44zM300 561q-28 0 -43.5 15.5t-15.5 47.5
q0 19 4 40.5t13 42t22 36.5q9 12 20 13.5t19 -4t9.5 -16t-7.5 -23.5q-11 -15 -16 -32.5t-5 -32.5l-3 18q29 0 45 -14t16 -39t-15.5 -38.5t-42.5 -13.5z" />
    <glyph glyph-name="Hcircumflex" unicode="&#x124;" horiz-adv-x="767" 
d="M134 -7q-25 0 -38.5 14t-13.5 39v613q0 26 13.5 39.5t38.5 13.5t38.5 -13.5t13.5 -39.5v-258h395v258q0 26 13.5 39.5t38.5 13.5t38 -13.5t13 -39.5v-613q0 -25 -13 -39t-38 -14t-38.5 14t-13.5 39v268h-395v-268q0 -25 -13 -39t-39 -14zM292 770q-10 -12 -22.5 -13
t-22 5.5t-12.5 17t6 22.5l81 113q12 18 27.5 25.5t33.5 7.5q19 0 34 -7.5t28 -25.5l80 -113q10 -12 7 -22.5t-12.5 -17t-22 -5.5t-23.5 13l-91 107z" />
    <glyph glyph-name="hcircumflex" unicode="&#x125;" horiz-adv-x="576" 
d="M121 -7q-24 0 -37 13.5t-13 37.5v617q0 25 13 38t37 13t37.5 -13t13.5 -38v-277h-14q22 56 69 84.5t108 28.5q58 0 96.5 -21.5t57.5 -65t19 -109.5v-257q0 -24 -13 -37.5t-37 -13.5q-25 0 -38 13.5t-13 37.5v251q0 63 -24.5 92t-76.5 29q-61 0 -97.5 -38t-36.5 -102v-232
q0 -51 -51 -51zM198 770q-10 -12 -22.5 -13t-22 5.5t-12.5 17t6 22.5l81 113q12 18 27.5 25.5t33.5 7.5q19 0 34 -7.5t28 -25.5l80 -113q10 -12 7 -22.5t-12.5 -17t-22 -5.5t-23.5 13l-91 107z" />
    <glyph glyph-name="Hbar" unicode="&#x126;" horiz-adv-x="807" 
d="M155 -7q-25 0 -39 14t-14 39v483l30 -13h-84q-41 0 -41 39q0 18 11 28t30 10h73l-19 -29v95q0 26 14 39.5t39 13.5t38 -13.5t13 -39.5v-95l-15 29h425l-15 -29v95q0 26 13.5 39.5t38.5 13.5t38.5 -13.5t13.5 -39.5v-95l-23 29h77q41 0 41 -38q0 -19 -10.5 -29t-30.5 -10
h-87l33 15v-485q0 -25 -13.5 -39t-38.5 -14t-38.5 14t-13.5 39v261h-395v-261q0 -25 -12.5 -39t-38.5 -14zM206 394h395v122h-395v-122z" />
    <glyph glyph-name="hbar" unicode="&#x127;" horiz-adv-x="576" 
d="M121 -7q-24 0 -37 13.5t-13 37.5v505h-53q-19 0 -29 9.5t-10 27.5q0 36 39 36h75l-22 -37v80q0 22 13 34.5t37 12.5t37.5 -12.5t13.5 -34.5v-80l-23 37h176q20 0 30 -9.5t10 -26.5q0 -37 -40 -37h-153v-165h-14q22 56 69 84.5t108 28.5q58 0 96.5 -21.5t57.5 -65
t19 -109.5v-257q0 -24 -13 -37.5t-37 -13.5q-25 0 -38 13.5t-13 37.5v251q0 63 -24.5 92t-76.5 29q-61 0 -97.5 -38t-36.5 -102v-232q0 -51 -51 -51z" />
    <glyph glyph-name="Itilde" unicode="&#x128;" horiz-adv-x="268" 
d="M134 -7q-25 0 -38.5 14t-13.5 39v613q0 26 13.5 39.5t38.5 13.5t38.5 -13.5t13.5 -39.5v-613q0 -25 -13 -39t-39 -14zM-52 775q-14 0 -21.5 9t-4.5 24q11 54 44 83.5t79 29.5q28 0 52 -10.5t46 -24.5t42.5 -25t40.5 -11q26 0 42.5 15.5t21.5 39.5q4 12 11.5 18t18.5 5
q14 -1 21.5 -9.5t4.5 -23.5q-11 -54 -43 -84t-79 -30q-28 0 -52.5 11t-46.5 25t-42.5 25t-40.5 11q-26 0 -42.5 -15.5t-21.5 -39.5q-3 -12 -10.5 -18t-19.5 -5z" />
    <glyph glyph-name="itilde" unicode="&#x129;" horiz-adv-x="243" 
d="M121 -6q-24 0 -37 14.5t-13 40.5v390q0 26 13 40t37 14t37.5 -14t13.5 -40v-390q0 -26 -13 -40.5t-38 -14.5zM-39 584q-12 1 -19 9t-4 24q4 22 12.5 42.5t21.5 36.5t32 25.5t44 9.5q24 0 43 -11t35 -25t32 -25t35 -11q22 0 37.5 16t20.5 42q2 10 9 15.5t21 4.5
q12 0 19 -8t4 -25q-5 -29 -18.5 -55t-36 -42t-55.5 -16q-24 0 -43 10.5t-35.5 24.5t-32.5 25t-34 11q-22 0 -37 -15.5t-21 -42.5q-1 -10 -8.5 -15.5t-21.5 -4.5z" />
    <glyph glyph-name="Imacron" unicode="&#x12a;" horiz-adv-x="268" 
d="M134 -7q-25 0 -38.5 14t-13.5 39v613q0 26 13.5 39.5t38.5 13.5t38.5 -13.5t13.5 -39.5v-613q0 -25 -13 -39t-39 -14zM-3 811q-34 0 -34 31q0 16 9 24t25 8h275q33 0 33 -32q0 -14 -8.5 -22.5t-24.5 -8.5h-275z" />
    <glyph glyph-name="imacron" unicode="&#x12b;" horiz-adv-x="243" 
d="M121 -6q-24 0 -37 14.5t-13 40.5v390q0 26 13 40t37 14t37.5 -14t13.5 -40v-390q0 -26 -13 -40.5t-38 -14.5zM-1 621q-34 0 -34 32q0 15 9 23.5t25 8.5h245q33 0 33 -32q0 -15 -8.5 -23.5t-24.5 -8.5h-245z" />
    <glyph glyph-name="Ibreve" unicode="&#x12c;" horiz-adv-x="268" 
d="M134 -7q-25 0 -38.5 14t-13.5 39v613q0 26 13.5 39.5t38.5 13.5t38.5 -13.5t13.5 -39.5v-613q0 -25 -13 -39t-39 -14zM134 760q-62 0 -108.5 35t-62.5 104q-4 17 4.5 27.5t20.5 11.5q11 1 18.5 -2.5t11.5 -9.5t6 -14q10 -48 42 -68t68 -20q37 0 68.5 20t41.5 68q2 8 6 14
t12 9.5t18 2.5q12 -1 20.5 -11.5t4.5 -27.5q-15 -69 -62 -104t-109 -35z" />
    <glyph glyph-name="ibreve" unicode="&#x12d;" horiz-adv-x="243" 
d="M121 -6q-24 0 -37 14.5t-13 40.5v390q0 26 13 40t37 14t37.5 -14t13.5 -40v-390q0 -26 -13 -40.5t-38 -14.5zM121 550q-45 0 -77.5 20.5t-53 56.5t-26.5 84q-3 17 5.5 27.5t21.5 10.5q14 1 23 -6.5t11 -23.5q8 -52 33.5 -78.5t62.5 -26.5t63 26.5t33 78.5q2 16 11 23.5
t23 6.5q14 0 22 -10.5t5 -27.5q-5 -48 -25.5 -84t-53.5 -56.5t-78 -20.5z" />
    <glyph glyph-name="Iogonek" unicode="&#x12e;" horiz-adv-x="268" 
d="M147 -194q-51 0 -81 27.5t-30 73.5q0 31 15.5 59.5t44.5 49.5l-1 -7q-6 6 -9.5 15.5t-3.5 21.5v613q0 26 13.5 39.5t38.5 13.5t38.5 -13.5t13.5 -39.5v-613q0 -18 -7 -30.5t-18 -17.5q-23 -11 -40.5 -32t-17.5 -48t16.5 -40.5t40.5 -13.5q8 0 16 1.5t17 3.5q15 5 24 -0.5
t11 -16.5t-3 -21t-18 -16q-15 -5 -30.5 -7t-29.5 -2z" />
    <glyph glyph-name="iogonek" unicode="&#x12f;" horiz-adv-x="243" 
d="M133 -194q-50 0 -80.5 27.5t-30.5 73.5q0 34 18.5 64t50.5 51l-4 -16q-8 7 -12 18t-4 25v390q0 26 13 40t37 14t37.5 -14t13.5 -40v-390q0 -19 -7.5 -32t-20.5 -21q-23 -15 -38.5 -34t-15.5 -44q0 -27 16.5 -40.5t40.5 -13.5q8 0 16 1.5t17 3.5q15 5 24 -0.5t11 -16.5
t-3 -21t-18 -16q-15 -5 -31 -7t-30 -2zM121 597q-30 0 -46.5 15t-16.5 42q0 28 16.5 42.5t46.5 14.5t46.5 -14.5t16.5 -42.5q0 -27 -16.5 -42t-46.5 -15z" />
    <glyph glyph-name="Idotaccent" unicode="&#x130;" horiz-adv-x="268" 
d="M134 -7q-25 0 -38.5 14t-13.5 39v613q0 26 13.5 39.5t38.5 13.5t38.5 -13.5t13.5 -39.5v-613q0 -25 -13 -39t-39 -14zM134 797q-27 0 -41.5 14t-14.5 40q0 27 14.5 40.5t41.5 13.5q28 0 42 -13.5t14 -40.5q0 -26 -14 -40t-42 -14z" />
    <glyph glyph-name="dotlessi" unicode="&#x131;" horiz-adv-x="243" 
d="M121 -6q-24 0 -37 14.5t-13 40.5v390q0 26 13 40t37 14t37.5 -14t13.5 -40v-390q0 -26 -13 -40.5t-38 -14.5z" />
    <glyph glyph-name="IJ" unicode="&#x132;" horiz-adv-x="606" 
d="M134 -7q-25 0 -38.5 14t-13.5 39v613q0 26 13.5 39.5t38.5 13.5t38.5 -13.5t13.5 -39.5v-613q0 -25 -13 -39t-39 -14zM304 -6q-23 -1 -36 12t-13 33q0 15 9.5 27t27.5 13l31 2q48 4 73 32.5t25 79.5v467q0 26 13 39t38 13t38.5 -13t13.5 -39v-467q0 -60 -21.5 -102.5
t-62.5 -66.5t-102 -28z" />
    <glyph glyph-name="Jcircumflex" unicode="&#x134;" horiz-adv-x="338" 
d="M36 -6q-23 -1 -36 12t-13 33q0 15 9.5 27t27.5 13l31 2q48 4 73 32.5t25 79.5v467q0 26 13 39t38 13t38.5 -13t13.5 -39v-467q0 -60 -21.5 -102.5t-62.5 -66.5t-102 -28zM112 770q-10 -12 -22.5 -13t-22 5.5t-12.5 17t6 22.5l81 113q12 18 27.5 25.5t33.5 7.5
q19 0 34 -7.5t28 -25.5l80 -113q10 -12 7 -22.5t-12.5 -17t-22 -5.5t-23.5 13l-91 107z" />
    <glyph glyph-name="jcircumflex" unicode="&#x135;" horiz-adv-x="246" 
d="M-7 -190q-18 -1 -29.5 6t-16 18t-3 22.5t10 20t22.5 9.5q50 3 73.5 27t23.5 76v455q0 25 13.5 38t37.5 13q25 0 37.5 -13t12.5 -38v-447q0 -62 -20.5 -102.5t-60.5 -60.5t-101 -24zM262 589q7 -14 3 -25t-14 -16.5t-21.5 -3.5t-19.5 14l-85 135l-85 -135
q-8 -12 -19.5 -14t-21.5 3.5t-14 16.5t3 25l79 143q10 19 24.5 28t33.5 9t34 -9t25 -28z" />
    <glyph glyph-name="uni0136" unicode="&#x136;" horiz-adv-x="643" 
d="M134 -7q-25 0 -38.5 14t-13.5 39v614q0 26 13.5 39t38.5 13t38.5 -13t13.5 -39v-272h2l307 297q15 14 28.5 20.5t30.5 6.5q23 0 33.5 -11.5t8.5 -27.5t-17 -31l-319 -304l2 51l332 -320q18 -17 19 -35t-11 -29.5t-34 -11.5q-20 0 -32 8t-28 23l-320 305h-2v-283
q0 -25 -13 -39t-39 -14zM342 -255q-9 -11 -20 -12.5t-19 4t-9.5 16t7.5 23.5q11 15 16 33t5 32l3 -18q-29 0 -45 14.5t-16 38.5q0 25 15.5 38.5t42.5 13.5q28 0 43.5 -15.5t15.5 -47.5q0 -19 -4 -40.5t-12.5 -42t-22.5 -37.5z" />
    <glyph glyph-name="uni0137" unicode="&#x137;" horiz-adv-x="516" 
d="M121 -7q-24 0 -37 13.5t-13 37.5v617q0 25 13 38t37 13t37.5 -13t13.5 -38v-386h2l187 186q16 16 29 25t34 9t32 -11t11 -26.5t-15 -31.5l-198 -196v47l216 -215q16 -16 15 -32t-13 -26.5t-30 -10.5q-23 0 -36.5 9t-31.5 27l-200 194h-2v-179q0 -51 -51 -51zM277 -255
q-9 -11 -20 -12.5t-19 4t-9.5 16t7.5 23.5q11 15 16 33t5 32l3 -18q-29 0 -45 14.5t-16 38.5q0 25 15.5 38.5t42.5 13.5q28 0 43.5 -15.5t15.5 -47.5q0 -19 -4 -40.5t-12.5 -42t-22.5 -37.5z" />
    <glyph glyph-name="kgreenlandic" unicode="&#x138;" horiz-adv-x="516" 
d="M121 -7q-24 0 -37 13.5t-13 37.5v400q0 25 13 38t37 13t37.5 -13t13.5 -38v-169h2l187 186q16 16 29 25t33 9q22 0 33 -11t11 -26.5t-15 -31.5l-198 -196v47l216 -215q16 -16 15 -32t-13 -26.5t-30 -10.5q-23 0 -36.5 9t-31.5 27l-200 194h-2v-179q0 -24 -13 -37.5
t-38 -13.5z" />
    <glyph glyph-name="Lacute" unicode="&#x139;" horiz-adv-x="552" 
d="M135 0q-25 0 -39 14t-14 39v603q0 26 13.5 39.5t38.5 13.5t38.5 -13.5t13.5 -39.5v-567h310q22 0 34 -11.5t12 -32.5t-12 -33t-34 -12h-361zM176 770q-10 -11 -22 -11.5t-21.5 6.5t-12.5 18t5 23l84 123q9 14 22.5 17.5t26 -1t20.5 -14t9 -22t-10 -24.5z" />
    <glyph glyph-name="lacute" unicode="&#x13a;" horiz-adv-x="306" 
d="M228 -9q-78 0 -117.5 45.5t-39.5 131.5v493q0 25 13 38t37 13t37.5 -13t13.5 -38v-487q0 -50 20.5 -74.5t59.5 -24.5q9 0 16 0.5t14 1.5q12 1 17 -6.5t5 -30.5q0 -21 -9 -32.5t-29 -14.5q-9 -1 -19 -1.5t-19 -0.5zM163 770q-10 -11 -22 -11.5t-21.5 6.5t-12.5 18t5 23
l84 123q9 14 22.5 17.5t26 -1t20.5 -14t9 -22t-10 -24.5z" />
    <glyph glyph-name="uni013B" unicode="&#x13b;" horiz-adv-x="552" 
d="M135 0q-25 0 -39 14t-14 39v603q0 26 13.5 39.5t38.5 13.5t38.5 -13.5t13.5 -39.5v-567h310q22 0 34 -11.5t12 -32.5t-12 -33t-34 -12h-361zM328 -255q-9 -11 -20 -12.5t-19 4t-9.5 16t7.5 23.5q11 15 16 33t5 32l3 -18q-29 0 -45 14.5t-16 38.5q0 25 15.5 38.5
t42.5 13.5q28 0 43.5 -15.5t15.5 -47.5q0 -19 -4 -40.5t-12.5 -42t-22.5 -37.5z" />
    <glyph glyph-name="uni013C" unicode="&#x13c;" horiz-adv-x="306" 
d="M228 -9q-78 0 -117.5 45.5t-39.5 131.5v493q0 25 13 38t37 13t37.5 -13t13.5 -38v-487q0 -50 20.5 -74.5t59.5 -24.5q9 0 16 0.5t14 1.5q12 1 17 -6.5t5 -30.5q0 -21 -9 -32.5t-29 -14.5q-9 -1 -19 -1.5t-19 -0.5zM208 -255q-9 -11 -20 -12.5t-19 4t-9.5 16t7.5 23.5
q11 15 16 33t5 32l3 -18q-29 0 -45 14.5t-16 38.5q0 25 15.5 38.5t42.5 13.5q28 0 43.5 -15.5t15.5 -47.5q0 -19 -4 -40.5t-12.5 -42t-22.5 -37.5z" />
    <glyph glyph-name="Lcaron" unicode="&#x13d;" horiz-adv-x="552" 
d="M135 0q-25 0 -39 14t-14 39v603q0 26 13.5 39.5t38.5 13.5t38.5 -13.5t13.5 -39.5v-567h310q22 0 34 -11.5t12 -32.5t-12 -33t-34 -12h-361zM327 469q-14 0 -22.5 8.5t-8.5 23.5v169q0 21 11 31.5t31 10.5t29.5 -10.5t8.5 -32.5l-16 -169q-2 -31 -33 -31z" />
    <glyph glyph-name="lcaron" unicode="&#x13e;" horiz-adv-x="306" 
d="M228 -9q-78 0 -117.5 45.5t-39.5 131.5v493q0 25 13 38t37 13t37.5 -13t13.5 -38v-487q0 -50 20.5 -74.5t59.5 -24.5q9 0 16 0.5t14 1.5q12 1 17 -6.5t5 -30.5q0 -21 -9 -32.5t-29 -14.5q-9 -1 -19 -1.5t-19 -0.5zM240 508q-11 0 -18 7t-7 19v141q0 37 37 37
q18 0 26.5 -10t6.5 -28l-19 -141q-4 -25 -26 -25z" />
    <glyph glyph-name="Ldot" unicode="&#x13f;" horiz-adv-x="552" 
d="M135 0q-25 0 -39 14t-14 39v603q0 26 13.5 39.5t38.5 13.5t38.5 -13.5t13.5 -39.5v-567h310q22 0 34 -11.5t12 -32.5t-12 -33t-34 -12h-361zM413 328q-29 0 -46.5 18t-17.5 45q0 29 17.5 46.5t46.5 17.5q30 0 46.5 -17.5t16.5 -46.5q0 -27 -16.5 -45t-46.5 -18z" />
    <glyph glyph-name="ldot" unicode="&#x140;" horiz-adv-x="354" 
d="M228 -9q-78 0 -117.5 45.5t-39.5 131.5v493q0 25 13 38t37 13t37.5 -13t13.5 -38v-487q0 -50 20.5 -74.5t59.5 -24.5q9 0 16 0.5t14 1.5q12 1 17 -6.5t5 -30.5q0 -21 -9 -32.5t-29 -14.5q-9 -1 -19 -1.5t-19 -0.5zM300 289q-29 0 -46.5 18t-17.5 45q0 29 17.5 46.5
t46.5 17.5q30 0 46.5 -17.5t16.5 -46.5q0 -27 -16.5 -45t-46.5 -18z" />
    <glyph glyph-name="Lslash" unicode="&#x141;" horiz-adv-x="552" 
d="M135 0q-25 0 -39 14t-14 39v603q0 26 13.5 39.5t38.5 13.5t38.5 -13.5t13.5 -39.5v-567h310q22 0 34 -11.5t12 -32.5t-12 -33t-34 -12h-361zM37 259q-15 -9 -28.5 -7.5t-22.5 10.5t-11.5 21t2.5 24.5t21 22.5l324 186q15 9 28.5 7t22 -10.5t11.5 -21t-2 -25t-21 -21.5z
" />
    <glyph glyph-name="lslash" unicode="&#x142;" horiz-adv-x="306" 
d="M228 -9q-78 0 -117.5 45.5t-39.5 131.5v493q0 25 13 38t37 13t37.5 -13t13.5 -38v-487q0 -50 20.5 -74.5t59.5 -24.5q9 0 16 0.5t14 1.5q12 1 17 -6.5t5 -30.5q0 -21 -9 -32.5t-29 -14.5q-9 -1 -19 -1.5t-19 -0.5zM40 257q-15 -9 -28.5 -7.5t-22.5 10.5t-11.5 21
t2.5 24.5t20 21.5l223 129q16 9 29 7.5t22 -10.5t12 -20.5t-2 -24t-21 -21.5z" />
    <glyph glyph-name="Nacute" unicode="&#x143;" horiz-adv-x="743" 
d="M131 -7q-23 0 -36 13t-13 37v617q0 25 12.5 38.5t33.5 13.5q18 0 27.5 -6.5t22.5 -23.5l412 -543h-25v524q0 23 12.5 36t35.5 13q24 0 36 -13t12 -36v-621q0 -23 -11.5 -36t-30.5 -13q-18 0 -29.5 7t-24.5 24l-410 542h23v-523q0 -24 -12 -37t-35 -13zM414 770
q-10 -11 -22 -11.5t-21.5 6.5t-12.5 18t5 23l84 123q9 14 22.5 17.5t26 -1t20.5 -14t9 -22t-10 -24.5z" />
    <glyph glyph-name="nacute" unicode="&#x144;" horiz-adv-x="576" 
d="M121 -7q-24 0 -37 13.5t-13 37.5v400q0 25 13 38t36 13q24 0 36.5 -13t12.5 -38v-78l-11 18q22 56 69 84.5t108 28.5q58 0 96.5 -21.5t57.5 -65t19 -109.5v-257q0 -24 -13 -37.5t-37 -13.5q-25 0 -38 13.5t-13 37.5v251q0 63 -24.5 92t-76.5 29q-61 0 -97.5 -38
t-36.5 -102v-232q0 -51 -51 -51zM328 558q-8 -12 -19.5 -14t-22.5 4t-15.5 17t1.5 24l81 157q8 16 20.5 21t26 1.5t23 -12.5t11.5 -22.5t-7 -26.5z" />
    <glyph glyph-name="uni0145" unicode="&#x145;" horiz-adv-x="743" 
d="M131 -7q-23 0 -36 13t-13 37v617q0 25 12.5 38.5t33.5 13.5q18 0 27.5 -6.5t22.5 -23.5l412 -543h-25v524q0 23 12.5 36t35.5 13q24 0 36 -13t12 -36v-621q0 -23 -11.5 -36t-30.5 -13q-18 0 -29.5 7t-24.5 24l-410 542h23v-523q0 -24 -12 -37t-35 -13zM391 -255
q-9 -11 -20 -12.5t-19 4t-9.5 16t7.5 23.5q11 15 16 33t5 32l3 -18q-29 0 -45 14.5t-16 38.5q0 25 15.5 38.5t42.5 13.5q28 0 43.5 -15.5t15.5 -47.5q0 -19 -4 -40.5t-12.5 -42t-22.5 -37.5z" />
    <glyph glyph-name="uni0146" unicode="&#x146;" horiz-adv-x="576" 
d="M121 -7q-24 0 -37 13.5t-13 37.5v400q0 25 13 38t36 13q24 0 36.5 -13t12.5 -38v-78l-11 18q22 56 69 84.5t108 28.5q58 0 96.5 -21.5t57.5 -65t19 -109.5v-257q0 -24 -13 -37.5t-37 -13.5q-25 0 -38 13.5t-13 37.5v251q0 63 -24.5 92t-76.5 29q-61 0 -97.5 -38
t-36.5 -102v-232q0 -51 -51 -51zM308 -255q-9 -11 -20 -12.5t-19 4t-9.5 16t7.5 23.5q11 15 16 33t5 32l3 -18q-29 0 -45 14.5t-16 38.5q0 25 15.5 38.5t42.5 13.5q28 0 43.5 -15.5t15.5 -47.5q0 -19 -4 -40.5t-12.5 -42t-22.5 -37.5z" />
    <glyph glyph-name="Ncaron" unicode="&#x147;" horiz-adv-x="743" 
d="M131 -7q-23 0 -36 13t-13 37v617q0 25 12.5 38.5t33.5 13.5q18 0 27.5 -6.5t22.5 -23.5l412 -543h-25v524q0 23 12.5 36t35.5 13q24 0 36 -13t12 -36v-621q0 -23 -11.5 -36t-30.5 -13q-18 0 -29.5 7t-24.5 24l-410 542h23v-523q0 -24 -12 -37t-35 -13zM372 755
q-18 0 -33.5 8t-27.5 25l-81 113q-9 12 -6 23t13 17.5t22 5t22 -13.5l91 -108l91 108q11 12 23 13.5t21.5 -5t12.5 -17t-6 -23.5l-80 -113q-12 -17 -27.5 -25t-34.5 -8z" />
    <glyph glyph-name="ncaron" unicode="&#x148;" horiz-adv-x="576" 
d="M121 -7q-24 0 -37 13.5t-13 37.5v400q0 25 13 38t36 13q24 0 36.5 -13t12.5 -38v-78l-11 18q22 56 69 84.5t108 28.5q58 0 96.5 -21.5t57.5 -65t19 -109.5v-257q0 -24 -13 -37.5t-37 -13.5q-25 0 -38 13.5t-13 37.5v251q0 63 -24.5 92t-76.5 29q-61 0 -97.5 -38
t-36.5 -102v-232q0 -51 -51 -51zM289 537q-19 0 -33.5 10.5t-24.5 28.5l-79 143q-7 13 -3 24t14 16.5t21.5 3.5t19.5 -13l85 -136l85 136q8 11 19.5 13t21.5 -3.5t14 -16.5t-3 -24l-78 -143q-10 -18 -25 -28.5t-34 -10.5z" />
    <glyph glyph-name="napostrophe" unicode="&#x149;" horiz-adv-x="576" 
d="M56 584q-9 -11 -20 -12.5t-19.5 3.5t-9.5 15.5t8 24.5q11 15 16 32.5t5 31.5l3 -18q-29 0 -45 14.5t-16 38.5q0 25 15 39t43 14t43.5 -15.5t15.5 -47.5q0 -19 -4 -41t-12.5 -42t-22.5 -37zM121 -7q-24 0 -37 13.5t-13 37.5v400q0 25 13 38t36 13q24 0 36.5 -13t12.5 -38
v-78l-11 18q22 56 69 84.5t108 28.5q58 0 96.5 -21.5t57.5 -65t19 -109.5v-257q0 -24 -13 -37.5t-37 -13.5q-25 0 -38 13.5t-13 37.5v251q0 63 -24.5 92t-76.5 29q-61 0 -97.5 -38t-36.5 -102v-232q0 -51 -51 -51z" />
    <glyph glyph-name="Eng" unicode="&#x14a;" horiz-adv-x="743" 
d="M477 -190q-18 -1 -29.5 6t-15.5 18t-2 22.5t10 20t22 9.5q51 4 77 27t26 76v54l19 -43l-429 566h23v-523q0 -24 -12 -37t-35 -13t-36 13t-13 37v617q0 25 12.5 38.5t33.5 13.5q18 0 27.5 -6.5t22.5 -23.5l412 -543h-25v524q0 23 12.5 36t35.5 13q24 0 36 -13t12 -36v-663
q0 -98 -47 -141.5t-137 -48.5z" />
    <glyph glyph-name="eng" unicode="&#x14b;" horiz-adv-x="576" 
d="M320 -191q-19 -2 -30 5t-15.5 18t-2.5 22.5t10.5 20.5t22.5 10q53 6 77.5 28.5t24.5 75.5v306q0 63 -24.5 92t-76.5 29q-61 0 -97.5 -38t-36.5 -102v-232q0 -51 -51 -51q-24 0 -37 13.5t-13 37.5v400q0 25 13 38t36 13q24 0 36.5 -13t12.5 -38v-78l-11 18q22 56 69 84.5
t108 28.5q58 0 96.5 -21.5t57.5 -65t19 -109.5v-304q0 -62 -20.5 -102.5t-62.5 -61t-105 -24.5z" />
    <glyph glyph-name="Omacron" unicode="&#x14c;" horiz-adv-x="775" 
d="M388 -9q-100 0 -174.5 44.5t-115 126t-40.5 191.5q0 83 23 149.5t66 114t104 72.5t137 25q101 0 175 -44t114.5 -125t40.5 -191q0 -83 -23 -150t-66.5 -115t-104.5 -73t-136 -25zM388 81q70 0 119.5 32t76 93t26.5 147q0 129 -58 200t-164 71q-70 0 -119.5 -31.5
t-76 -92.5t-26.5 -147q0 -128 58.5 -200t163.5 -72zM250 811q-34 0 -34 31q0 16 9 24t25 8h275q33 0 33 -32q0 -14 -8.5 -22.5t-24.5 -8.5h-275z" />
    <glyph glyph-name="omacron" unicode="&#x14d;" horiz-adv-x="565" 
d="M283 -9q-74 0 -127.5 31t-83.5 88t-30 134q0 59 17 105t48.5 79.5t76 51t99.5 17.5q73 0 126.5 -31t83.5 -87.5t30 -134.5q0 -58 -17 -105t-48.5 -80t-76 -50.5t-98.5 -17.5zM283 69q41 0 72 20t48.5 59t17.5 96q0 86 -38 130t-100 44q-42 0 -73 -19.5t-48.5 -58.5
t-17.5 -96q0 -85 38 -130t101 -45zM161 621q-34 0 -34 32q0 15 9 23.5t25 8.5h245q33 0 33 -32q0 -15 -8.5 -23.5t-24.5 -8.5h-245z" />
    <glyph glyph-name="Obreve" unicode="&#x14e;" horiz-adv-x="775" 
d="M388 -9q-100 0 -174.5 44.5t-115 126t-40.5 191.5q0 83 23 149.5t66 114t104 72.5t137 25q101 0 175 -44t114.5 -125t40.5 -191q0 -83 -23 -150t-66.5 -115t-104.5 -73t-136 -25zM388 81q70 0 119.5 32t76 93t26.5 147q0 129 -58 200t-164 71q-70 0 -119.5 -31.5
t-76 -92.5t-26.5 -147q0 -128 58.5 -200t163.5 -72zM387 760q-62 0 -108.5 35t-62.5 104q-4 17 4.5 27.5t20.5 11.5q11 1 18.5 -2.5t11.5 -9.5t6 -14q10 -48 42 -68t68 -20q37 0 68.5 20t41.5 68q2 8 6 14t12 9.5t18 2.5q12 -1 20.5 -11.5t4.5 -27.5q-15 -69 -62 -104
t-109 -35z" />
    <glyph glyph-name="obreve" unicode="&#x14f;" horiz-adv-x="565" 
d="M283 -9q-74 0 -127.5 31t-83.5 88t-30 134q0 59 17 105t48.5 79.5t76 51t99.5 17.5q73 0 126.5 -31t83.5 -87.5t30 -134.5q0 -58 -17 -105t-48.5 -80t-76 -50.5t-98.5 -17.5zM283 69q41 0 72 20t48.5 59t17.5 96q0 86 -38 130t-100 44q-42 0 -73 -19.5t-48.5 -58.5
t-17.5 -96q0 -85 38 -130t101 -45zM283 550q-45 0 -77.5 20.5t-53 56.5t-26.5 84q-3 17 5.5 27.5t21.5 10.5q14 1 23 -6.5t11 -23.5q8 -52 33.5 -78.5t62.5 -26.5t63 26.5t33 78.5q2 16 11 23.5t23 6.5q14 0 22 -10.5t5 -27.5q-5 -48 -25.5 -84t-53.5 -56.5t-78 -20.5z" />
    <glyph glyph-name="Ohungarumlaut" unicode="&#x150;" horiz-adv-x="775" 
d="M388 -9q-100 0 -174.5 44.5t-115 126t-40.5 191.5q0 83 23 149.5t66 114t104 72.5t137 25q101 0 175 -44t114.5 -125t40.5 -191q0 -83 -23 -150t-66.5 -115t-104.5 -73t-136 -25zM388 81q70 0 119.5 32t76 93t26.5 147q0 129 -58 200t-164 71q-70 0 -119.5 -31.5
t-76 -92.5t-26.5 -147q0 -128 58.5 -200t163.5 -72zM353 771q-9 -11 -19 -13t-19 2.5t-12.5 14t2.5 20.5l64 130q8 15 20 20t24 2t20.5 -11.5t10 -20.5t-8.5 -26zM487 769q-8 -10 -18 -11.5t-18.5 3.5t-11 14.5t3.5 21.5l69 129q7 15 19 19.5t24 1.5t20 -11.5t9 -20.5
t-9 -26z" />
    <glyph glyph-name="ohungarumlaut" unicode="&#x151;" horiz-adv-x="565" 
d="M283 -9q-74 0 -127.5 31t-83.5 88t-30 134q0 59 17 105t48.5 79.5t76 51t99.5 17.5q73 0 126.5 -31t83.5 -87.5t30 -134.5q0 -58 -17 -105t-48.5 -80t-76 -50.5t-98.5 -17.5zM283 69q41 0 72 20t48.5 59t17.5 96q0 86 -38 130t-100 44q-42 0 -73 -19.5t-48.5 -58.5
t-17.5 -96q0 -85 38 -130t101 -45zM381 561q-4 -11 -14 -15t-20 -1.5t-15.5 11t-2.5 21.5l41 159q5 17 16 25t24 8t24 -6t15.5 -18t-1.5 -28zM244 561q-5 -11 -14.5 -15t-19.5 -1.5t-16 11t-2 21.5l41 159q5 17 16 25t24 8t24 -6.5t15.5 -18t-2.5 -27.5z" />
    <glyph glyph-name="OE" unicode="&#x152;" horiz-adv-x="1051" 
d="M421 0q-174 0 -268.5 91.5t-94.5 261.5q0 85 24 151t70.5 110.5t114 67.5t154.5 23h543q21 0 32.5 -10.5t11.5 -30.5q0 -21 -11.5 -32t-32.5 -11h-320v-221h299q21 0 32 -11t11 -31q0 -21 -11 -31.5t-32 -10.5h-299v-232h320q21 0 32.5 -11t11.5 -31q0 -21 -11.5 -31.5
t-32.5 -10.5h-543zM427 87h117v531h-117q-65 0 -114 -16t-82 -49.5t-49 -83t-16 -116.5q0 -133 65 -199.5t196 -66.5z" />
    <glyph glyph-name="oe" unicode="&#x153;" horiz-adv-x="912" 
d="M280 -9q-72 0 -125.5 31t-83 88t-29.5 134q0 59 17 105t48.5 79.5t75 51t97.5 17.5q73 0 125.5 -35.5t78.5 -99.5h-26q23 61 77 98t125 37q66 0 114 -29.5t74 -83.5t26 -129q0 -17 -10.5 -25.5t-30.5 -8.5h-330v62h301l-16 -13q0 50 -14.5 84.5t-43 53t-70.5 18.5
q-46 0 -76.5 -22t-46.5 -61t-16 -91v-6q0 -87 39.5 -132t116.5 -45q30 0 63 8t63 27q17 10 30.5 9t22 -9t10.5 -20t-4 -24.5t-21 -22.5q-34 -23 -78.5 -34.5t-84.5 -11.5q-83 0 -141 35.5t-81 102.5h27q-25 -65 -77.5 -101.5t-125.5 -36.5zM283 69q41 0 72 20t48.5 59
t17.5 96q0 86 -38 130t-100 44q-42 0 -73 -19.5t-48.5 -58.5t-17.5 -96q0 -85 38 -130t101 -45z" />
    <glyph glyph-name="Racute" unicode="&#x154;" horiz-adv-x="677" 
d="M134 -7q-25 0 -38.5 14t-13.5 39v606q0 26 14 39.5t39 13.5h239q114 0 176 -54t62 -153q0 -64 -28 -110t-81.5 -70t-128.5 -24l9 14h26q40 0 69.5 -20t53.5 -64l86 -160q10 -18 9.5 -34.5t-12 -26.5t-32.5 -10q-22 0 -35.5 9.5t-24.5 28.5l-105 194q-21 39 -48 52.5
t-71 13.5h-113v-245q0 -25 -13 -39t-39 -14zM186 369h171q76 0 115 32t39 95q0 62 -39 94t-115 32h-171v-253zM386 770q-10 -11 -22 -11.5t-21.5 6.5t-12.5 18t5 23l84 123q9 14 22.5 17.5t26 -1t20.5 -14t9 -22t-10 -24.5z" />
    <glyph glyph-name="racute" unicode="&#x155;" horiz-adv-x="373" 
d="M122 -7q-25 0 -38 13.5t-13 37.5v400q0 25 13 38t36 13q24 0 36.5 -13t12.5 -38v-73h-10q16 60 59 91t110 36q18 1 28.5 -9t11.5 -31q2 -21 -9 -33.5t-34 -14.5l-19 -2q-65 -6 -99 -41t-34 -96v-227q0 -24 -12.5 -37.5t-38.5 -13.5zM259 558q-8 -12 -19.5 -14t-22.5 4
t-15.5 17t1.5 24l81 157q8 16 20.5 21t26 1.5t23 -12.5t11.5 -22.5t-7 -26.5z" />
    <glyph glyph-name="uni0156" unicode="&#x156;" horiz-adv-x="677" 
d="M134 -7q-25 0 -38.5 14t-13.5 39v606q0 26 14 39.5t39 13.5h239q114 0 176 -54t62 -153q0 -64 -28 -110t-81.5 -70t-128.5 -24l9 14h26q40 0 69.5 -20t53.5 -64l86 -160q10 -18 9.5 -34.5t-12 -26.5t-32.5 -10q-22 0 -35.5 9.5t-24.5 28.5l-105 194q-21 39 -48 52.5
t-71 13.5h-113v-245q0 -25 -13 -39t-39 -14zM186 369h171q76 0 115 32t39 95q0 62 -39 94t-115 32h-171v-253zM364 -255q-9 -11 -20 -12.5t-19 4t-9.5 16t7.5 23.5q11 15 16 33t5 32l3 -18q-29 0 -45 14.5t-16 38.5q0 25 15.5 38.5t42.5 13.5q28 0 43.5 -15.5t15.5 -47.5
q0 -19 -4 -40.5t-12.5 -42t-22.5 -37.5z" />
    <glyph glyph-name="uni0157" unicode="&#x157;" horiz-adv-x="373" 
d="M122 -7q-25 0 -38 13.5t-13 37.5v400q0 25 13 38t36 13q24 0 36.5 -13t12.5 -38v-73h-10q16 60 59 91t110 36q18 1 28.5 -9t11.5 -31q2 -21 -9 -33.5t-34 -14.5l-19 -2q-65 -6 -99 -41t-34 -96v-227q0 -24 -12.5 -37.5t-38.5 -13.5zM141 -255q-9 -11 -20 -12.5t-19 4
t-9.5 16t7.5 23.5q11 15 16 33t5 32l3 -18q-29 0 -45 14.5t-16 38.5q0 25 15.5 38.5t42.5 13.5q28 0 43.5 -15.5t15.5 -47.5q0 -19 -4 -40.5t-12.5 -42t-22.5 -37.5z" />
    <glyph glyph-name="Rcaron" unicode="&#x158;" horiz-adv-x="677" 
d="M134 -7q-25 0 -38.5 14t-13.5 39v606q0 26 14 39.5t39 13.5h239q114 0 176 -54t62 -153q0 -64 -28 -110t-81.5 -70t-128.5 -24l9 14h26q40 0 69.5 -20t53.5 -64l86 -160q10 -18 9.5 -34.5t-12 -26.5t-32.5 -10q-22 0 -35.5 9.5t-24.5 28.5l-105 194q-21 39 -48 52.5
t-71 13.5h-113v-245q0 -25 -13 -39t-39 -14zM186 369h171q76 0 115 32t39 95q0 62 -39 94t-115 32h-171v-253zM344 755q-18 0 -33.5 8t-27.5 25l-81 113q-9 12 -6 23t13 17.5t22 5t22 -13.5l91 -108l91 108q11 12 23 13.5t21.5 -5t12.5 -17t-6 -23.5l-80 -113
q-12 -17 -27.5 -25t-34.5 -8z" />
    <glyph glyph-name="rcaron" unicode="&#x159;" horiz-adv-x="373" 
d="M122 -7q-25 0 -38 13.5t-13 37.5v400q0 25 13 38t36 13q24 0 36.5 -13t12.5 -38v-73h-10q16 60 59 91t110 36q18 1 28.5 -9t11.5 -31q2 -21 -9 -33.5t-34 -14.5l-19 -2q-65 -6 -99 -41t-34 -96v-227q0 -24 -12.5 -37.5t-38.5 -13.5zM220 537q-19 0 -33.5 10.5t-24.5 28.5
l-79 143q-7 13 -3 24t14 16.5t21.5 3.5t19.5 -13l85 -136l85 136q8 11 19.5 13t21.5 -3.5t14 -16.5t-3 -24l-78 -143q-10 -18 -25 -28.5t-34 -10.5z" />
    <glyph glyph-name="Sacute" unicode="&#x15a;" horiz-adv-x="622" 
d="M317 -9q-46 0 -90 7t-83 21.5t-70 35.5q-15 11 -20.5 25t-3 27.5t11.5 23.5t22 12.5t29 -8.5q45 -29 95 -42.5t109 -13.5q85 0 125.5 30.5t40.5 79.5q0 40 -29 63.5t-97 37.5l-107 22q-95 20 -141.5 66t-46.5 124q0 47 19.5 86t54.5 67.5t84 43.5t107 15q62 0 116.5 -16
t97.5 -49q13 -9 17.5 -22.5t2 -26.5t-11.5 -22t-23 -10.5t-31 9.5q-39 26 -79.5 37.5t-89.5 11.5t-85.5 -15t-56 -42t-19.5 -64q0 -42 27 -67t90 -38l106 -22q100 -21 149 -65t49 -117q0 -47 -19 -84.5t-54 -64.5t-84.5 -41.5t-111.5 -14.5zM361 770q-10 -11 -22 -11.5
t-21.5 6.5t-12.5 18t5 23l84 123q9 14 22.5 17.5t26 -1t20.5 -14t9 -22t-10 -24.5z" />
    <glyph glyph-name="sacute" unicode="&#x15b;" horiz-adv-x="484" 
d="M242 -9q-44 0 -90.5 10t-85.5 34q-13 9 -18 20t-3.5 22.5t9 20t19 10.5t24.5 -5q39 -22 75 -30.5t71 -8.5q53 0 80 19t27 51q0 26 -18 40.5t-54 22.5l-95 19q-62 13 -94 46t-32 84q0 46 25 80t70 52.5t104 18.5q44 0 83 -11t72 -33q13 -7 17 -18.5t1.5 -22.5t-10.5 -19.5
t-19.5 -10t-25.5 5.5q-30 19 -59.5 27t-58.5 8q-53 0 -79.5 -19.5t-26.5 -52.5q0 -25 16 -41t50 -23l95 -19q65 -13 98.5 -44t33.5 -84q0 -69 -55 -109t-146 -40zM290 558q-8 -12 -19.5 -14t-22.5 4t-15.5 17t1.5 24l81 157q8 16 20.5 21t26 1.5t23 -12.5t11.5 -22.5
t-7 -26.5z" />
    <glyph glyph-name="Scircumflex" unicode="&#x15c;" horiz-adv-x="622" 
d="M317 -9q-46 0 -90 7t-83 21.5t-70 35.5q-15 11 -20.5 25t-3 27.5t11.5 23.5t22 12.5t29 -8.5q45 -29 95 -42.5t109 -13.5q85 0 125.5 30.5t40.5 79.5q0 40 -29 63.5t-97 37.5l-107 22q-95 20 -141.5 66t-46.5 124q0 47 19.5 86t54.5 67.5t84 43.5t107 15q62 0 116.5 -16
t97.5 -49q13 -9 17.5 -22.5t2 -26.5t-11.5 -22t-23 -10.5t-31 9.5q-39 26 -79.5 37.5t-89.5 11.5t-85.5 -15t-56 -42t-19.5 -64q0 -42 27 -67t90 -38l106 -22q100 -21 149 -65t49 -117q0 -47 -19 -84.5t-54 -64.5t-84.5 -41.5t-111.5 -14.5zM228 770q-10 -12 -22.5 -13
t-22 5.5t-12.5 17t6 22.5l81 113q12 18 27.5 25.5t33.5 7.5q19 0 34 -7.5t28 -25.5l80 -113q10 -12 7 -22.5t-12.5 -17t-22 -5.5t-23.5 13l-91 107z" />
    <glyph glyph-name="scircumflex" unicode="&#x15d;" horiz-adv-x="484" 
d="M242 -9q-44 0 -90.5 10t-85.5 34q-13 9 -18 20t-3.5 22.5t9 20t19 10.5t24.5 -5q39 -22 75 -30.5t71 -8.5q53 0 80 19t27 51q0 26 -18 40.5t-54 22.5l-95 19q-62 13 -94 46t-32 84q0 46 25 80t70 52.5t104 18.5q44 0 83 -11t72 -33q13 -7 17 -18.5t1.5 -22.5t-10.5 -19.5
t-19.5 -10t-25.5 5.5q-30 19 -59.5 27t-58.5 8q-53 0 -79.5 -19.5t-26.5 -52.5q0 -25 16 -41t50 -23l95 -19q65 -13 98.5 -44t33.5 -84q0 -69 -55 -109t-146 -40zM388 589q7 -14 3 -25t-14 -16.5t-21.5 -3.5t-19.5 14l-85 135l-85 -135q-8 -12 -19.5 -14t-21.5 3.5t-14 16.5
t3 25l79 143q10 19 24.5 28t33.5 9t34 -9t25 -28z" />
    <glyph glyph-name="Scedilla" unicode="&#x15e;" horiz-adv-x="622" 
d="M317 -9q-46 0 -90 7t-83 21.5t-70 35.5q-15 11 -20.5 25t-3 27.5t11.5 23.5t22 12.5t29 -8.5q45 -29 95 -42.5t109 -13.5q85 0 125.5 30.5t40.5 79.5q0 40 -29 63.5t-97 37.5l-107 22q-95 20 -141.5 66t-46.5 124q0 47 19.5 86t54.5 67.5t84 43.5t107 15q62 0 116.5 -16
t97.5 -49q13 -9 17.5 -22.5t2 -26.5t-11.5 -22t-23 -10.5t-31 9.5q-39 26 -79.5 37.5t-89.5 11.5t-85.5 -15t-56 -42t-19.5 -64q0 -42 27 -67t90 -38l106 -22q100 -21 149 -65t49 -117q0 -47 -19 -84.5t-54 -64.5t-84.5 -41.5t-111.5 -14.5zM321 -194q-18 0 -38.5 3t-36.5 9
q-13 5 -17.5 15t-1.5 20t12.5 15.5t22.5 -0.5q12 -4 25 -6t28 -2q26 0 41.5 8.5t15.5 24.5q0 12 -9 19t-29 7q-7 0 -15 -0.5t-17 -3.5q-7 -2 -12.5 -2t-10.5 4q-4 4 -5 10t0 15l12 78h58l-13 -76l-28 9q12 3 24 5t22 2q39 0 63 -18t24 -52q0 -37 -32 -60.5t-83 -23.5z" />
    <glyph glyph-name="scedilla" unicode="&#x15f;" horiz-adv-x="484" 
d="M242 -9q-44 0 -90.5 10t-85.5 34q-13 9 -18 20t-3.5 22.5t9 20t19 10.5t24.5 -5q39 -22 75 -30.5t71 -8.5q53 0 80 19t27 51q0 26 -18 40.5t-54 22.5l-95 19q-62 13 -94 46t-32 84q0 46 25 80t70 52.5t104 18.5q44 0 83 -11t72 -33q13 -7 17 -18.5t1.5 -22.5t-10.5 -19.5
t-19.5 -10t-25.5 5.5q-30 19 -59.5 27t-58.5 8q-53 0 -79.5 -19.5t-26.5 -52.5q0 -25 16 -41t50 -23l95 -19q65 -13 98.5 -44t33.5 -84q0 -69 -55 -109t-146 -40zM244 -194q-18 0 -38.5 3t-36.5 9q-13 5 -17.5 15t-1.5 20t12.5 15.5t22.5 -0.5q12 -4 25 -6t28 -2
q26 0 41.5 8.5t15.5 24.5q0 12 -9 19t-29 7q-7 0 -15 -0.5t-17 -3.5q-7 -2 -12.5 -2t-10.5 4q-4 4 -5 10t0 15l12 78h58l-13 -76l-28 9q12 3 24 5t22 2q39 0 63 -18t24 -52q0 -37 -32 -60.5t-83 -23.5z" />
    <glyph glyph-name="Scaron" unicode="&#x160;" horiz-adv-x="622" 
d="M317 -9q-46 0 -90 7t-83 21.5t-70 35.5q-15 11 -20.5 25t-3 27.5t11.5 23.5t22 12.5t29 -8.5q45 -29 95 -42.5t109 -13.5q85 0 125.5 30.5t40.5 79.5q0 40 -29 63.5t-97 37.5l-107 22q-95 20 -141.5 66t-46.5 124q0 47 19.5 86t54.5 67.5t84 43.5t107 15q62 0 116.5 -16
t97.5 -49q13 -9 17.5 -22.5t2 -26.5t-11.5 -22t-23 -10.5t-31 9.5q-39 26 -79.5 37.5t-89.5 11.5t-85.5 -15t-56 -42t-19.5 -64q0 -42 27 -67t90 -38l106 -22q100 -21 149 -65t49 -117q0 -47 -19 -84.5t-54 -64.5t-84.5 -41.5t-111.5 -14.5zM319 755q-18 0 -33.5 8t-27.5 25
l-81 113q-9 12 -6 23t13 17.5t22 5t22 -13.5l91 -108l91 108q11 12 23 13.5t21.5 -5t12.5 -17t-6 -23.5l-80 -113q-12 -17 -27.5 -25t-34.5 -8z" />
    <glyph glyph-name="scaron" unicode="&#x161;" horiz-adv-x="484" 
d="M242 -9q-44 0 -90.5 10t-85.5 34q-13 9 -18 20t-3.5 22.5t9 20t19 10.5t24.5 -5q39 -22 75 -30.5t71 -8.5q53 0 80 19t27 51q0 26 -18 40.5t-54 22.5l-95 19q-62 13 -94 46t-32 84q0 46 25 80t70 52.5t104 18.5q44 0 83 -11t72 -33q13 -7 17 -18.5t1.5 -22.5t-10.5 -19.5
t-19.5 -10t-25.5 5.5q-30 19 -59.5 27t-58.5 8q-53 0 -79.5 -19.5t-26.5 -52.5q0 -25 16 -41t50 -23l95 -19q65 -13 98.5 -44t33.5 -84q0 -69 -55 -109t-146 -40zM251 537q-19 0 -33.5 10.5t-24.5 28.5l-79 143q-7 13 -3 24t14 16.5t21.5 3.5t19.5 -13l85 -136l85 136
q8 11 19.5 13t21.5 -3.5t14 -16.5t-3 -24l-78 -143q-10 -18 -25 -28.5t-34 -10.5z" />
    <glyph glyph-name="uni0162" unicode="&#x162;" horiz-adv-x="611" 
d="M306 -7q-25 0 -38.5 14t-13.5 39v572h-212q-21 0 -33 11.5t-12 32.5t12 32t33 11h527q22 0 34 -11t12 -32t-12 -32.5t-34 -11.5h-212v-572q0 -25 -12.5 -39t-38.5 -14zM308 -194q-18 0 -38.5 3t-36.5 9q-13 5 -17.5 15t-1.5 20t12.5 15.5t22.5 -0.5q12 -4 25 -6t28 -2
q26 0 41.5 8.5t15.5 24.5q0 12 -9 19t-29 7q-7 0 -15 -0.5t-17 -3.5q-7 -2 -12.5 -2t-10.5 4q-4 4 -5 10t0 15l12 78h58l-13 -76l-28 9q12 3 24 5t22 2q39 0 63 -18t24 -52q0 -37 -32 -60.5t-83 -23.5z" />
    <glyph glyph-name="uni0163" unicode="&#x163;" horiz-adv-x="365" 
d="M279 -9q-60 0 -101 21t-61 62t-20 100v236h-60q-20 0 -31 10.5t-11 28.5q0 19 11 29t31 10h60v103q0 25 13.5 38t37.5 13t37 -13t13 -38v-103h117q20 0 31 -10t11 -29q0 -18 -11 -28.5t-31 -10.5h-117v-228q0 -53 22.5 -80t73.5 -27q18 0 31.5 3.5t22.5 4.5q11 0 18 -7.5
t7 -28.5q0 -15 -5.5 -28t-19.5 -17q-12 -4 -32.5 -7.5t-36.5 -3.5zM224 -194q-18 0 -38.5 3t-36.5 9q-13 5 -17.5 15t-1.5 20t12.5 15.5t22.5 -0.5q12 -4 25 -6t28 -2q26 0 41.5 8.5t15.5 24.5q0 12 -9 19t-29 7q-7 0 -15 -0.5t-17 -3.5q-7 -2 -12.5 -2t-10.5 4q-4 4 -5 10
t0 15l12 78h58l-13 -76l-28 9q12 3 24 5t22 2q39 0 63 -18t24 -52q0 -37 -32 -60.5t-83 -23.5z" />
    <glyph glyph-name="Tcaron" unicode="&#x164;" horiz-adv-x="611" 
d="M306 -7q-25 0 -38.5 14t-13.5 39v572h-212q-21 0 -33 11.5t-12 32.5t12 32t33 11h527q22 0 34 -11t12 -32t-12 -32.5t-34 -11.5h-212v-572q0 -25 -12.5 -39t-38.5 -14zM306 755q-18 0 -33.5 8t-27.5 25l-81 113q-9 12 -6 23t13 17.5t22 5t22 -13.5l91 -108l91 108
q11 12 23 13.5t21.5 -5t12.5 -17t-6 -23.5l-80 -113q-12 -17 -27.5 -25t-34.5 -8z" />
    <glyph glyph-name="tcaron" unicode="&#x165;" horiz-adv-x="365" 
d="M279 -9q-60 0 -101 21t-61 62t-20 100v236h-60q-20 0 -31 10.5t-11 28.5q0 19 11 29t31 10h60v103q0 25 13.5 38t37.5 13t37 -13t13 -38v-103h117q20 0 31 -10t11 -29q0 -18 -11 -28.5t-31 -10.5h-117v-228q0 -53 22.5 -80t73.5 -27q18 0 31.5 3.5t22.5 4.5q11 0 18 -7.5
t7 -28.5q0 -15 -5.5 -28t-19.5 -17q-12 -4 -32.5 -7.5t-36.5 -3.5zM286 524q-11 0 -18 7t-7 20v124q0 37 37 37q17 0 26 -10t6 -28l-18 -125q-1 -12 -7.5 -18.5t-18.5 -6.5z" />
    <glyph glyph-name="Tbar" unicode="&#x166;" horiz-adv-x="611" 
d="M306 -7q-25 0 -38.5 14t-13.5 39v572h-212q-21 0 -33 11.5t-12 32.5t12 32t33 11h527q22 0 34 -11t12 -32t-12 -32.5t-34 -11.5h-212v-572q0 -25 -12.5 -39t-38.5 -14zM146 319q-20 0 -30 10t-10 29q0 18 10 28t30 10h319q19 0 29.5 -9.5t10.5 -28.5t-10.5 -29t-29.5 -10
h-319z" />
    <glyph glyph-name="tbar" unicode="&#x167;" horiz-adv-x="365" 
d="M279 -9q-60 0 -101 21t-61 62t-20 100v236h-60q-20 0 -31 10.5t-11 28.5q0 19 11 29t31 10h60v103q0 25 13.5 38t37.5 13t37 -13t13 -38v-103h117q20 0 31 -10t11 -29q0 -18 -11 -28.5t-31 -10.5h-117v-228q0 -53 22.5 -80t73.5 -27q18 0 31.5 3.5t22.5 4.5q11 0 18 -7.5
t7 -28.5q0 -15 -5.5 -28t-19.5 -17q-12 -4 -32.5 -7.5t-36.5 -3.5zM54 232q-16 0 -25 8.5t-9 23.5t9 23.5t25 8.5h236q34 0 34 -32q0 -15 -8.5 -23.5t-25.5 -8.5h-236z" />
    <glyph glyph-name="Utilde" unicode="&#x168;" horiz-adv-x="733" 
d="M367 -9q-71 0 -125 18.5t-90.5 55.5t-55.5 92t-19 127v376q0 26 13.5 39t38.5 13t38.5 -13t13.5 -39v-374q0 -103 47.5 -154t138.5 -51q92 0 139 51t47 154v374q0 26 13.5 39t37.5 13q25 0 38 -13t13 -39v-376q0 -96 -32.5 -161.5t-96.5 -98.5t-159 -33zM181 775
q-14 0 -21.5 9t-4.5 24q11 54 44 83.5t79 29.5q28 0 52 -10.5t46 -24.5t42.5 -25t40.5 -11q26 0 42.5 15.5t21.5 39.5q4 12 11.5 18t18.5 5q14 -1 21.5 -9.5t4.5 -23.5q-11 -54 -43 -84t-79 -30q-28 0 -52.5 11t-46.5 25t-42.5 25t-40.5 11q-26 0 -42.5 -15.5t-21.5 -39.5
q-3 -12 -10.5 -18t-19.5 -5z" />
    <glyph glyph-name="utilde" unicode="&#x169;" horiz-adv-x="569" 
d="M245 -9q-59 0 -98.5 22t-59 65.5t-19.5 109.5v256q0 26 13 38.5t37 12.5t37.5 -12.5t13.5 -38.5v-257q0 -59 24 -87t76 -28q57 0 92.5 38.5t35.5 101.5v232q0 26 13 38.5t38 12.5q24 0 37 -12.5t13 -38.5v-400q0 -51 -49 -51q-23 0 -36 13.5t-13 37.5v85l13 -22
q-20 -56 -64 -86t-104 -30zM124 585q-12 1 -19 9t-4 24q4 22 12.5 42.5t21.5 36.5t32 25.5t44 9.5q24 0 43 -11t35 -25t32 -25t35 -11q22 0 37.5 16t20.5 42q2 10 9 15.5t21 4.5q12 0 19 -8t4 -25q-5 -29 -18.5 -55t-36 -42t-55.5 -16q-24 0 -43 10.5t-35.5 24.5t-32.5 25
t-34 11q-22 0 -37 -15.5t-21 -42.5q-1 -10 -8.5 -15.5t-21.5 -4.5z" />
    <glyph glyph-name="Umacron" unicode="&#x16a;" horiz-adv-x="733" 
d="M367 -9q-71 0 -125 18.5t-90.5 55.5t-55.5 92t-19 127v376q0 26 13.5 39t38.5 13t38.5 -13t13.5 -39v-374q0 -103 47.5 -154t138.5 -51q92 0 139 51t47 154v374q0 26 13.5 39t37.5 13q25 0 38 -13t13 -39v-376q0 -96 -32.5 -161.5t-96.5 -98.5t-159 -33zM230 811
q-34 0 -34 31q0 16 9 24t25 8h275q33 0 33 -32q0 -14 -8.5 -22.5t-24.5 -8.5h-275z" />
    <glyph glyph-name="umacron" unicode="&#x16b;" horiz-adv-x="569" 
d="M245 -9q-59 0 -98.5 22t-59 65.5t-19.5 109.5v256q0 26 13 38.5t37 12.5t37.5 -12.5t13.5 -38.5v-257q0 -59 24 -87t76 -28q57 0 92.5 38.5t35.5 101.5v232q0 26 13 38.5t38 12.5q24 0 37 -12.5t13 -38.5v-400q0 -51 -49 -51q-23 0 -36 13.5t-13 37.5v85l13 -22
q-20 -56 -64 -86t-104 -30zM162 622q-34 0 -34 32q0 15 9 23.5t25 8.5h245q33 0 33 -32q0 -15 -8.5 -23.5t-24.5 -8.5h-245z" />
    <glyph glyph-name="Ubreve" unicode="&#x16c;" horiz-adv-x="733" 
d="M367 -9q-71 0 -125 18.5t-90.5 55.5t-55.5 92t-19 127v376q0 26 13.5 39t38.5 13t38.5 -13t13.5 -39v-374q0 -103 47.5 -154t138.5 -51q92 0 139 51t47 154v374q0 26 13.5 39t37.5 13q25 0 38 -13t13 -39v-376q0 -96 -32.5 -161.5t-96.5 -98.5t-159 -33zM367 760
q-62 0 -108.5 35t-62.5 104q-4 17 4.5 27.5t20.5 11.5q11 1 18.5 -2.5t11.5 -9.5t6 -14q10 -48 42 -68t68 -20q37 0 68.5 20t41.5 68q2 8 6 14t12 9.5t18 2.5q12 -1 20.5 -11.5t4.5 -27.5q-15 -69 -62 -104t-109 -35z" />
    <glyph glyph-name="ubreve" unicode="&#x16d;" horiz-adv-x="569" 
d="M245 -9q-59 0 -98.5 22t-59 65.5t-19.5 109.5v256q0 26 13 38.5t37 12.5t37.5 -12.5t13.5 -38.5v-257q0 -59 24 -87t76 -28q57 0 92.5 38.5t35.5 101.5v232q0 26 13 38.5t38 12.5q24 0 37 -12.5t13 -38.5v-400q0 -51 -49 -51q-23 0 -36 13.5t-13 37.5v85l13 -22
q-20 -56 -64 -86t-104 -30zM284 551q-45 0 -77.5 20.5t-53 56.5t-26.5 84q-3 17 5.5 27.5t21.5 10.5q14 1 23 -6.5t11 -23.5q8 -52 33.5 -78.5t62.5 -26.5t63 26.5t33 78.5q2 16 11 23.5t23 6.5q14 0 22 -10.5t5 -27.5q-5 -48 -25.5 -84t-53.5 -56.5t-78 -20.5z" />
    <glyph glyph-name="Uring" unicode="&#x16e;" horiz-adv-x="733" 
d="M367 -9q-71 0 -125 18.5t-90.5 55.5t-55.5 92t-19 127v376q0 26 13.5 39t38.5 13t38.5 -13t13.5 -39v-374q0 -103 47.5 -154t138.5 -51q92 0 139 51t47 154v374q0 26 13.5 39t37.5 13q25 0 38 -13t13 -39v-376q0 -96 -32.5 -161.5t-96.5 -98.5t-159 -33zM367 756
q-34 0 -62 16.5t-44 43.5t-16 60q0 34 16 60.5t44 42t62 15.5q35 0 62.5 -15.5t43.5 -42t16 -60.5q0 -33 -16 -60t-43.5 -43.5t-62.5 -16.5zM367 806q31 0 50 20t19 50q0 29 -19 48.5t-50 19.5q-30 0 -49.5 -19.5t-19.5 -48.5q0 -30 19.5 -50t49.5 -20z" />
    <glyph glyph-name="uring" unicode="&#x16f;" horiz-adv-x="569" 
d="M245 -9q-59 0 -98.5 22t-59 65.5t-19.5 109.5v256q0 26 13 38.5t37 12.5t37.5 -12.5t13.5 -38.5v-257q0 -59 24 -87t76 -28q57 0 92.5 38.5t35.5 101.5v232q0 26 13 38.5t38 12.5q24 0 37 -12.5t13 -38.5v-400q0 -51 -49 -51q-23 0 -36 13.5t-13 37.5v85l13 -22
q-20 -56 -64 -86t-104 -30zM284 547q-34 0 -62 16t-44 43.5t-16 60.5t16 60t44 42.5t62 15.5q35 0 62.5 -15.5t43.5 -42.5t16 -60t-16 -60.5t-43.5 -43.5t-62.5 -16zM284 597q31 0 50 20t19 50q0 29 -19 48.5t-50 19.5q-30 0 -49.5 -19.5t-19.5 -48.5q0 -30 19.5 -50
t49.5 -20z" />
    <glyph glyph-name="Uhungarumlaut" unicode="&#x170;" horiz-adv-x="733" 
d="M367 -9q-71 0 -125 18.5t-90.5 55.5t-55.5 92t-19 127v376q0 26 13.5 39t38.5 13t38.5 -13t13.5 -39v-374q0 -103 47.5 -154t138.5 -51q92 0 139 51t47 154v374q0 26 13.5 39t37.5 13q25 0 38 -13t13 -39v-376q0 -96 -32.5 -161.5t-96.5 -98.5t-159 -33zM333 771
q-9 -11 -19 -13t-19 2.5t-12.5 14t2.5 20.5l64 130q8 15 20 20t24 2t20.5 -11.5t10 -20.5t-8.5 -26zM467 769q-8 -10 -18 -11.5t-18.5 3.5t-11 14.5t3.5 21.5l69 129q7 15 19 19.5t24 1.5t20 -11.5t9 -20.5t-9 -26z" />
    <glyph glyph-name="uhungarumlaut" unicode="&#x171;" horiz-adv-x="569" 
d="M245 -9q-59 0 -98.5 22t-59 65.5t-19.5 109.5v256q0 26 13 38.5t37 12.5t37.5 -12.5t13.5 -38.5v-257q0 -59 24 -87t76 -28q57 0 92.5 38.5t35.5 101.5v232q0 26 13 38.5t38 12.5q24 0 37 -12.5t13 -38.5v-400q0 -51 -49 -51q-23 0 -36 13.5t-13 37.5v85l13 -22
q-20 -56 -64 -86t-104 -30zM382 562q-4 -11 -14 -15t-20 -1.5t-15.5 11t-2.5 21.5l41 159q5 17 16 25t24 8t24 -6t15.5 -18t-1.5 -28zM245 562q-5 -11 -14.5 -15t-19.5 -1.5t-16 11t-2 21.5l41 159q5 17 16 25t24 8t24 -6.5t15.5 -18t-2.5 -27.5z" />
    <glyph glyph-name="Uogonek" unicode="&#x172;" horiz-adv-x="733" 
d="M367 -9q-71 0 -125 18.5t-90.5 55.5t-55.5 92t-19 127v376q0 26 13.5 39t38.5 13t38.5 -13t13.5 -39v-374q0 -103 47.5 -154t138.5 -51q92 0 139 51t47 154v374q0 26 13.5 39t37.5 13q25 0 38 -13t13 -39v-376q0 -96 -32.5 -161.5t-96.5 -98.5t-159 -33zM404 -194
q-51 0 -81 27.5t-30 73.5q0 41 26.5 76.5t72.5 55.5l32 -39q-16 -7 -30.5 -19t-23.5 -28t-9 -35q0 -27 16 -40.5t41 -13.5q8 0 16 1.5t16 3.5q16 5 24.5 -0.5t11 -16.5t-2.5 -21t-18 -16q-16 -5 -31.5 -7t-29.5 -2z" />
    <glyph glyph-name="uogonek" unicode="&#x173;" horiz-adv-x="569" 
d="M400 129l13 -22q-20 -56 -64 -86t-104 -30q-59 0 -98.5 22t-59 65.5t-19.5 109.5v256q0 25 13 38t37 13t37.5 -13t13.5 -38v-257q0 -59 24 -87t76 -28q57 0 92.5 38.5t35.5 101.5v232q0 25 13 38t38 13q24 0 37 -13t13 -38v-400q0 -21 -8.5 -32.5t-23.5 -18.5
q-22 -10 -39 -29.5t-17 -45.5q0 -27 16.5 -40.5t40.5 -13.5q8 0 16.5 1.5t16.5 3.5q15 5 24 -0.5t11 -16.5t-3 -21t-18 -16q-15 -5 -30.5 -7t-29.5 -2q-51 0 -81 27.5t-30 73.5q0 35 20.5 67t55.5 54l-8 -20q-6 8 -8.5 16.5t-2.5 20.5v84z" />
    <glyph glyph-name="Wcircumflex" unicode="&#x174;" horiz-adv-x="1107" 
d="M319 -7q-22 0 -35.5 11t-22.5 34l-215 613q-9 26 3.5 43.5t41.5 17.5q22 0 34.5 -10t19.5 -32l195 -574h-37l200 572q9 22 21 33t32 11t31.5 -11t20.5 -34l196 -571h-33l197 574q7 21 19.5 31.5t33.5 10.5q26 0 38.5 -17.5t2.5 -43.5l-216 -614q-9 -22 -22 -33t-35 -11
q-23 0 -36 11t-21 34l-189 541h22l-191 -542q-8 -22 -20.5 -33t-34.5 -11zM463 770q-10 -12 -22.5 -13t-22 5.5t-12.5 17t6 22.5l81 113q12 18 27.5 25.5t33.5 7.5q19 0 34 -7.5t28 -25.5l80 -113q10 -12 7 -22.5t-12.5 -17t-22 -5.5t-23.5 13l-91 107z" />
    <glyph glyph-name="wcircumflex" unicode="&#x175;" horiz-adv-x="846" 
d="M249 -7q-21 0 -36.5 10.5t-24.5 33.5l-147 389q-8 20 -5 35.5t15.5 24.5t32.5 9q18 0 29.5 -8.5t19.5 -32.5l131 -369h-24l136 373q7 19 19 28t31 9t31.5 -9t18.5 -28l133 -373h-22l133 371q8 23 20.5 31t28.5 8q20 0 30.5 -10t12 -25.5t-5.5 -33.5l-147 -389
q-9 -22 -24.5 -33t-35.5 -11q-21 0 -36.5 11t-24.5 33l-140 379h50l-139 -379q-8 -22 -23.5 -33t-36.5 -11zM561 589q7 -14 3 -25t-14 -16.5t-21.5 -3.5t-19.5 14l-85 135l-85 -135q-8 -12 -19.5 -14t-21.5 3.5t-14 16.5t3 25l79 143q10 19 24.5 28t33.5 9t34 -9t25 -28z
" />
    <glyph glyph-name="Ycircumflex" unicode="&#x176;" horiz-adv-x="606" 
d="M303 -7q-25 0 -38.5 14t-13.5 40v317l23 -66l-247 343q-11 15 -10 31.5t13.5 28t33.5 11.5q16 0 29.5 -8t25.5 -25l198 -275h-24l198 275q13 18 25 25.5t30 7.5q21 0 32.5 -10.5t12 -27t-12.5 -34.5l-245 -342l21 66v-317q0 -54 -51 -54zM212 770q-10 -12 -22.5 -13
t-22 5.5t-12.5 17t6 22.5l81 113q12 18 27.5 25.5t33.5 7.5q19 0 34 -7.5t28 -25.5l80 -113q10 -12 7 -22.5t-12.5 -17t-22 -5.5t-23.5 13l-91 107z" />
    <glyph glyph-name="ycircumflex" unicode="&#x177;" horiz-adv-x="520" 
d="M186 -187q-18 0 -29.5 9.5t-13 25t5.5 33.5l68 153v-43l-187 435q-7 18 -5 34t15 25.5t35 9.5q19 0 30 -9t20 -31l151 -373h-28l153 373q9 23 21 31.5t33 8.5q18 0 28.5 -9.5t13 -25t-5.5 -33.5l-250 -575q-10 -23 -22.5 -31t-32.5 -8zM398 589q7 -14 3 -25t-14 -16.5
t-21.5 -3.5t-19.5 14l-85 135l-85 -135q-8 -12 -19.5 -14t-21.5 3.5t-14 16.5t3 25l79 143q10 19 24.5 28t33.5 9t34 -9t25 -28z" />
    <glyph glyph-name="Ydieresis" unicode="&#x178;" horiz-adv-x="606" 
d="M303 -7q-25 0 -38.5 14t-13.5 40v317l23 -66l-247 343q-11 15 -10 31.5t13.5 28t33.5 11.5q16 0 29.5 -8t25.5 -25l198 -275h-24l198 275q13 18 25 25.5t30 7.5q21 0 32.5 -10.5t12 -27t-12.5 -34.5l-245 -342l21 66v-317q0 -54 -51 -54zM394 795q-26 0 -40 14t-14 40
q0 25 14 38.5t40 13.5q25 0 39 -13.5t14 -38.5q0 -26 -13.5 -40t-39.5 -14zM213 795q-25 0 -39.5 14t-14.5 40q0 25 14.5 38.5t39.5 13.5q26 0 40 -13.5t14 -38.5q0 -26 -14 -40t-40 -14z" />
    <glyph glyph-name="Zacute" unicode="&#x179;" horiz-adv-x="596" 
d="M95 0q-20 0 -32.5 8t-17 22.5t0 32t18.5 36.5l400 554v-35h-377q-23 0 -35 11.5t-12 32.5t12 32t35 11h425q20 0 33 -8t17.5 -22t0 -32t-18.5 -37l-401 -554v35h392q23 0 35 -11t12 -32t-12 -32.5t-35 -11.5h-440zM351 770q-10 -11 -22 -11.5t-21.5 6.5t-12.5 18t5 23
l84 123q9 14 22.5 17.5t26 -1t20.5 -14t9 -22t-10 -24.5z" />
    <glyph glyph-name="zacute" unicode="&#x17a;" horiz-adv-x="468" 
d="M90 0q-16 0 -26 7.5t-13.5 20t0 27t15.5 27.5l272 353v-25h-254q-19 0 -29 10.5t-10 28.5q0 19 10 29t29 10h302q19 0 30.5 -8t15 -20t0.5 -26t-15 -27l-276 -357v27h267q40 0 40 -38q0 -18 -10.5 -28.5t-29.5 -10.5h-318zM280 558q-8 -12 -19.5 -14t-22.5 4t-15.5 17
t1.5 24l81 157q8 16 20.5 21t26 1.5t23 -12.5t11.5 -22.5t-7 -26.5z" />
    <glyph glyph-name="Zdotaccent" unicode="&#x17b;" horiz-adv-x="596" 
d="M95 0q-20 0 -32.5 8t-17 22.5t0 32t18.5 36.5l400 554v-35h-377q-23 0 -35 11.5t-12 32.5t12 32t35 11h425q20 0 33 -8t17.5 -22t0 -32t-18.5 -37l-401 -554v35h392q23 0 35 -11t12 -32t-12 -32.5t-35 -11.5h-440zM309 797q-27 0 -41.5 14t-14.5 40q0 27 14.5 40.5
t41.5 13.5q28 0 42 -13.5t14 -40.5q0 -26 -14 -40t-42 -14z" />
    <glyph glyph-name="zdotaccent" unicode="&#x17c;" horiz-adv-x="468" 
d="M90 0q-16 0 -26 7.5t-13.5 20t0 27t15.5 27.5l272 353v-25h-254q-19 0 -29 10.5t-10 28.5q0 19 10 29t29 10h302q19 0 30.5 -8t15 -20t0.5 -26t-15 -27l-276 -357v27h267q40 0 40 -38q0 -18 -10.5 -28.5t-29.5 -10.5h-318zM241 600q-27 0 -41.5 14.5t-14.5 40.5
t14.5 39.5t41.5 13.5q28 0 42.5 -13.5t14.5 -39.5q0 -27 -14.5 -41t-42.5 -14z" />
    <glyph glyph-name="Zcaron" unicode="&#x17d;" horiz-adv-x="596" 
d="M95 0q-20 0 -32.5 8t-17 22.5t0 32t18.5 36.5l400 554v-35h-377q-23 0 -35 11.5t-12 32.5t12 32t35 11h425q20 0 33 -8t17.5 -22t0 -32t-18.5 -37l-401 -554v35h392q23 0 35 -11t12 -32t-12 -32.5t-35 -11.5h-440zM309 755q-18 0 -33.5 8t-27.5 25l-81 113q-9 12 -6 23
t13 17.5t22 5t22 -13.5l91 -108l91 108q11 12 23 13.5t21.5 -5t12.5 -17t-6 -23.5l-80 -113q-12 -17 -27.5 -25t-34.5 -8z" />
    <glyph glyph-name="zcaron" unicode="&#x17e;" horiz-adv-x="468" 
d="M90 0q-16 0 -26 7.5t-13.5 20t0 27t15.5 27.5l272 353v-25h-254q-19 0 -29 10.5t-10 28.5q0 19 10 29t29 10h302q19 0 30.5 -8t15 -20t0.5 -26t-15 -27l-276 -357v27h267q40 0 40 -38q0 -18 -10.5 -28.5t-29.5 -10.5h-318zM241 537q-19 0 -33.5 10.5t-24.5 28.5l-79 143
q-7 13 -3 24t14 16.5t21.5 3.5t19.5 -13l85 -136l85 136q8 11 19.5 13t21.5 -3.5t14 -16.5t-3 -24l-78 -143q-10 -18 -25 -28.5t-34 -10.5z" />
    <glyph glyph-name="uni0181" unicode="&#x181;" horiz-adv-x="817" 
d="M274 0q-27 0 -41.5 14.5t-14.5 41.5v573h-29q-52 0 -77.5 -24t-25.5 -75v-19q0 -9 -4.5 -18.5t-14 -15t-24.5 -5.5q-14 0 -23.5 6t-14.5 15.5t-5 20.5v20q0 83 49 127t148 44h315q73 0 124.5 -22t79 -63t27.5 -99q0 -64 -38 -108t-103 -59v15q74 -10 116 -55.5t42 -118.5
q0 -94 -62 -144.5t-175 -50.5h-249zM318 80h194q75 0 111 29.5t36 89.5t-36 89t-111 29h-194v-237zM318 397h177q73 0 110 29t37 85t-37 85t-110 29h-177v-228z" />
    <glyph glyph-name="uni018A" unicode="&#x18a;" horiz-adv-x="888" 
d="M274 0q-27 0 -41.5 14.5t-14.5 41.5v573h-29q-52 0 -77.5 -24t-25.5 -75v-19q0 -9 -4.5 -18.5t-14 -15t-24.5 -5.5q-14 0 -23.5 6t-14.5 15.5t-5 20.5v20q0 83 48 127t143 44h276q174 0 268.5 -90.5t94.5 -261.5q0 -85 -24 -151t-70.5 -110.5t-113.5 -68t-155 -23.5h-193
zM321 87h139q67 0 115.5 16.5t81.5 49.5t49 83t16 117q0 133 -65.5 199t-196.5 66h-139v-531z" />
    <glyph glyph-name="uni018F" unicode="&#x18f;" horiz-adv-x="775" 
d="M394 -9q-83 0 -146 26t-105.5 74.5t-63.5 116.5t-21 149q0 21 9 30.5t26 9.5h546v-85h-503l28 42q0 -90 25 -152t75.5 -93t125.5 -31q69 0 118.5 32t75.5 93t26 150q0 88 -29.5 148t-86.5 91.5t-139 31.5q-58 0 -105.5 -12.5t-91.5 -40.5q-18 -9 -32 -7.5t-23.5 11
t-12 23t3 27t20.5 23.5q49 33 113.5 49.5t138.5 16.5q107 0 186 -43.5t122.5 -124.5t43.5 -194q0 -83 -23 -149.5t-66 -114t-102.5 -72.5t-132.5 -25z" />
    <glyph glyph-name="florin" unicode="&#x192;" horiz-adv-x="600" 
d="M73 -189q-19 0 -31.5 11.5t-12.5 28.5q0 18 12 29.5t29 11.5h18q42 0 67.5 22t36.5 76l92 432l19 -12h-101q-18 0 -30.5 11.5t-12.5 27.5t12.5 27.5t30.5 11.5h113l-20 -16l14 66q18 84 67.5 130t131.5 46h23q18 0 28 -11.5t10 -28.5q0 -18 -9.5 -30t-24.5 -12h-18
q-46 0 -71.5 -21.5t-37.5 -76.5l-13 -62l-15 16h102q19 0 31 -11.5t12 -27.5t-12 -27.5t-31 -11.5h-117l20 13l-94 -437q-11 -56 -37 -95.5t-65.5 -59.5t-93.5 -20h-22z" />
    <glyph glyph-name="Ohorn" unicode="&#x1a0;" horiz-adv-x="775" 
d="M388 -9q-100 0 -174.5 44.5t-115 126t-40.5 191.5q0 83 23 149.5t66 114t104 72.5t137 25q101 0 175 -44t114.5 -125t40.5 -191q0 -83 -23 -150t-66.5 -115t-104.5 -73t-136 -25zM388 81q70 0 119.5 32t76 93t26.5 147q0 129 -58 200t-164 71q-70 0 -119.5 -31.5
t-76 -92.5t-26.5 -147q0 -128 58.5 -200t163.5 -72zM491 649l-47 60q24 -1 42.5 -2.5t36.5 -1.5q39 0 61 11t32 33t10 52q0 19 11 29.5t34 10.5q21 0 32.5 -11.5t11.5 -31.5q0 -42 -18 -76t-50 -53.5t-76 -19.5h-80z" />
    <glyph glyph-name="ohorn" unicode="&#x1a1;" horiz-adv-x="565" 
d="M283 -9q-74 0 -127.5 31t-83.5 88t-30 134q0 59 17 105t48.5 79.5t76 51t99.5 17.5q73 0 126.5 -31t83.5 -87.5t30 -134.5q0 -58 -17 -105t-48.5 -80t-76 -50.5t-98.5 -17.5zM283 69q41 0 72 20t48.5 59t17.5 96q0 86 -38 130t-100 44q-42 0 -73 -19.5t-48.5 -58.5
t-17.5 -96q0 -85 38 -130t101 -45zM393 431l-55 36v21q30 0 50 6.5t31.5 18t16.5 29.5t5 42q0 36 45 36q22 0 33 -9t11 -27q0 -67 -36.5 -107.5t-100.5 -45.5z" />
    <glyph glyph-name="Uhorn" unicode="&#x1af;" horiz-adv-x="733" 
d="M367 -9q-71 0 -125 18.5t-90.5 55.5t-55.5 92t-19 127v376q0 26 13.5 39t38.5 13t38.5 -13t13.5 -39v-374q0 -103 47.5 -154t138.5 -51q92 0 139 51t47 154v374q0 26 13.5 39t37.5 13q25 0 38 -13t13 -39v-376q0 -96 -32.5 -161.5t-96.5 -98.5t-159 -33zM632 649l-55 35
v21q39 0 61.5 10.5t32.5 32.5t10 56q0 19 11.5 28t33.5 9q21 0 32.5 -8.5t11.5 -28.5q0 -46 -16.5 -79.5t-47.5 -53t-74 -22.5z" />
    <glyph glyph-name="uhorn" unicode="&#x1b0;" horiz-adv-x="569" 
d="M245 -9q-59 0 -98.5 22t-59 65.5t-19.5 109.5v256q0 25 13 38t37 13t37.5 -13t13.5 -38v-257q0 -59 24 -87t76 -28q57 0 92.5 38.5t35.5 101.5v226q0 25 13 36.5t38 14.5q26 4 43 14.5t25 30t8 50.5q0 36 45 36q22 0 33 -9t11 -27q0 -60 -30 -99.5t-85 -50.5v-390
q0 -51 -49 -51q-23 0 -36 13.5t-13 37.5v85l13 -22q-20 -56 -64 -86t-104 -30z" />
    <glyph glyph-name="uni01B3" unicode="&#x1b3;" horiz-adv-x="616" 
d="M303 -7q-25 0 -38.5 14t-13.5 41v316l23 -66l-247 343q-11 15 -9.5 31.5t13.5 28t34 11.5q14 0 23 -3.5t17 -11.5t18 -23l194 -270h-23l155 223q21 30 44.5 48.5t51.5 28t62 9.5q35 0 54.5 -8t19.5 -36q0 -11 -4 -19t-11 -11.5t-16 -3.5q-5 1 -13 1.5t-13 0.5
q-23 0 -46.5 -11.5t-42.5 -38.5l-202 -289l21 66v-316q0 -55 -51 -55z" />
    <glyph glyph-name="uni01B4" unicode="&#x1b4;" horiz-adv-x="560" 
d="M186 -187q-18 0 -29.5 10t-13 26t6.5 33l67 152v-43l-188 435q-7 19 -4.5 34.5t15.5 25t35 9.5q19 0 30 -9t20 -31l151 -372h-28l127 306q14 35 34 59t49 36.5t70 12.5q43 0 58 -10.5t15 -30.5q0 -19 -7.5 -30.5t-21.5 -11.5q-5 0 -13 1t-18 1q-29 0 -49.5 -16.5
t-38.5 -57.5l-212 -490q-10 -23 -22.5 -31t-32.5 -8z" />
    <glyph glyph-name="uni01C4" unicode="&#x1c4;" horiz-adv-x="1333" 
d="M138 0q-27 0 -41.5 14.5t-14.5 41.5v593q0 27 14.5 41.5t41.5 14.5h193q174 0 268.5 -90.5t94.5 -261.5q0 -85 -24 -151t-70.5 -110.5t-113.5 -68t-155 -23.5h-193zM186 87h139q66 0 114.5 16.5t81.5 49.5t49 83t16 117q0 133 -65.5 199t-195.5 66h-139v-531zM831 0
q-20 0 -32.5 8t-17 22.5t0 32t18.5 36.5l400 554v-35h-377q-23 0 -35 11.5t-12 32.5t12 32t35 11h425q20 0 33 -8t17.5 -22t0 -32t-18.5 -37l-401 -554v35h392q23 0 35 -11t12 -32t-12 -32.5t-35 -11.5h-440zM1046 755q-18 0 -33.5 8t-27.5 25l-81 113q-9 12 -6 23t13 17.5
t22 5t22 -13.5l91 -108l91 108q11 12 23 13.5t21.5 -5t12.5 -17t-6 -23.5l-80 -113q-12 -17 -27.5 -25t-34.5 -8z" />
    <glyph glyph-name="uni01C5" unicode="&#x1c5;" horiz-adv-x="1220" 
d="M138 0q-27 0 -41.5 14.5t-14.5 41.5v593q0 27 14.5 41.5t41.5 14.5h193q174 0 268.5 -90.5t94.5 -261.5q0 -85 -24 -151t-70.5 -110.5t-113.5 -68t-155 -23.5h-193zM186 87h139q66 0 114.5 16.5t81.5 49.5t49 83t16 117q0 133 -65.5 199t-195.5 66h-139v-531zM841 0
q-16 0 -26 7.5t-13.5 20t0 27t15.5 27.5l272 353v-25h-254q-19 0 -29 10.5t-10 28.5q0 19 10 29t29 10h302q19 0 30.5 -8t15 -20t0.5 -26t-15 -27l-276 -357v27h267q40 0 40 -38q0 -18 -10.5 -28.5t-29.5 -10.5h-318zM992 537q-19 0 -33.5 10.5t-24.5 28.5l-79 143
q-7 13 -3 24t14 16.5t21.5 3.5t19.5 -13l85 -136l85 136q8 11 19.5 13t21.5 -3.5t14 -16.5t-3 -24l-78 -143q-10 -18 -25 -28.5t-34 -10.5z" />
    <glyph glyph-name="uni01C6" unicode="&#x1c6;" horiz-adv-x="1059" 
d="M257 -9q-64 0 -112.5 30.5t-75.5 88t-27 134.5q0 79 27 135t75.5 87t112.5 31t110.5 -31.5t62.5 -84.5h-11v280q0 25 13 38t37 13t37.5 -13t13.5 -38v-617q0 -24 -13 -37.5t-37 -13.5t-37 13.5t-13 37.5v88l11 -22q-16 -54 -62.5 -86.5t-111.5 -32.5zM283 69q41 0 72 20
t48.5 59t17.5 96q0 86 -38 130t-100 44q-42 0 -73 -19.5t-48.5 -58.5t-17.5 -96q0 -85 38 -130t101 -45zM681 0q-16 0 -26 7.5t-13.5 20t0 27t15.5 27.5l272 353v-25h-254q-19 0 -29 10.5t-10 28.5q0 19 10 29t29 10h302q19 0 30.5 -8t15 -20t0.5 -26t-15 -27l-276 -357v27
h267q40 0 40 -38q0 -18 -10.5 -28.5t-29.5 -10.5h-318zM831 537q-19 0 -33.5 10.5t-24.5 28.5l-79 143q-7 13 -3 24t14 16.5t21.5 3.5t19.5 -13l85 -136l85 136q8 11 19.5 13t21.5 -3.5t14 -16.5t-3 -24l-78 -143q-10 -18 -25 -28.5t-34 -10.5z" />
    <glyph glyph-name="uni01C7" unicode="&#x1c7;" horiz-adv-x="929" 
d="M135 0q-25 0 -39 14t-14 39v603q0 26 13.5 39.5t38.5 13.5t38.5 -13.5t13.5 -39.5v-567h310q22 0 34 -11.5t12 -32.5t-12 -33t-34 -12h-361zM628 -6q-23 -1 -36 12t-13 33q0 15 9.5 27t27.5 13l31 2q48 4 73 32.5t25 79.5v467q0 26 13 39t38 13t38.5 -13t13.5 -39v-467
q0 -60 -21.5 -102.5t-62.5 -66.5t-102 -28z" />
    <glyph glyph-name="uni01C8" unicode="&#x1c8;" horiz-adv-x="798" 
d="M135 0q-25 0 -39 14t-14 39v603q0 26 13.5 39.5t38.5 13.5t38.5 -13.5t13.5 -39.5v-567h310q22 0 34 -11.5t12 -32.5t-12 -33t-34 -12h-361zM545 -190q-18 -1 -29.5 6t-16 18t-3 22.5t10 20t22.5 9.5q50 3 73.5 27t23.5 76v455q0 25 13.5 38t37.5 13q25 0 37.5 -13
t12.5 -38v-447q0 -62 -20.5 -102.5t-60.5 -60.5t-101 -24zM677 597q-30 0 -46.5 15t-16.5 42q0 28 16.5 42.5t46.5 14.5t46 -14.5t16 -42.5q0 -27 -16 -42t-46 -15z" />
    <glyph glyph-name="uni01C9" unicode="&#x1c9;" horiz-adv-x="553" 
d="M228 -9q-78 0 -117.5 45.5t-39.5 131.5v493q0 25 13 38t37 13t37.5 -13t13.5 -38v-487q0 -50 20.5 -74.5t59.5 -24.5q9 0 16 0.5t14 1.5q12 1 17 -6.5t5 -30.5q0 -21 -9 -32.5t-29 -14.5q-9 -1 -19 -1.5t-19 -0.5zM299 -190q-18 -1 -29.5 6t-16 18t-3 22.5t10 20
t22.5 9.5q50 3 73.5 27t23.5 76v455q0 25 13.5 38t37.5 13q25 0 37.5 -13t12.5 -38v-447q0 -62 -20.5 -102.5t-60.5 -60.5t-101 -24zM431 597q-30 0 -46.5 15t-16.5 42q0 28 16.5 42.5t46.5 14.5t46 -14.5t16 -42.5q0 -27 -16 -42t-46 -15z" />
    <glyph glyph-name="uni01CA" unicode="&#x1ca;" horiz-adv-x="1081" 
d="M131 -7q-23 0 -36 13t-13 37v617q0 25 12.5 38.5t33.5 13.5q18 0 27.5 -6.5t22.5 -23.5l412 -543h-25v524q0 23 12.5 36t35.5 13q24 0 36 -13t12 -36v-621q0 -23 -11.5 -36t-30.5 -13q-18 0 -29.5 7t-24.5 24l-410 542h23v-523q0 -24 -12 -37t-35 -13zM779 -6
q-23 -1 -36 12t-13 33q0 15 9.5 27t27.5 13l31 2q48 4 73 32.5t25 79.5v467q0 26 13 39t38 13t38.5 -13t13.5 -39v-467q0 -60 -21.5 -102.5t-62.5 -66.5t-102 -28z" />
    <glyph glyph-name="uni01CB" unicode="&#x1cb;" horiz-adv-x="990" 
d="M131 -7q-23 0 -36 13t-13 37v617q0 25 12.5 38.5t33.5 13.5q18 0 27.5 -6.5t22.5 -23.5l412 -543h-25v524q0 23 12.5 36t35.5 13q24 0 36 -13t12 -36v-621q0 -23 -11.5 -36t-30.5 -13q-18 0 -29.5 7t-24.5 24l-410 542h23v-523q0 -24 -12 -37t-35 -13zM736 -190
q-18 -1 -29.5 6t-16 18t-3 22.5t10 20t22.5 9.5q50 3 73.5 27t23.5 76v455q0 25 13.5 38t37.5 13q25 0 37.5 -13t12.5 -38v-447q0 -62 -20.5 -102.5t-60.5 -60.5t-101 -24zM868 597q-30 0 -46.5 15t-16.5 42q0 28 16.5 42.5t46.5 14.5t46 -14.5t16 -42.5q0 -27 -16 -42
t-46 -15z" />
    <glyph glyph-name="uni01CC" unicode="&#x1cc;" horiz-adv-x="822" 
d="M121 -7q-24 0 -37 13.5t-13 37.5v400q0 25 13 38t36 13q24 0 36.5 -13t12.5 -38v-78l-11 18q22 56 69 84.5t108 28.5q58 0 96.5 -21.5t57.5 -65t19 -109.5v-257q0 -24 -13 -37.5t-37 -13.5q-25 0 -38 13.5t-13 37.5v251q0 63 -24.5 92t-76.5 29q-61 0 -97.5 -38
t-36.5 -102v-232q0 -51 -51 -51zM569 -190q-18 -1 -29.5 6t-16 18t-3 22.5t10 20t22.5 9.5q50 3 73.5 27t23.5 76v455q0 25 13.5 38t37.5 13q25 0 37.5 -13t12.5 -38v-447q0 -62 -20.5 -102.5t-60.5 -60.5t-101 -24zM701 597q-30 0 -46.5 15t-16.5 42q0 28 16.5 42.5
t46.5 14.5t46 -14.5t16 -42.5q0 -27 -16 -42t-46 -15z" />
    <glyph glyph-name="uni01CD" unicode="&#x1cd;" horiz-adv-x="736" 
d="M78 -7q-20 0 -32 9t-14 24t6 34l271 608q10 24 25.5 34t34.5 10q18 0 33.5 -10t25.5 -34l271 -608q9 -19 7 -34.5t-13 -24t-31 -8.5q-22 0 -35 11t-23 34l-70 162l47 -28h-426l46 28l-69 -162q-10 -24 -22 -34.5t-32 -10.5zM367 590l-151 -358l-25 24h353l-23 -24
l-152 358h-2zM369 755q-18 0 -33.5 8t-27.5 25l-81 113q-9 12 -6 23t13 17.5t22 5t22 -13.5l91 -108l91 108q11 12 23 13.5t21.5 -5t12.5 -17t-6 -23.5l-80 -113q-12 -17 -27.5 -25t-34.5 -8z" />
    <glyph glyph-name="uni01CE" unicode="&#x1ce;" horiz-adv-x="537" 
d="M227 -9q-51 0 -91.5 20t-63.5 54t-23 77q0 54 27.5 85.5t91 45t171.5 13.5h47v-62h-46q-72 0 -114 -7t-59.5 -23.5t-17.5 -45.5q0 -38 26 -61.5t72 -23.5q37 0 65 17.5t44.5 47.5t16.5 69v115q0 57 -24 82t-79 25q-32 0 -66.5 -8t-71.5 -27q-17 -8 -29 -5t-19 13.5
t-7.5 23t6 24.5t22.5 18q44 21 87 30t81 9q67 0 110.5 -21t64.5 -64t21 -111v-257q0 -24 -12 -37.5t-35 -13.5q-22 0 -35 13.5t-13 37.5v65h9q-8 -37 -29.5 -63.5t-53.5 -40.5t-73 -14zM275 537q-19 0 -33.5 10.5t-24.5 28.5l-79 143q-7 13 -3 24t14 16.5t21.5 3.5t19.5 -13
l85 -136l85 136q8 11 19.5 13t21.5 -3.5t14 -16.5t-3 -24l-78 -143q-10 -18 -25 -28.5t-34 -10.5z" />
    <glyph glyph-name="uni01D4" unicode="&#x1d4;" horiz-adv-x="569" 
d="M245 -9q-59 0 -98.5 22t-59 65.5t-19.5 109.5v256q0 26 13 38.5t37 12.5t37.5 -12.5t13.5 -38.5v-257q0 -59 24 -87t76 -28q57 0 92.5 38.5t35.5 101.5v232q0 26 13 38.5t38 12.5q24 0 37 -12.5t13 -38.5v-400q0 -51 -49 -51q-23 0 -36 13.5t-13 37.5v85l13 -22
q-20 -56 -64 -86t-104 -30zM284 538q-19 0 -33.5 10.5t-24.5 28.5l-79 143q-7 13 -3 24t14 16.5t21.5 3.5t19.5 -13l85 -136l85 136q8 11 19.5 13t21.5 -3.5t14 -16.5t-3 -24l-78 -143q-10 -18 -25 -28.5t-34 -10.5z" />
    <glyph glyph-name="uni01E5" unicode="&#x1e5;" horiz-adv-x="594" 
d="M292 -189q-54 0 -103.5 11t-92.5 36q-15 8 -20 19.5t-2 24t11 21.5t19 11.5t24 -4.5q37 -22 80 -31.5t77 -9.5q46 1 76.5 16.5t45.5 45.5l9 -10h-90q-15 0 -24.5 10t-9.5 23q0 15 9.5 24t24.5 9h104l-9 -22q2 10 3 21t1 23v128h8q-14 -54 -61 -85.5t-111 -31.5
q-65 0 -114.5 29t-77 81t-27.5 118q0 50 15.5 92t44.5 72.5t69.5 47.5t89.5 17q64 0 111 -31.5t61 -85.5h-10v65q0 24 13.5 37t36.5 13q24 0 37 -13t13 -37v-404q0 -17 -1.5 -32.5t-3.5 -28.5l-6 27h46q15 0 24.5 -9t9.5 -24q0 -13 -9.5 -23t-24.5 -10h-68l22 10
q-21 -70 -76 -105t-144 -35zM284 118q42 0 73 19t48.5 53t17.5 78q0 68 -38 109t-101 41q-41 0 -73 -18.5t-49.5 -52t-17.5 -79.5q0 -68 39 -109t101 -41z" />
    <glyph glyph-name="Gcaron" unicode="&#x1e6;" horiz-adv-x="731" 
d="M412 -9q-115 0 -194 43.5t-119.5 124.5t-40.5 193q0 84 23.5 150.5t68 114t109 72.5t146.5 25q60 0 118 -15.5t106 -50.5q14 -10 18 -23t0.5 -26.5t-13 -23.5t-23 -12t-29.5 8q-39 27 -82 39.5t-95 12.5q-78 0 -131.5 -32t-80.5 -92.5t-27 -146.5q0 -133 63 -202t187 -69
q45 0 88.5 8.5t83.5 24.5l-21 -52v233h-129q-20 0 -31.5 10.5t-11.5 29.5t11.5 28.5t31.5 9.5h173q21 0 32 -11t11 -32v-252q0 -18 -6.5 -30.5t-21.5 -18.5q-43 -17 -101 -27.5t-113 -10.5zM396 755q-18 0 -33.5 8t-27.5 25l-81 113q-9 12 -6 23t13 17.5t22 5t22 -13.5
l91 -108l91 108q11 12 23 13.5t21.5 -5t12.5 -17t-6 -23.5l-80 -113q-12 -17 -27.5 -25t-34.5 -8z" />
    <glyph glyph-name="gcaron" unicode="&#x1e7;" horiz-adv-x="594" 
d="M292 -189q-54 0 -104.5 11t-91.5 36q-15 8 -20 19.5t-2.5 23.5t10.5 21t19.5 12t24.5 -4q44 -24 83.5 -32.5t73.5 -8.5q70 0 105 35.5t35 104.5v102h9q-15 -55 -63 -87t-111 -32q-66 0 -115 30.5t-76 85t-27 127.5q0 55 15.5 99t44 76t69 49.5t89.5 17.5q64 0 111.5 -32
t61.5 -87l-10 -17v83q0 25 13.5 38t36.5 13q24 0 37 -13t13 -38v-403q0 -114 -59 -172t-172 -58zM284 91q44 0 75 20t48 57t17 87q0 75 -37.5 119t-102.5 44q-43 0 -74 -20t-48.5 -56.5t-17.5 -86.5q0 -76 38 -120t102 -44zM299 537q-19 0 -33.5 10.5t-24.5 28.5l-79 143
q-7 13 -3 24t14 16.5t21.5 3.5t19.5 -13l85 -136l85 136q8 11 19.5 13t21.5 -3.5t14 -16.5t-3 -24l-78 -143q-10 -18 -25 -28.5t-34 -10.5z" />
    <glyph glyph-name="uni01E9" unicode="&#x1e9;" horiz-adv-x="516" 
d="M121 -7q-24 0 -37 13.5t-13 37.5v617q0 25 13 38t37 13t37.5 -13t13.5 -38v-386h2l187 186q16 16 29 25t34 9t32 -11t11 -26.5t-15 -31.5l-198 -196v47l216 -215q16 -16 15 -32t-13 -26.5t-30 -10.5q-23 0 -36.5 9t-31.5 27l-200 194h-2v-179q0 -51 -51 -51zM289 755
q-18 0 -33.5 8t-27.5 25l-81 113q-9 12 -6 23t13 17.5t22 5t22 -13.5l91 -108l91 108q11 12 23 13.5t21.5 -5t12.5 -17t-6 -23.5l-80 -113q-12 -17 -27.5 -25t-34.5 -8z" />
    <glyph glyph-name="uni01EA" unicode="&#x1ea;" horiz-adv-x="775" 
d="M388 -9q-100 0 -174.5 44.5t-115 126t-40.5 191.5q0 83 23 149.5t66 114t104 72.5t137 25q101 0 175 -44t114.5 -125t40.5 -191q0 -83 -23 -150t-66.5 -115t-104.5 -73t-136 -25zM388 81q70 0 119.5 32t76 93t26.5 147q0 129 -58 200t-164 71q-70 0 -119.5 -31.5
t-76 -92.5t-26.5 -147q0 -128 58.5 -200t163.5 -72zM426 -194q-51 0 -81 27.5t-30 73.5q0 41 26.5 76.5t72.5 55.5l32 -39q-16 -7 -30.5 -19t-23.5 -28t-9 -35q0 -27 16 -40.5t41 -13.5q8 0 16 1.5t16 3.5q16 5 24.5 -0.5t11 -16.5t-2.5 -21t-18 -16q-16 -5 -31.5 -7
t-29.5 -2z" />
    <glyph glyph-name="uni01EB" unicode="&#x1eb;" horiz-adv-x="565" 
d="M283 -9q-74 0 -127.5 31t-83.5 88t-30 134q0 59 17 105t48.5 79.5t76 51t99.5 17.5q73 0 126.5 -31t83.5 -87.5t30 -134.5q0 -58 -17 -105t-48.5 -80t-76 -50.5t-98.5 -17.5zM283 69q41 0 72 20t48.5 59t17.5 96q0 86 -38 130t-100 44q-42 0 -73 -19.5t-48.5 -58.5
t-17.5 -96q0 -85 38 -130t101 -45zM322 -194q-51 0 -81 27.5t-30 73.5q0 41 26.5 76.5t72.5 55.5l32 -39q-16 -7 -30.5 -19t-23.5 -28t-9 -35q0 -27 16 -40.5t41 -13.5q8 0 16 1.5t16 3.5q16 5 24.5 -0.5t11 -16.5t-2.5 -21t-18 -16q-16 -5 -31.5 -7t-29.5 -2z" />
    <glyph glyph-name="uni01EF" unicode="&#x1ef;" horiz-adv-x="504" 
d="M230 -189q-59 0 -108.5 11.5t-87.5 34.5q-15 9 -20 21t-3.5 24.5t10 21.5t20.5 11t26 -6q31 -20 69 -30t84 -10q76 0 114.5 34t38.5 99q0 58 -38 89.5t-110 31.5h-76q-17 0 -24 9t-4.5 23t13.5 26l215 231v-25h-280q-21 0 -32 10.5t-11 30.5q0 40 43 40h337q17 0 28 -8
t14 -20.5t-1 -27t-16 -26.5l-204 -218l-28 27h60q68 0 116 -22.5t73.5 -64t25.5 -100.5q0 -67 -29.5 -116t-84 -75t-130.5 -26zM238 537q-19 0 -33.5 10.5t-24.5 28.5l-79 143q-7 13 -3 24t14 16.5t21.5 3.5t19.5 -13l85 -136l85 136q8 11 19.5 13t21.5 -3.5t14 -16.5
t-3 -24l-78 -143q-10 -18 -25 -28.5t-34 -10.5z" />
    <glyph glyph-name="Aringacute" unicode="&#x1fa;" horiz-adv-x="736" 
d="M78 -7q-20 0 -32 9t-14 24t6 34l271 608q10 24 25.5 34t34.5 10q18 0 33.5 -10t25.5 -34l271 -608q9 -19 7 -34.5t-13 -24t-31 -8.5q-22 0 -35 11t-23 34l-70 162l47 -28h-426l46 28l-69 -162q-10 -24 -22 -34.5t-32 -10.5zM367 590l-151 -358l-25 24h353l-23 -24
l-152 358h-2zM369 756q-33 0 -60 15.5t-42.5 42t-15.5 58.5q0 33 15.5 58.5t42.5 41t60 15.5q19 0 35 -4.5t30 -13.5l71 66q12 10 24 9t20 -9t8.5 -19.5t-10.5 -21.5l-75 -64q15 -26 15 -58t-15.5 -58.5t-42.5 -42t-60 -15.5zM369 803q31 0 50 20t19 49q0 30 -19 49.5
t-50 19.5q-30 0 -49.5 -19.5t-19.5 -49.5q0 -29 19.5 -49t49.5 -20z" />
    <glyph glyph-name="aringacute" unicode="&#x1fb;" horiz-adv-x="537" 
d="M227 -9q-51 0 -91.5 20t-63.5 54t-23 77q0 54 27.5 85.5t91 45t171.5 13.5h47v-62h-46q-72 0 -114 -7t-59.5 -23.5t-17.5 -45.5q0 -38 26 -61.5t72 -23.5q37 0 65 17.5t44.5 47.5t16.5 69v115q0 57 -24 82t-79 25q-32 0 -66.5 -8t-71.5 -27q-17 -8 -29 -5t-19 13.5
t-7.5 23t6 24.5t22.5 18q44 21 87 30t81 9q67 0 110.5 -21t64.5 -64t21 -111v-257q0 -24 -12 -37.5t-35 -13.5q-22 0 -35 13.5t-13 37.5v65h9q-8 -37 -29.5 -63.5t-53.5 -40.5t-73 -14zM275 543q-33 0 -60 15t-42.5 41.5t-15.5 58.5t15.5 58.5t42.5 41.5t60 15q19 0 35 -5
t30 -14l72 67q11 11 23 9.5t20 -10t9 -19.5t-11 -21l-75 -64q15 -27 15 -58q0 -32 -15.5 -58.5t-42.5 -41.5t-60 -15zM275 590q31 0 50 19t19 49t-19 49t-50 19q-30 0 -49.5 -19t-19.5 -49t19.5 -49t49.5 -19z" />
    <glyph glyph-name="AEacute" unicode="&#x1fc;" horiz-adv-x="987" 
d="M47 -7q-22 0 -34 9t-12 24t10 32l379 617q9 16 22 23t31 7h455q22 0 33.5 -10.5t11.5 -30.5q0 -21 -11.5 -32t-33.5 -11h-408l24 31l60 -280l-36 28h340q21 0 32.5 -11t11.5 -31q0 -21 -11.5 -31.5t-32.5 -10.5h-322l24 28l63 -292l-39 32h294q22 0 33.5 -11t11.5 -31
q0 -21 -11.5 -31.5t-33.5 -10.5h-297q-40 0 -49 39l-35 164l36 -31h-389l40 28l-104 -174q-9 -16 -21 -24.5t-32 -8.5zM433 587l-211 -356l-9 25h318l-19 -27l-77 358h-2zM529 770q-10 -11 -22 -11.5t-21.5 6.5t-12.5 18t5 23l84 123q9 14 22.5 17.5t26 -1t20.5 -14t9 -22
t-10 -24.5z" />
    <glyph glyph-name="aeacute" unicode="&#x1fd;" horiz-adv-x="863" 
d="M235 -9q-55 0 -97 20t-65.5 54t-23.5 77q0 54 28 85.5t91.5 44.5t172.5 13h45v-62h-46q-72 0 -114 -6.5t-59.5 -23t-17.5 -45.5q0 -38 26 -61.5t73 -23.5q38 0 66 18t44 49.5t16 71.5v109q0 57 -24.5 82.5t-77.5 25.5q-33 0 -67.5 -8t-72.5 -27q-16 -8 -28 -5t-19 13.5
t-7.5 23t6 24.5t22.5 18q44 21 87 30t81 9q71 0 114.5 -28t60.5 -84h-26q26 54 77 83t111 29q49 0 88.5 -16.5t67.5 -47.5t43 -76t15 -101v-3q0 -15 -10.5 -22.5t-30.5 -7.5h-321v62h292l-16 -13q0 49 -14 83t-42.5 52.5t-70.5 18.5q-43 0 -74.5 -20.5t-48.5 -59t-17 -91.5
v-7q0 -88 39 -133.5t118 -45.5q29 0 62.5 8t64.5 27q17 10 30.5 9t21.5 -9t10.5 -20t-3.5 -24.5t-21 -22.5q-34 -23 -79 -34.5t-86 -11.5q-84 0 -143.5 36.5t-82.5 110.5h22q-15 -69 -65 -108t-125 -39zM455 558q-8 -12 -19.5 -14t-22.5 4t-15.5 17t1.5 24l81 157
q8 16 20.5 21t26 1.5t23 -12.5t11.5 -22.5t-7 -26.5z" />
    <glyph glyph-name="Oslashacute" unicode="&#x1fe;" horiz-adv-x="775" 
d="M388 -9q-100 0 -174.5 44.5t-115 126t-40.5 191.5q0 83 23 149.5t66 114t104 72.5t137 25q101 0 175 -44t114.5 -125t40.5 -191q0 -83 -23 -150t-66.5 -115t-104.5 -73t-136 -25zM388 81q70 0 119.5 32t76 93t26.5 147q0 129 -58 200t-164 71q-70 0 -119.5 -31.5
t-76 -92.5t-26.5 -147q0 -128 58.5 -200t163.5 -72zM213 -27q-9 -14 -20.5 -18.5t-23.5 -1t-21 12.5t-10.5 22t6.5 27l43 73l30 49l280 481l23 40l43 74q8 14 19.5 18.5t24 1t21 -12t10.5 -21.5t-7 -28l-43 -73l-29 -49l-281 -480l-22 -41zM429 770q-10 -11 -22 -11.5
t-21.5 6.5t-12.5 18t5 23l84 123q9 14 22.5 17.5t26 -1t20.5 -14t9 -22t-10 -24.5z" />
    <glyph glyph-name="oslashacute" unicode="&#x1ff;" horiz-adv-x="565" 
d="M283 -9q-74 0 -127.5 31t-83.5 88t-30 134q0 59 17 105t48.5 79.5t76 51t99.5 17.5q73 0 126.5 -31t83.5 -87.5t30 -134.5q0 -58 -17 -105t-48.5 -80t-76 -50.5t-98.5 -17.5zM283 69q41 0 72 20t48.5 59t17.5 96q0 86 -38 130t-100 44q-42 0 -73 -19.5t-48.5 -58.5
t-17.5 -96q0 -85 38 -130t101 -45zM161 -32q-9 -14 -22 -16.5t-24 4.5t-15.5 20t5.5 28l300 516q9 14 22 16t24 -4.5t15.5 -19.5t-4.5 -28zM321 558q-8 -12 -19.5 -14t-22.5 4t-15.5 17t1.5 24l81 157q8 16 20.5 21t26 1.5t23 -12.5t11.5 -22.5t-7 -26.5z" />
    <glyph glyph-name="uni0200" unicode="&#x200;" horiz-adv-x="736" 
d="M78 -7q-20 0 -32 9t-14 24t6 34l271 608q10 24 25.5 34t34.5 10q18 0 33.5 -10t25.5 -34l271 -608q9 -19 7 -34.5t-13 -24t-31 -8.5q-22 0 -35 11t-23 34l-70 162l47 -28h-426l46 28l-69 -162q-10 -24 -22 -34.5t-32 -10.5zM367 590l-151 -358l-25 24h353l-23 -24
l-152 358h-2zM403 771l-82 118q-10 14 -8.5 26t10 20.5t20.5 11.5t24 -2t20 -20l65 -130q5 -11 1.5 -20.5t-12.5 -14t-19 -2.5t-19 13zM270 769l-88 120q-11 14 -10 26t9 20.5t20 11.5t24 -1.5t20 -19.5l68 -129q6 -11 3 -21t-11 -15t-18 -3.5t-17 11.5z" />
    <glyph glyph-name="uni0201" unicode="&#x201;" horiz-adv-x="537" 
d="M227 -9q-51 0 -91.5 20t-63.5 54t-23 77q0 54 27.5 85.5t91 45t171.5 13.5h47v-62h-46q-72 0 -114 -7t-59.5 -23.5t-17.5 -45.5q0 -38 26 -61.5t72 -23.5q37 0 65 17.5t44.5 47.5t16.5 69v115q0 57 -24 82t-79 25q-32 0 -66.5 -8t-71.5 -27q-17 -8 -29 -5t-19 13.5
t-7.5 23t6 24.5t22.5 18q44 21 87 30t81 9q67 0 110.5 -21t64.5 -64t21 -111v-257q0 -24 -12 -37.5t-35 -13.5q-22 0 -35 13.5t-13 37.5v65h9q-8 -37 -29.5 -63.5t-53.5 -40.5t-73 -14zM314 561l-66 156q-7 16 -2.5 28t15.5 18t24.5 6t24.5 -8t15 -25l41 -159
q4 -13 -2 -21.5t-16 -11t-19.5 1.5t-14.5 15zM177 561l-66 156q-7 16 -2.5 28t15.5 18t24 6t24 -8t16 -25l42 -159q3 -13 -3 -21.5t-16 -11t-19.5 1.5t-14.5 15z" />
    <glyph glyph-name="uni0202" unicode="&#x202;" horiz-adv-x="736" 
d="M78 -7q-20 0 -32 9t-14 24t6 34l271 608q10 24 25.5 34t34.5 10q18 0 33.5 -10t25.5 -34l271 -608q9 -19 7 -34.5t-13 -24t-31 -8.5q-22 0 -35 11t-23 34l-70 162l47 -28h-426l46 28l-69 -162q-10 -24 -22 -34.5t-32 -10.5zM367 590l-151 -358l-25 24h353l-23 -24
l-152 358h-2zM223 759q-12 2 -20.5 12.5t-4.5 27.5q16 69 62.5 103.5t108.5 34.5t109 -34.5t62 -103.5q4 -17 -4.5 -27.5t-20.5 -12.5q-10 0 -18 3.5t-12 9.5t-6 13q-10 48 -41.5 68.5t-68.5 20.5q-36 0 -67.5 -20.5t-42.5 -68.5q-2 -7 -6 -13t-11.5 -9.5t-18.5 -3.5z" />
    <glyph glyph-name="uni0203" unicode="&#x203;" horiz-adv-x="537" 
d="M227 -9q-51 0 -91.5 20t-63.5 54t-23 77q0 54 27.5 85.5t91 45t171.5 13.5h47v-62h-46q-72 0 -114 -7t-59.5 -23.5t-17.5 -45.5q0 -38 26 -61.5t72 -23.5q37 0 65 17.5t44.5 47.5t16.5 69v115q0 57 -24 82t-79 25q-32 0 -66.5 -8t-71.5 -27q-17 -8 -29 -5t-19 13.5
t-7.5 23t6 24.5t22.5 18q44 21 87 30t81 9q67 0 110.5 -21t64.5 -64t21 -111v-257q0 -24 -12 -37.5t-35 -13.5q-22 0 -35 13.5t-13 37.5v65h9q-8 -37 -29.5 -63.5t-53.5 -40.5t-73 -14zM145 548q-13 1 -21.5 11.5t-5.5 26.5q6 49 26 85t53 56t78 20t78 -20t53.5 -56
t25.5 -85q3 -16 -5 -26.5t-22 -11.5t-23 7t-11 23q-7 53 -33 79t-63 26t-62.5 -26t-33.5 -79q-2 -15 -11 -23t-23 -7z" />
    <glyph glyph-name="uni0204" unicode="&#x204;" horiz-adv-x="589" 
d="M138 0q-27 0 -41.5 14.5t-14.5 41.5v593q0 27 14.5 41.5t41.5 14.5h365q21 0 32 -10.5t11 -30.5q0 -21 -11 -32t-32 -11h-321v-221h299q22 0 32.5 -11t10.5 -31q0 -21 -10.5 -31.5t-32.5 -10.5h-299v-232h321q21 0 32 -11t11 -31q0 -21 -11 -31.5t-32 -10.5h-365z
M360 771l-82 118q-10 14 -8.5 26t10 20.5t20.5 11.5t24 -2t20 -20l65 -130q5 -11 1.5 -20.5t-12.5 -14t-19 -2.5t-19 13zM227 769l-88 120q-11 14 -10 26t9 20.5t20 11.5t24 -1.5t20 -19.5l68 -129q6 -11 3 -21t-11 -15t-18 -3.5t-17 11.5z" />
    <glyph glyph-name="uni0205" unicode="&#x205;" horiz-adv-x="537" 
d="M300 -9q-80 0 -137.5 30.5t-89 87t-31.5 134.5q0 76 31 133t85 89t123 32q51 0 91 -16.5t68.5 -48t43 -76.5t14.5 -101q0 -17 -10 -25.5t-30 -8.5h-336v62h308l-17 -14q0 50 -14.5 85t-43 53.5t-70.5 18.5q-47 0 -79.5 -22t-49.5 -61t-17 -91v-6q0 -88 41.5 -132.5
t120.5 -44.5q30 0 63.5 8t63.5 27q17 10 30.5 9t22 -9t10.5 -20t-4 -24.5t-21 -22.5q-34 -23 -79 -34.5t-87 -11.5zM321 561l-66 156q-7 16 -2.5 28t15.5 18t24.5 6t24.5 -8t15 -25l41 -159q4 -13 -2 -21.5t-16 -11t-19.5 1.5t-14.5 15zM184 561l-66 156q-7 16 -2.5 28
t15.5 18t24 6t24 -8t16 -25l42 -159q3 -13 -3 -21.5t-16 -11t-19.5 1.5t-14.5 15z" />
    <glyph glyph-name="uni0206" unicode="&#x206;" horiz-adv-x="589" 
d="M138 0q-27 0 -41.5 14.5t-14.5 41.5v593q0 27 14.5 41.5t41.5 14.5h365q21 0 32 -10.5t11 -30.5q0 -21 -11 -32t-32 -11h-321v-221h299q22 0 32.5 -11t10.5 -31q0 -21 -10.5 -31.5t-32.5 -10.5h-299v-232h321q21 0 32 -11t11 -31q0 -21 -11 -31.5t-32 -10.5h-365z
M180 759q-12 2 -20.5 12.5t-4.5 27.5q16 69 62.5 103.5t108.5 34.5t109 -34.5t62 -103.5q4 -17 -4.5 -27.5t-20.5 -12.5q-10 0 -18 3.5t-12 9.5t-6 13q-10 48 -41.5 68.5t-68.5 20.5q-36 0 -67.5 -20.5t-42.5 -68.5q-2 -7 -6 -13t-11.5 -9.5t-18.5 -3.5z" />
    <glyph glyph-name="uni0207" unicode="&#x207;" horiz-adv-x="537" 
d="M300 -9q-80 0 -137.5 30.5t-89 87t-31.5 134.5q0 76 31 133t85 89t123 32q51 0 91 -16.5t68.5 -48t43 -76.5t14.5 -101q0 -17 -10 -25.5t-30 -8.5h-336v62h308l-17 -14q0 50 -14.5 85t-43 53.5t-70.5 18.5q-47 0 -79.5 -22t-49.5 -61t-17 -91v-6q0 -88 41.5 -132.5
t120.5 -44.5q30 0 63.5 8t63.5 27q17 10 30.5 9t22 -9t10.5 -20t-4 -24.5t-21 -22.5q-34 -23 -79 -34.5t-87 -11.5zM152 548q-13 1 -21.5 11.5t-5.5 26.5q6 49 26 85t53 56t78 20t78 -20t53.5 -56t25.5 -85q3 -16 -5 -26.5t-22 -11.5t-23 7t-11 23q-7 53 -33 79t-63 26
t-62.5 -26t-33.5 -79q-2 -15 -11 -23t-23 -7z" />
    <glyph glyph-name="uni0208" unicode="&#x208;" horiz-adv-x="268" 
d="M134 -7q-25 0 -38.5 14t-13.5 39v613q0 26 13.5 39.5t38.5 13.5t38.5 -13.5t13.5 -39.5v-613q0 -25 -13 -39t-39 -14zM168 771l-82 118q-10 14 -8.5 26t10 20.5t20.5 11.5t24 -2t20 -20l65 -130q5 -11 1.5 -20.5t-12.5 -14t-19 -2.5t-19 13zM35 769l-88 120
q-11 14 -10 26t9 20.5t20 11.5t24 -1.5t20 -19.5l68 -129q6 -11 3 -21t-11 -15t-18 -3.5t-17 11.5z" />
    <glyph glyph-name="uni0209" unicode="&#x209;" horiz-adv-x="243" 
d="M121 -6q-24 0 -37 14.5t-13 40.5v390q0 26 13 40t37 14t37.5 -14t13.5 -40v-390q0 -26 -13 -40.5t-38 -14.5zM160 561l-66 156q-7 16 -2.5 28t15.5 18t24.5 6t24.5 -8t15 -25l41 -159q4 -13 -2 -21.5t-16 -11t-19.5 1.5t-14.5 15zM23 561l-66 156q-7 16 -2.5 28t15.5 18
t24 6t24 -8t16 -25l42 -159q3 -13 -3 -21.5t-16 -11t-19.5 1.5t-14.5 15z" />
    <glyph glyph-name="uni020A" unicode="&#x20a;" horiz-adv-x="268" 
d="M134 -7q-25 0 -38.5 14t-13.5 39v613q0 26 13.5 39.5t38.5 13.5t38.5 -13.5t13.5 -39.5v-613q0 -25 -13 -39t-39 -14zM-12 759q-12 2 -20.5 12.5t-4.5 27.5q16 69 62.5 103.5t108.5 34.5t109 -34.5t62 -103.5q4 -17 -4.5 -27.5t-20.5 -12.5q-10 0 -18 3.5t-12 9.5t-6 13
q-10 48 -41.5 68.5t-68.5 20.5q-36 0 -67.5 -20.5t-42.5 -68.5q-2 -7 -6 -13t-11.5 -9.5t-18.5 -3.5z" />
    <glyph glyph-name="uni020B" unicode="&#x20b;" horiz-adv-x="243" 
d="M121 -6q-24 0 -37 14.5t-13 40.5v390q0 26 13 40t37 14t37.5 -14t13.5 -40v-390q0 -26 -13 -40.5t-38 -14.5zM-9 548q-13 1 -21.5 11.5t-5.5 26.5q6 49 26 85t53 56t78 20t78 -20t53.5 -56t25.5 -85q3 -16 -5 -26.5t-22 -11.5t-23 7t-11 23q-7 53 -33 79t-63 26
t-62.5 -26t-33.5 -79q-2 -15 -11 -23t-23 -7z" />
    <glyph glyph-name="uni020C" unicode="&#x20c;" horiz-adv-x="775" 
d="M388 -9q-100 0 -174.5 44.5t-115 126t-40.5 191.5q0 83 23 149.5t66 114t104 72.5t137 25q101 0 175 -44t114.5 -125t40.5 -191q0 -83 -23 -150t-66.5 -115t-104.5 -73t-136 -25zM388 81q70 0 119.5 32t76 93t26.5 147q0 129 -58 200t-164 71q-70 0 -119.5 -31.5
t-76 -92.5t-26.5 -147q0 -128 58.5 -200t163.5 -72zM421 771l-82 118q-10 14 -8.5 26t10 20.5t20.5 11.5t24 -2t20 -20l65 -130q5 -11 1.5 -20.5t-12.5 -14t-19 -2.5t-19 13zM288 769l-88 120q-11 14 -10 26t9 20.5t20 11.5t24 -1.5t20 -19.5l68 -129q6 -11 3 -21t-11 -15
t-18 -3.5t-17 11.5z" />
    <glyph glyph-name="uni020D" unicode="&#x20d;" horiz-adv-x="565" 
d="M283 -9q-74 0 -127.5 31t-83.5 88t-30 134q0 59 17 105t48.5 79.5t76 51t99.5 17.5q73 0 126.5 -31t83.5 -87.5t30 -134.5q0 -58 -17 -105t-48.5 -80t-76 -50.5t-98.5 -17.5zM283 69q41 0 72 20t48.5 59t17.5 96q0 86 -38 130t-100 44q-42 0 -73 -19.5t-48.5 -58.5
t-17.5 -96q0 -85 38 -130t101 -45zM322 561l-66 156q-7 16 -2.5 28t15.5 18t24.5 6t24.5 -8t15 -25l41 -159q4 -13 -2 -21.5t-16 -11t-19.5 1.5t-14.5 15zM185 561l-66 156q-7 16 -2.5 28t15.5 18t24 6t24 -8t16 -25l42 -159q3 -13 -3 -21.5t-16 -11t-19.5 1.5t-14.5 15z
" />
    <glyph glyph-name="uni020E" unicode="&#x20e;" horiz-adv-x="775" 
d="M388 -9q-100 0 -174.5 44.5t-115 126t-40.5 191.5q0 83 23 149.5t66 114t104 72.5t137 25q101 0 175 -44t114.5 -125t40.5 -191q0 -83 -23 -150t-66.5 -115t-104.5 -73t-136 -25zM388 81q70 0 119.5 32t76 93t26.5 147q0 129 -58 200t-164 71q-70 0 -119.5 -31.5
t-76 -92.5t-26.5 -147q0 -128 58.5 -200t163.5 -72zM241 759q-12 2 -20.5 12.5t-4.5 27.5q16 69 62.5 103.5t108.5 34.5t109 -34.5t62 -103.5q4 -17 -4.5 -27.5t-20.5 -12.5q-10 0 -18 3.5t-12 9.5t-6 13q-10 48 -41.5 68.5t-68.5 20.5q-36 0 -67.5 -20.5t-42.5 -68.5
q-2 -7 -6 -13t-11.5 -9.5t-18.5 -3.5z" />
    <glyph glyph-name="uni020F" unicode="&#x20f;" horiz-adv-x="565" 
d="M283 -9q-74 0 -127.5 31t-83.5 88t-30 134q0 59 17 105t48.5 79.5t76 51t99.5 17.5q73 0 126.5 -31t83.5 -87.5t30 -134.5q0 -58 -17 -105t-48.5 -80t-76 -50.5t-98.5 -17.5zM283 69q41 0 72 20t48.5 59t17.5 96q0 86 -38 130t-100 44q-42 0 -73 -19.5t-48.5 -58.5
t-17.5 -96q0 -85 38 -130t101 -45zM153 548q-13 1 -21.5 11.5t-5.5 26.5q6 49 26 85t53 56t78 20t78 -20t53.5 -56t25.5 -85q3 -16 -5 -26.5t-22 -11.5t-23 7t-11 23q-7 53 -33 79t-63 26t-62.5 -26t-33.5 -79q-2 -15 -11 -23t-23 -7z" />
    <glyph glyph-name="uni0210" unicode="&#x210;" horiz-adv-x="677" 
d="M134 -7q-25 0 -38.5 14t-13.5 39v606q0 26 14 39.5t39 13.5h239q114 0 176 -54t62 -153q0 -64 -28 -110t-81.5 -70t-128.5 -24l9 14h26q40 0 69.5 -20t53.5 -64l86 -160q10 -18 9.5 -34.5t-12 -26.5t-32.5 -10q-22 0 -35.5 9.5t-24.5 28.5l-105 194q-21 39 -48 52.5
t-71 13.5h-113v-245q0 -25 -13 -39t-39 -14zM186 369h171q76 0 115 32t39 95q0 62 -39 94t-115 32h-171v-253zM378 771l-82 118q-10 14 -8.5 26t10 20.5t20.5 11.5t24 -2t20 -20l65 -130q5 -11 1.5 -20.5t-12.5 -14t-19 -2.5t-19 13zM245 769l-88 120q-11 14 -10 26t9 20.5
t20 11.5t24 -1.5t20 -19.5l68 -129q6 -11 3 -21t-11 -15t-18 -3.5t-17 11.5z" />
    <glyph glyph-name="uni0211" unicode="&#x211;" horiz-adv-x="373" 
d="M122 -7q-25 0 -38 13.5t-13 37.5v400q0 25 13 38t36 13q24 0 36.5 -13t12.5 -38v-73h-10q16 60 59 91t110 36q18 1 28.5 -9t11.5 -31q2 -21 -9 -33.5t-34 -14.5l-19 -2q-65 -6 -99 -41t-34 -96v-227q0 -24 -12.5 -37.5t-38.5 -13.5zM259 561l-66 156q-7 16 -2.5 28
t15.5 18t24.5 6t24.5 -8t15 -25l41 -159q4 -13 -2 -21.5t-16 -11t-19.5 1.5t-14.5 15zM122 561l-66 156q-7 16 -2.5 28t15.5 18t24 6t24 -8t16 -25l42 -159q3 -13 -3 -21.5t-16 -11t-19.5 1.5t-14.5 15z" />
    <glyph glyph-name="uni0212" unicode="&#x212;" horiz-adv-x="677" 
d="M134 -7q-25 0 -38.5 14t-13.5 39v606q0 26 14 39.5t39 13.5h239q114 0 176 -54t62 -153q0 -64 -28 -110t-81.5 -70t-128.5 -24l9 14h26q40 0 69.5 -20t53.5 -64l86 -160q10 -18 9.5 -34.5t-12 -26.5t-32.5 -10q-22 0 -35.5 9.5t-24.5 28.5l-105 194q-21 39 -48 52.5
t-71 13.5h-113v-245q0 -25 -13 -39t-39 -14zM186 369h171q76 0 115 32t39 95q0 62 -39 94t-115 32h-171v-253zM198 759q-12 2 -20.5 12.5t-4.5 27.5q16 69 62.5 103.5t108.5 34.5t109 -34.5t62 -103.5q4 -17 -4.5 -27.5t-20.5 -12.5q-10 0 -18 3.5t-12 9.5t-6 13
q-10 48 -41.5 68.5t-68.5 20.5q-36 0 -67.5 -20.5t-42.5 -68.5q-2 -7 -6 -13t-11.5 -9.5t-18.5 -3.5z" />
    <glyph glyph-name="uni0213" unicode="&#x213;" horiz-adv-x="373" 
d="M122 -7q-25 0 -38 13.5t-13 37.5v400q0 25 13 38t36 13q24 0 36.5 -13t12.5 -38v-73h-10q16 60 59 91t110 36q18 1 28.5 -9t11.5 -31q2 -21 -9 -33.5t-34 -14.5l-19 -2q-65 -6 -99 -41t-34 -96v-227q0 -24 -12.5 -37.5t-38.5 -13.5zM90 548q-13 1 -21.5 11.5t-5.5 26.5
q6 49 26 85t53 56t78 20t78 -20t53.5 -56t25.5 -85q3 -16 -5 -26.5t-22 -11.5t-23 7t-11 23q-7 53 -33 79t-63 26t-62.5 -26t-33.5 -79q-2 -15 -11 -23t-23 -7z" />
    <glyph glyph-name="uni0214" unicode="&#x214;" horiz-adv-x="733" 
d="M367 -9q-71 0 -125 18.5t-90.5 55.5t-55.5 92t-19 127v376q0 26 13.5 39t38.5 13t38.5 -13t13.5 -39v-374q0 -103 47.5 -154t138.5 -51q92 0 139 51t47 154v374q0 26 13.5 39t37.5 13q25 0 38 -13t13 -39v-376q0 -96 -32.5 -161.5t-96.5 -98.5t-159 -33zM401 771l-82 118
q-10 14 -8.5 26t10 20.5t20.5 11.5t24 -2t20 -20l65 -130q5 -11 1.5 -20.5t-12.5 -14t-19 -2.5t-19 13zM268 769l-88 120q-11 14 -10 26t9 20.5t20 11.5t24 -1.5t20 -19.5l68 -129q6 -11 3 -21t-11 -15t-18 -3.5t-17 11.5z" />
    <glyph glyph-name="uni0215" unicode="&#x215;" horiz-adv-x="569" 
d="M245 -9q-59 0 -98.5 22t-59 65.5t-19.5 109.5v256q0 26 13 38.5t37 12.5t37.5 -12.5t13.5 -38.5v-257q0 -59 24 -87t76 -28q57 0 92.5 38.5t35.5 101.5v232q0 26 13 38.5t38 12.5q24 0 37 -12.5t13 -38.5v-400q0 -51 -49 -51q-23 0 -36 13.5t-13 37.5v85l13 -22
q-20 -56 -64 -86t-104 -30zM323 562l-66 156q-7 16 -2.5 28t15.5 18t24.5 6t24.5 -8t15 -25l41 -159q4 -13 -2 -21.5t-16 -11t-19.5 1.5t-14.5 15zM186 562l-66 156q-7 16 -2.5 28t15.5 18t24 6t24 -8t16 -25l42 -159q3 -13 -3 -21.5t-16 -11t-19.5 1.5t-14.5 15z" />
    <glyph glyph-name="uni0216" unicode="&#x216;" horiz-adv-x="733" 
d="M367 -9q-71 0 -125 18.5t-90.5 55.5t-55.5 92t-19 127v376q0 26 13.5 39t38.5 13t38.5 -13t13.5 -39v-374q0 -103 47.5 -154t138.5 -51q92 0 139 51t47 154v374q0 26 13.5 39t37.5 13q25 0 38 -13t13 -39v-376q0 -96 -32.5 -161.5t-96.5 -98.5t-159 -33zM221 759
q-12 2 -20.5 12.5t-4.5 27.5q16 69 62.5 103.5t108.5 34.5t109 -34.5t62 -103.5q4 -17 -4.5 -27.5t-20.5 -12.5q-10 0 -18 3.5t-12 9.5t-6 13q-10 48 -41.5 68.5t-68.5 20.5q-36 0 -67.5 -20.5t-42.5 -68.5q-2 -7 -6 -13t-11.5 -9.5t-18.5 -3.5z" />
    <glyph glyph-name="uni0217" unicode="&#x217;" horiz-adv-x="569" 
d="M245 -9q-59 0 -98.5 22t-59 65.5t-19.5 109.5v256q0 26 13 38.5t37 12.5t37.5 -12.5t13.5 -38.5v-257q0 -59 24 -87t76 -28q57 0 92.5 38.5t35.5 101.5v232q0 26 13 38.5t38 12.5q24 0 37 -12.5t13 -38.5v-400q0 -51 -49 -51q-23 0 -36 13.5t-13 37.5v85l13 -22
q-20 -56 -64 -86t-104 -30zM154 549q-13 1 -21.5 11.5t-5.5 26.5q6 49 26 85t53 56t78 20t78 -20t53.5 -56t25.5 -85q3 -16 -5 -26.5t-22 -11.5t-23 7t-11 23q-7 53 -33 79t-63 26t-62.5 -26t-33.5 -79q-2 -15 -11 -23t-23 -7z" />
    <glyph glyph-name="uni0218" unicode="&#x218;" horiz-adv-x="622" 
d="M317 -9q-46 0 -90 7t-83 21.5t-70 35.5q-15 11 -20.5 25t-3 27.5t11.5 23.5t22 12.5t29 -8.5q45 -29 95 -42.5t109 -13.5q85 0 125.5 30.5t40.5 79.5q0 40 -29 63.5t-97 37.5l-107 22q-95 20 -141.5 66t-46.5 124q0 47 19.5 86t54.5 67.5t84 43.5t107 15q62 0 116.5 -16
t97.5 -49q13 -9 17.5 -22.5t2 -26.5t-11.5 -22t-23 -10.5t-31 9.5q-39 26 -79.5 37.5t-89.5 11.5t-85.5 -15t-56 -42t-19.5 -64q0 -42 27 -67t90 -38l106 -22q100 -21 149 -65t49 -117q0 -47 -19 -84.5t-54 -64.5t-84.5 -41.5t-111.5 -14.5zM338 -255q-9 -11 -20 -12.5
t-19 4t-9.5 16t7.5 23.5q11 15 16 33t5 32l3 -18q-29 0 -45 14.5t-16 38.5q0 25 15.5 38.5t42.5 13.5q28 0 43.5 -15.5t15.5 -47.5q0 -19 -4 -40.5t-12.5 -42t-22.5 -37.5z" />
    <glyph glyph-name="uni0219" unicode="&#x219;" horiz-adv-x="484" 
d="M242 -9q-44 0 -90.5 10t-85.5 34q-13 9 -18 20t-3.5 22.5t9 20t19 10.5t24.5 -5q39 -22 75 -30.5t71 -8.5q53 0 80 19t27 51q0 26 -18 40.5t-54 22.5l-95 19q-62 13 -94 46t-32 84q0 46 25 80t70 52.5t104 18.5q44 0 83 -11t72 -33q13 -7 17 -18.5t1.5 -22.5t-10.5 -19.5
t-19.5 -10t-25.5 5.5q-30 19 -59.5 27t-58.5 8q-53 0 -79.5 -19.5t-26.5 -52.5q0 -25 16 -41t50 -23l95 -19q65 -13 98.5 -44t33.5 -84q0 -69 -55 -109t-146 -40zM261 -255q-9 -11 -20 -12.5t-19 4t-9.5 16t7.5 23.5q11 15 16 33t5 32l3 -18q-29 0 -45 14.5t-16 38.5
q0 25 15.5 38.5t42.5 13.5q28 0 43.5 -15.5t15.5 -47.5q0 -19 -4 -40.5t-12.5 -42t-22.5 -37.5z" />
    <glyph glyph-name="uni021A" unicode="&#x21a;" horiz-adv-x="611" 
d="M306 -7q-25 0 -38.5 14t-13.5 39v572h-212q-21 0 -33 11.5t-12 32.5t12 32t33 11h527q22 0 34 -11t12 -32t-12 -32.5t-34 -11.5h-212v-572q0 -25 -12.5 -39t-38.5 -14zM325 -255q-9 -11 -20 -12.5t-19 4t-9.5 16t7.5 23.5q11 15 16 33t5 32l3 -18q-29 0 -45 14.5
t-16 38.5q0 25 15.5 38.5t42.5 13.5q28 0 43.5 -15.5t15.5 -47.5q0 -19 -4 -40.5t-12.5 -42t-22.5 -37.5z" />
    <glyph glyph-name="uni021B" unicode="&#x21b;" horiz-adv-x="365" 
d="M279 -9q-60 0 -101 21t-61 62t-20 100v236h-60q-20 0 -31 10.5t-11 28.5q0 19 11 29t31 10h60v103q0 25 13.5 38t37.5 13t37 -13t13 -38v-103h117q20 0 31 -10t11 -29q0 -18 -11 -28.5t-31 -10.5h-117v-228q0 -53 22.5 -80t73.5 -27q18 0 31.5 3.5t22.5 4.5q11 0 18 -7.5
t7 -28.5q0 -15 -5.5 -28t-19.5 -17q-12 -4 -32.5 -7.5t-36.5 -3.5zM241 -255q-9 -11 -20 -12.5t-19 4t-9.5 16t7.5 23.5q11 15 16 33t5 32l3 -18q-29 0 -45 14.5t-16 38.5q0 25 15.5 38.5t42.5 13.5q28 0 43.5 -15.5t15.5 -47.5q0 -19 -4 -40.5t-12.5 -42t-22.5 -37.5z" />
    <glyph glyph-name="uni021F" unicode="&#x21f;" horiz-adv-x="576" 
d="M121 -7q-24 0 -37 13.5t-13 37.5v617q0 25 13 38t37 13t37.5 -13t13.5 -38v-277h-14q22 56 69 84.5t108 28.5q58 0 96.5 -21.5t57.5 -65t19 -109.5v-257q0 -24 -13 -37.5t-37 -13.5q-25 0 -38 13.5t-13 37.5v251q0 63 -24.5 92t-76.5 29q-61 0 -97.5 -38t-36.5 -102v-232
q0 -51 -51 -51zM289 755q-18 0 -33.5 8t-27.5 25l-81 113q-9 12 -6 23t13 17.5t22 5t22 -13.5l91 -108l91 108q11 12 23 13.5t21.5 -5t12.5 -17t-6 -23.5l-80 -113q-12 -17 -27.5 -25t-34.5 -8z" />
    <glyph glyph-name="uni0226" unicode="&#x226;" horiz-adv-x="736" 
d="M78 -7q-20 0 -32 9t-14 24t6 34l271 608q10 24 25.5 34t34.5 10q18 0 33.5 -10t25.5 -34l271 -608q9 -19 7 -34.5t-13 -24t-31 -8.5q-22 0 -35 11t-23 34l-70 162l47 -28h-426l46 28l-69 -162q-10 -24 -22 -34.5t-32 -10.5zM367 590l-151 -358l-25 24h353l-23 -24
l-152 358h-2zM369 797q-27 0 -41.5 14t-14.5 40q0 27 14.5 40.5t41.5 13.5q28 0 42 -13.5t14 -40.5q0 -26 -14 -40t-42 -14z" />
    <glyph glyph-name="uni0227" unicode="&#x227;" horiz-adv-x="537" 
d="M227 -9q-51 0 -91.5 20t-63.5 54t-23 77q0 54 27.5 85.5t91 45t171.5 13.5h47v-62h-46q-72 0 -114 -7t-59.5 -23.5t-17.5 -45.5q0 -38 26 -61.5t72 -23.5q37 0 65 17.5t44.5 47.5t16.5 69v115q0 57 -24 82t-79 25q-32 0 -66.5 -8t-71.5 -27q-17 -8 -29 -5t-19 13.5
t-7.5 23t6 24.5t22.5 18q44 21 87 30t81 9q67 0 110.5 -21t64.5 -64t21 -111v-257q0 -24 -12 -37.5t-35 -13.5q-22 0 -35 13.5t-13 37.5v65h9q-8 -37 -29.5 -63.5t-53.5 -40.5t-73 -14zM275 600q-27 0 -41.5 14.5t-14.5 40.5t14.5 39.5t41.5 13.5q28 0 42.5 -13.5
t14.5 -39.5q0 -27 -14.5 -41t-42.5 -14z" />
    <glyph glyph-name="uni0228" unicode="&#x228;" horiz-adv-x="589" 
d="M138 0q-27 0 -41.5 14.5t-14.5 41.5v593q0 27 14.5 41.5t41.5 14.5h365q21 0 32 -10.5t11 -30.5q0 -21 -11 -32t-32 -11h-321v-221h299q22 0 32.5 -11t10.5 -31q0 -21 -10.5 -31.5t-32.5 -10.5h-299v-232h321q21 0 32 -11t11 -31q0 -21 -11 -31.5t-32 -10.5h-365z
M328 -194q-18 0 -38.5 3t-36.5 9q-13 5 -17.5 15t-1.5 20t12.5 15.5t22.5 -0.5q12 -4 25 -6t28 -2q26 0 41.5 8.5t15.5 24.5q0 12 -9 19t-29 7q-7 0 -15 -0.5t-17 -3.5q-7 -2 -12.5 -2t-10.5 4q-4 4 -5 10t0 15l12 78h58l-13 -76l-28 9q12 3 24 5t22 2q39 0 63 -18t24 -52
q0 -37 -32 -60.5t-83 -23.5z" />
    <glyph glyph-name="uni022A" unicode="&#x22a;" horiz-adv-x="775" 
d="M388 -9q-100 0 -174.5 44.5t-115 126t-40.5 191.5q0 83 23 149.5t66 114t104 72.5t137 25q101 0 175 -44t114.5 -125t40.5 -191q0 -83 -23 -150t-66.5 -115t-104.5 -73t-136 -25zM388 81q70 0 119.5 32t76 93t26.5 147q0 129 -58 200t-164 71q-70 0 -119.5 -31.5
t-76 -92.5t-26.5 -147q0 -128 58.5 -200t163.5 -72zM267 925q-17 0 -27 8.5t-10 23.5t10 23t27 8h240q18 0 27.5 -8t9.5 -23t-9.5 -23.5t-27.5 -8.5h-240zM297 789q-25 0 -39.5 11.5t-14.5 32.5t14.5 32.5t39.5 11.5q26 0 40 -11.5t14 -32.5t-14 -32.5t-40 -11.5zM478 789
q-26 0 -40 11.5t-14 32.5t14 32.5t40 11.5q25 0 39 -11.5t14 -32.5t-13.5 -32.5t-39.5 -11.5z" />
    <glyph glyph-name="uni022B" unicode="&#x22b;" horiz-adv-x="565" 
d="M283 -9q-74 0 -127.5 31t-83.5 88t-30 134q0 59 17 105t48.5 79.5t76 51t99.5 17.5q73 0 126.5 -31t83.5 -87.5t30 -134.5q0 -58 -17 -105t-48.5 -80t-76 -50.5t-98.5 -17.5zM283 69q41 0 72 20t48.5 59t17.5 96q0 86 -38 130t-100 44q-42 0 -73 -19.5t-48.5 -58.5
t-17.5 -96q0 -85 38 -130t101 -45zM163 707q-17 0 -27 9t-10 23q0 16 10 24t27 8h240q18 0 27.5 -8t9.5 -24q0 -14 -9.5 -23t-27.5 -9h-240zM193 571q-25 0 -39.5 12t-14.5 33t14.5 32t39.5 11q26 0 40 -11t14 -32t-14 -33t-40 -12zM374 571q-26 0 -40 12t-14 33t14 32
t40 11q25 0 39 -11t14 -32t-13.5 -33t-39.5 -12z" />
    <glyph glyph-name="uni022C" unicode="&#x22c;" horiz-adv-x="775" 
d="M388 -9q-100 0 -174.5 44.5t-115 126t-40.5 191.5q0 83 23 149.5t66 114t104 72.5t137 25q101 0 175 -44t114.5 -125t40.5 -191q0 -83 -23 -150t-66.5 -115t-104.5 -73t-136 -25zM388 81q70 0 119.5 32t76 93t26.5 147q0 129 -58 200t-164 71q-70 0 -119.5 -31.5
t-76 -92.5t-26.5 -147q0 -128 58.5 -200t163.5 -72zM267 925q-17 0 -27 8.5t-10 23.5t10 23t27 8h240q18 0 27.5 -8t9.5 -23t-9.5 -23.5t-27.5 -8.5h-240zM249 766q-12 1 -18 9.5t-3 23.5q9 37 34 55.5t60 18.5q27 0 48.5 -12t40.5 -24t39 -12q16 0 28 6.5t17 22.5
q4 11 11.5 16.5t19.5 4.5t18.5 -9.5t2.5 -23.5q-9 -37 -34 -56t-60 -19q-27 0 -49 12.5t-41 24.5t-38 12q-16 0 -28 -6.5t-17 -22.5q-3 -11 -10.5 -16.5t-20.5 -4.5z" />
    <glyph glyph-name="uni022D" unicode="&#x22d;" horiz-adv-x="565" 
d="M283 -9q-74 0 -127.5 31t-83.5 88t-30 134q0 59 17 105t48.5 79.5t76 51t99.5 17.5q73 0 126.5 -31t83.5 -87.5t30 -134.5q0 -58 -17 -105t-48.5 -80t-76 -50.5t-98.5 -17.5zM283 69q41 0 72 20t48.5 59t17.5 96q0 86 -38 130t-100 44q-42 0 -73 -19.5t-48.5 -58.5
t-17.5 -96q0 -85 38 -130t101 -45zM163 707q-17 0 -27 9t-10 23q0 16 10 24t27 8h240q18 0 27.5 -8t9.5 -24q0 -14 -9.5 -23t-27.5 -9h-240zM145 548q-12 1 -18.5 10t-2.5 23q9 37 34 56t60 19q27 0 48.5 -12.5t40.5 -24.5t39 -12q16 0 27.5 6.5t17.5 22.5q4 11 11.5 17
t19.5 5t18.5 -9.5t2.5 -24.5q-9 -37 -34 -55.5t-60 -18.5q-27 0 -49 12t-41 24t-38 12q-16 0 -28 -6.5t-17 -21.5q-3 -11 -10.5 -17t-20.5 -5z" />
    <glyph glyph-name="uni0230" unicode="&#x230;" horiz-adv-x="775" 
d="M388 -9q-100 0 -174.5 44.5t-115 126t-40.5 191.5q0 83 23 149.5t66 114t104 72.5t137 25q101 0 175 -44t114.5 -125t40.5 -191q0 -83 -23 -150t-66.5 -115t-104.5 -73t-136 -25zM388 81q70 0 119.5 32t76 93t26.5 147q0 129 -58 200t-164 71q-70 0 -119.5 -31.5
t-76 -92.5t-26.5 -147q0 -128 58.5 -200t163.5 -72zM267 925q-17 0 -27 8.5t-10 23.5t10 23t27 8h240q18 0 27.5 -8t9.5 -23t-9.5 -23.5t-27.5 -8.5h-240zM388 789q-25 0 -39.5 11.5t-14.5 32.5t14.5 32.5t39.5 11.5q26 0 40 -11.5t14 -32.5t-14 -32.5t-40 -11.5z" />
    <glyph glyph-name="uni0231" unicode="&#x231;" horiz-adv-x="565" 
d="M283 -9q-74 0 -127.5 31t-83.5 88t-30 134q0 59 17 105t48.5 79.5t76 51t99.5 17.5q73 0 126.5 -31t83.5 -87.5t30 -134.5q0 -58 -17 -105t-48.5 -80t-76 -50.5t-98.5 -17.5zM283 69q41 0 72 20t48.5 59t17.5 96q0 86 -38 130t-100 44q-42 0 -73 -19.5t-48.5 -58.5
t-17.5 -96q0 -85 38 -130t101 -45zM163 707q-17 0 -27 9t-10 23q0 16 10 24t27 8h240q18 0 27.5 -8t9.5 -24q0 -14 -9.5 -23t-27.5 -9h-240zM284 571q-25 0 -39.5 12t-14.5 33t14.5 32t39.5 11q26 0 40 -11t14 -32t-14 -33t-40 -12z" />
    <glyph glyph-name="uni0232" unicode="&#x232;" horiz-adv-x="606" 
d="M303 -7q-25 0 -38.5 14t-13.5 40v317l23 -66l-247 343q-11 15 -10 31.5t13.5 28t33.5 11.5q16 0 29.5 -8t25.5 -25l198 -275h-24l198 275q13 18 25 25.5t30 7.5q21 0 32.5 -10.5t12 -27t-12.5 -34.5l-245 -342l21 66v-317q0 -54 -51 -54zM166 811q-34 0 -34 31q0 16 9 24
t25 8h275q33 0 33 -32q0 -14 -8.5 -22.5t-24.5 -8.5h-275z" />
    <glyph glyph-name="uni0233" unicode="&#x233;" horiz-adv-x="520" 
d="M186 -187q-18 0 -29.5 9.5t-13 25t5.5 33.5l68 153v-43l-187 435q-7 18 -5 34t15 25.5t35 9.5q19 0 30 -9t20 -31l151 -373h-28l153 373q9 23 21 31.5t33 8.5q18 0 28.5 -9.5t13 -25t-5.5 -33.5l-250 -575q-10 -23 -22.5 -31t-32.5 -8zM139 621q-34 0 -34 32q0 15 9 23.5
t25 8.5h245q33 0 33 -32q0 -15 -8.5 -23.5t-24.5 -8.5h-245z" />
    <glyph glyph-name="uni0237" unicode="&#x237;" horiz-adv-x="246" 
d="M-7 -190q-18 -1 -29.5 6t-16 18t-3 22.5t10 20t22.5 9.5q50 3 73.5 27t23.5 76v455q0 25 13.5 38t37.5 13q25 0 37.5 -13t12.5 -38v-447q0 -62 -20.5 -102.5t-60.5 -60.5t-101 -24z" />
    <glyph glyph-name="uni0253" unicode="&#x253;" horiz-adv-x="591" 
d="M333 -9q-64 0 -111 32.5t-63 86.5l11 18v-84q0 -24 -13 -37.5t-36 -13.5q-24 0 -37 13.5t-13 37.5v489q0 85 45.5 133t131.5 48q38 0 53.5 -11t15.5 -31t-8 -31.5t-23 -9.5q-5 0 -11.5 1t-15.5 1q-41 0 -64 -25t-23 -74v-153h-12q16 53 63 84.5t110 31.5q66 0 114 -31
t74.5 -87t26.5 -135q0 -77 -26.5 -134.5t-75 -88t-113.5 -30.5zM308 69q42 0 73 20t48 59t17 96q0 86 -37.5 130t-100.5 44q-41 0 -72.5 -19.5t-48.5 -58.5t-17 -96q0 -85 38 -130t100 -45z" />
    <glyph glyph-name="uni0257" unicode="&#x257;" horiz-adv-x="591" 
d="M257 -9q-64 0 -112.5 30.5t-75.5 88t-27 134.5q0 79 27 135t75.5 87t112.5 31t110.5 -31.5t62.5 -84.5h-11v152q0 85 45.5 133t132.5 48q37 0 52.5 -11t15.5 -31t-8 -31.5t-22 -9.5q-6 0 -12.5 1t-15.5 1q-41 0 -64 -25t-23 -74v-490q0 -24 -13 -37.5t-37 -13.5t-37 13.5
t-13 37.5v88l11 -22q-16 -54 -62.5 -86.5t-111.5 -32.5zM283 70q41 0 72 19.5t48.5 58.5t17.5 96q0 86 -38 130t-100 44q-42 0 -73 -19.5t-48.5 -58.5t-17.5 -96q0 -85 38 -129.5t101 -44.5z" />
    <glyph glyph-name="uni0259" unicode="&#x259;" horiz-adv-x="537" 
d="M259 -9q-70 0 -119 28.5t-75 83t-26 130.5q0 16 10.5 24.5t29.5 8.5h337v-62h-308l19 15q1 -50 15.5 -85t43 -53.5t71.5 -18.5q45 0 77 21t48.5 60t16.5 92v7q0 87 -42 131.5t-121 44.5q-29 0 -62.5 -8t-64.5 -28q-17 -10 -30.5 -9t-21.5 9.5t-10 21t3.5 25t20.5 21.5
q34 23 79.5 35t86.5 12q80 0 137.5 -30.5t89 -87t31.5 -134.5q0 -76 -30 -133t-83 -89t-123 -32z" />
    <glyph glyph-name="uni0292" unicode="&#x292;" horiz-adv-x="504" 
d="M230 -189q-59 0 -108.5 11.5t-87.5 34.5q-15 9 -20 21t-3.5 24.5t10 21.5t20.5 11t26 -6q31 -20 69 -30t84 -10q76 0 114.5 34t38.5 99q0 58 -38 89.5t-110 31.5h-76q-17 0 -24 9t-4.5 23t13.5 26l215 231v-25h-280q-21 0 -32 10.5t-11 30.5q0 40 43 40h337q17 0 28 -8
t14 -20.5t-1 -27t-16 -26.5l-204 -218l-28 27h60q68 0 116 -22.5t73.5 -64t25.5 -100.5q0 -67 -29.5 -116t-84 -75t-130.5 -26z" />
    <glyph glyph-name="uni02B9" unicode="&#x2b9;" horiz-adv-x="231" 
d="M116 415q-14 0 -24.5 9.5t-12.5 29.5l-17 199q-3 26 13 42.5t41 16.5q24 0 40 -16t13 -43l-16 -199q-1 -20 -11.5 -29.5t-25.5 -9.5z" />
    <glyph glyph-name="uni02BA" unicode="&#x2ba;" horiz-adv-x="417" 
d="M116 415q-14 0 -25 10.5t-13 28.5l-16 199q-3 25 13 42t41 17q16 0 29 -7.5t19.5 -21t4.5 -30.5l-16 -199q-1 -18 -11.5 -28.5t-25.5 -10.5zM302 415q-14 0 -25 10.5t-13 28.5l-16 199q-3 25 13 42t41 17q16 0 29 -7.5t19.5 -21t4.5 -30.5l-16 -199q-1 -18 -11.5 -28.5
t-25.5 -10.5z" />
    <glyph glyph-name="uni02BB" unicode="&#x2bb;" horiz-adv-x="500" 
d="M251 561q-28 0 -43.5 15.5t-15.5 47.5q0 19 4 40.5t13 42t22 36.5q9 12 20 13.5t19 -4t9.5 -16t-7.5 -23.5q-11 -15 -16 -32.5t-5 -32.5l-3 18q29 0 45 -14t16 -39t-15.5 -38.5t-42.5 -13.5z" />
    <glyph glyph-name="uni02BC" unicode="&#x2bc;" horiz-adv-x="336" 
d="M187 584q-9 -11 -20 -12.5t-19.5 3.5t-9.5 15.5t8 24.5q11 15 16 32.5t5 31.5l3 -18q-29 0 -45 14.5t-16 38.5q0 25 15 39t43 14t43.5 -15.5t15.5 -47.5q0 -19 -4 -41t-12.5 -42t-22.5 -37z" />
    <glyph glyph-name="uni02BE" unicode="&#x2be;" horiz-adv-x="500" 
d="M277 556q-16 -4 -25 2.5t-9 18.5t7 17.5t21 11.5t22 19t8 29t-8 29.5t-22 19.5t-21 11t-7 18q0 11 9 18t25 3q35 -8 56 -36t21 -63q0 -34 -21 -62t-56 -36z" />
    <glyph glyph-name="uni02BF" unicode="&#x2bf;" horiz-adv-x="500" 
d="M224 556q-35 8 -56 36t-21 62q0 35 21 63t56 36q15 4 24 -2.5t9 -18.5q0 -13 -7 -18t-20 -11q-15 -6 -23 -19t-8 -30q0 -16 8 -29t23 -19q13 -6 20 -11.5t7 -17.5t-9 -18.5t-24 -2.5z" />
    <glyph glyph-name="circumflex" unicode="&#x2c6;" horiz-adv-x="482" 
d="M378 589q7 -14 3 -25t-14 -16.5t-21.5 -3.5t-19.5 14l-85 135l-85 -135q-8 -12 -19.5 -14t-21.5 3.5t-14 16.5t3 25l79 143q10 19 24.5 28t33.5 9t34 -9t25 -28z" />
    <glyph glyph-name="caron" unicode="&#x2c7;" horiz-adv-x="482" 
d="M241 537q-19 0 -33.5 10.5t-24.5 28.5l-79 143q-7 13 -3 24t14 16.5t21.5 3.5t19.5 -13l85 -136l85 136q8 11 19.5 13t21.5 -3.5t14 -16.5t-3 -24l-78 -143q-10 -18 -25 -28.5t-34 -10.5z" />
    <glyph glyph-name="uni02C8" unicode="&#x2c8;" horiz-adv-x="500" 
d="M250 587q-16 0 -25.5 9.5t-9.5 26.5v144q0 37 35 37q17 0 26 -9.5t9 -27.5v-144q0 -36 -35 -36z" />
    <glyph glyph-name="uni02C9" unicode="&#x2c9;" horiz-adv-x="500" 
d="M124 621q-34 0 -34 32q0 15 9 23.5t25 8.5h252q34 0 34 -32q0 -15 -8.5 -23.5t-25.5 -8.5h-252z" />
    <glyph glyph-name="uni02CA" unicode="&#x2ca;" horiz-adv-x="500" 
d="M289 558q-8 -11 -19.5 -13.5t-22.5 3.5t-15.5 17t1.5 24l81 157q8 16 20.5 21t26 1.5t23 -12.5t11.5 -22.5t-7 -27.5z" />
    <glyph glyph-name="uni02CB" unicode="&#x2cb;" horiz-adv-x="500" 
d="M212 558l-100 149q-9 13 -7 26.5t12 22.5t23 12.5t26 -1.5t21 -21l80 -157q6 -13 2 -24t-15 -17t-22.5 -4t-19.5 14z" />
    <glyph glyph-name="uni02CC" unicode="&#x2cc;" horiz-adv-x="500" 
d="M250 -277q-16 0 -25.5 9.5t-9.5 26.5v145q0 36 35 36q17 0 26 -9.5t9 -26.5v-145q0 -36 -35 -36z" />
    <glyph glyph-name="breve" unicode="&#x2d8;" horiz-adv-x="516" 
d="M258 550q-45 0 -77.5 20.5t-53 56.5t-26.5 84q-3 17 5.5 27.5t21.5 10.5q14 1 23 -6.5t11 -23.5q8 -52 33.5 -78.5t62.5 -26.5t63 26.5t33 78.5q2 16 11 23.5t23 6.5q14 0 22 -10.5t5 -27.5q-5 -48 -25.5 -84t-53.5 -56.5t-78 -20.5z" />
    <glyph glyph-name="dotaccent" unicode="&#x2d9;" horiz-adv-x="313" 
d="M156 600q-27 0 -41.5 14.5t-14.5 40.5t14.5 39.5t41.5 13.5q28 0 42.5 -13.5t14.5 -39.5q0 -27 -14.5 -41t-42.5 -14z" />
    <glyph glyph-name="ring" unicode="&#x2da;" horiz-adv-x="444" 
d="M222 546q-34 0 -62 16t-44 43.5t-16 60.5t16 60t44 42.5t62 15.5q35 0 62.5 -15.5t43.5 -42.5t16 -60t-16 -60.5t-43.5 -43.5t-62.5 -16zM222 596q31 0 50 20t19 50q0 29 -19 48.5t-50 19.5q-30 0 -49.5 -19.5t-19.5 -48.5q0 -30 19.5 -50t49.5 -20z" />
    <glyph glyph-name="ogonek" unicode="&#x2db;" horiz-adv-x="393" 
d="M211 -194q-51 0 -81 27.5t-30 73.5q0 41 26.5 76.5t72.5 55.5l32 -39q-16 -7 -30.5 -19t-23.5 -28t-9 -35q0 -27 16 -40.5t41 -13.5q8 0 16 1.5t16 3.5q16 5 24.5 -0.5t11 -16.5t-2.5 -21t-18 -16q-16 -5 -31.5 -7t-29.5 -2z" />
    <glyph glyph-name="tilde" unicode="&#x2dc;" horiz-adv-x="568" 
d="M124 584q-12 1 -19 9t-4 24q4 22 12.5 42.5t21.5 36.5t32 25.5t44 9.5q24 0 43 -11t35 -25t32 -25t35 -11q22 0 37.5 16t20.5 42q2 10 9 15.5t21 4.5q12 0 19 -8t4 -25q-5 -29 -18.5 -55t-36 -42t-55.5 -16q-24 0 -43 10.5t-35.5 24.5t-32.5 25t-34 11q-22 0 -37 -15.5
t-21 -42.5q-1 -10 -8.5 -15.5t-21.5 -4.5z" />
    <glyph glyph-name="hungarumlaut" unicode="&#x2dd;" horiz-adv-x="461" 
d="M290 561q-4 -11 -14 -15t-20 -1.5t-15.5 11t-2.5 21.5l41 159q5 17 16 25t24 8t24 -6t15.5 -18t-1.5 -28zM153 561q-5 -11 -14.5 -15t-19.5 -1.5t-16 11t-2 21.5l41 159q5 17 16 25t24 8t24 -6.5t15.5 -18t-2.5 -27.5z" />
    <glyph glyph-name="gravecomb" unicode="&#x300;" 
d="M-38 558l-100 149q-9 14 -7 27t12 22t23 12.5t26 -1.5t21 -21l80 -157q6 -13 2 -24t-15 -17t-22.5 -4t-19.5 14z" />
    <glyph glyph-name="acutecomb" unicode="&#x301;" 
d="M39 558q-8 -12 -19.5 -14t-22.5 4t-15.5 17t1.5 24l81 157q8 16 20.5 21t26 1.5t23 -12.5t11.5 -22.5t-7 -26.5z" />
    <glyph glyph-name="uni0302" unicode="&#x302;" 
d="M137 589q7 -14 3 -25t-14 -16.5t-21.5 -3.5t-19.5 14l-85 135l-85 -135q-8 -12 -19.5 -14t-21.5 3.5t-14 16.5t3 25l79 143q10 19 24.5 28t33.5 9t34 -9t25 -28z" />
    <glyph glyph-name="tildecomb" unicode="&#x303;" 
d="M-160 584q-12 1 -19 9t-4 24q4 22 12.5 42.5t21.5 36.5t32 25.5t44 9.5q24 0 43 -11t35 -25t32 -25t35 -11q22 0 37.5 16t20.5 42q2 10 9 15.5t21 4.5q12 0 19 -8t4 -25q-5 -29 -18.5 -55t-36 -42t-55.5 -16q-24 0 -43 10.5t-35.5 24.5t-32.5 25t-34 11q-22 0 -37 -15.5
t-21 -42.5q-1 -10 -8.5 -15.5t-21.5 -4.5z" />
    <glyph glyph-name="uni0304" unicode="&#x304;" 
d="M-122 621q-34 0 -34 32q0 15 9 23.5t25 8.5h245q33 0 33 -32q0 -15 -8.5 -23.5t-24.5 -8.5h-245z" />
    <glyph glyph-name="uni0306" unicode="&#x306;" 
d="M0 550q-45 0 -77.5 20.5t-53 56.5t-26.5 84q-3 17 5.5 27.5t21.5 10.5q14 1 23 -6.5t11 -23.5q8 -52 33.5 -78.5t62.5 -26.5t63 26.5t33 78.5q2 16 11 23.5t23 6.5q14 0 22 -10.5t5 -27.5q-5 -48 -25.5 -84t-53.5 -56.5t-78 -20.5z" />
    <glyph glyph-name="uni0307" unicode="&#x307;" 
d="M0 600q-27 0 -41.5 14.5t-14.5 40.5t14.5 39.5t41.5 13.5q28 0 42.5 -13.5t14.5 -39.5q0 -27 -14.5 -41t-42.5 -14z" />
    <glyph glyph-name="uni0308" unicode="&#x308;" 
d="M91 600q-26 0 -40 14t-14 40q0 25 14 38.5t40 13.5q25 0 39 -13.5t14 -38.5q0 -26 -13.5 -40t-39.5 -14zM-90 600q-25 0 -39.5 14t-14.5 40q0 25 14.5 38.5t39.5 13.5q26 0 40 -13.5t14 -38.5q0 -26 -14 -40t-40 -14z" />
    <glyph glyph-name="hookabovecomb" unicode="&#x309;" 
d="M0 545q-15 0 -23.5 6.5t-8.5 18.5q0 23 9 38.5t20.5 26.5t20.5 21t9 24q0 13 -10.5 20t-32.5 7q-9 0 -19.5 -1.5t-21.5 -5.5q-15 -5 -23.5 -2.5t-12.5 13.5q-4 13 0 22t19 16q17 7 37 10t42 3q48 0 75 -18t27 -52q0 -25 -11.5 -40.5t-26 -26.5t-26 -24t-11.5 -33
q0 -11 -8 -17t-24 -6z" />
    <glyph glyph-name="uni030A" unicode="&#x30a;" 
d="M0 546q-34 0 -62 16t-44 43.5t-16 60.5t16 60t44 42.5t62 15.5q35 0 62.5 -15.5t43.5 -42.5t16 -60t-16 -60.5t-43.5 -43.5t-62.5 -16zM0 596q31 0 50 20t19 50q0 29 -19 48.5t-50 19.5q-30 0 -49.5 -19.5t-19.5 -48.5q0 -30 19.5 -50t49.5 -20z" />
    <glyph glyph-name="uni030B" unicode="&#x30b;" 
d="M98 561q-4 -11 -14 -15t-20 -1.5t-15.5 11t-2.5 21.5l41 159q5 17 16 25t24 8t24 -6t15.5 -18t-1.5 -28zM-39 561q-5 -11 -14.5 -15t-19.5 -1.5t-16 11t-2 21.5l41 159q5 17 16 25t24 8t24 -6.5t15.5 -18t-2.5 -27.5z" />
    <glyph glyph-name="uni030C" unicode="&#x30c;" 
d="M0 537q-19 0 -33.5 10.5t-24.5 28.5l-79 143q-7 13 -3 24t14 16.5t21.5 3.5t19.5 -13l85 -136l85 136q8 11 19.5 13t21.5 -3.5t14 -16.5t-3 -24l-78 -143q-10 -18 -25 -28.5t-34 -10.5z" />
    <glyph glyph-name="uni030F" unicode="&#x30f;" 
d="M39 561l-66 156q-7 16 -2.5 28t15.5 18t24.5 6t24.5 -8t15 -25l41 -159q4 -13 -2 -21.5t-16 -11t-19.5 1.5t-14.5 15zM-98 561l-66 156q-7 16 -2.5 28t15.5 18t24 6t24 -8t16 -25l42 -159q3 -13 -3 -21.5t-16 -11t-19.5 1.5t-14.5 15z" />
    <glyph glyph-name="uni0311" unicode="&#x311;" 
d="M-130 548q-13 1 -21.5 11.5t-5.5 26.5q6 49 26 85t53 56t78 20t78 -20t53.5 -56t25.5 -85q3 -16 -5 -26.5t-22 -11.5t-23 7t-11 23q-7 53 -33 79t-63 26t-62.5 -26t-33.5 -79q-2 -15 -11 -23t-23 -7z" />
    <glyph glyph-name="uni0312" unicode="&#x312;" 
d="M1 561q-28 0 -43.5 15.5t-15.5 47.5q0 19 4 40.5t13 42t22 36.5q9 12 20 13.5t19 -4t9.5 -16t-7.5 -23.5q-11 -15 -16 -32.5t-5 -32.5l-3 18q29 0 45 -14t16 -39t-15.5 -38.5t-42.5 -13.5z" />
    <glyph glyph-name="uni031B" unicode="&#x31b;" 
d="M55 431l-55 36v21q30 0 50 6.5t31.5 18t16.5 29.5t5 42q0 36 45 36q22 0 33 -9t11 -27q0 -67 -36.5 -107.5t-100.5 -45.5z" />
    <glyph glyph-name="dotbelowcomb" unicode="&#x323;" 
d="M0 -199q-27 0 -41.5 14.5t-14.5 40.5t14.5 40t41.5 14q28 0 42.5 -14t14.5 -40t-14.5 -40.5t-42.5 -14.5z" />
    <glyph glyph-name="uni0324" unicode="&#x324;" 
d="M91 -190q-26 0 -40 14t-14 40q0 25 14 39t40 14q25 0 39 -14t14 -40t-13.5 -39.5t-39.5 -13.5zM-90 -190q-25 0 -39.5 14t-14.5 40q0 25 14.5 39t39.5 14q26 0 40 -14t14 -40t-14 -39.5t-40 -13.5z" />
    <glyph glyph-name="uni0326" unicode="&#x326;" 
d="M19 -255q-9 -11 -20 -12.5t-19 4t-9.5 16t7.5 23.5q11 15 16 33t5 32l3 -18q-29 0 -45 14.5t-16 38.5q0 25 15.5 38.5t42.5 13.5q28 0 43.5 -15.5t15.5 -47.5q0 -19 -4 -40.5t-12.5 -42t-22.5 -37.5z" />
    <glyph glyph-name="uni0327" unicode="&#x327;" 
d="M2 -194q-18 0 -38.5 3t-36.5 9q-13 5 -17.5 15t-1.5 20t12.5 15.5t22.5 -0.5q12 -4 25 -6t28 -2q26 0 41.5 8.5t15.5 24.5q0 12 -9 19t-29 7q-7 0 -15 -0.5t-17 -3.5q-7 -2 -12.5 -2t-10.5 4q-4 4 -5 10t0 15l12 78h58l-13 -76l-28 9q12 3 24 5t22 2q39 0 63 -18t24 -52
q0 -37 -32 -60.5t-83 -23.5z" />
    <glyph glyph-name="uni0328" unicode="&#x328;" 
d="M-20 -194q-51 0 -81 27.5t-30 73.5q0 41 26.5 76.5t72.5 55.5l32 -39q-16 -7 -30.5 -19t-23.5 -28t-9 -35q0 -27 16 -40.5t41 -13.5q8 0 16 1.5t16 3.5q16 5 24.5 -0.5t11 -16.5t-2.5 -21t-18 -16q-16 -5 -31.5 -7t-29.5 -2z" />
    </font>
</defs>
</svg>
