<?xml version="1.0" standalone="no"?>
<!DOCTYPE svg PUBLIC "-//W3C//DTD SVG 1.1//EN" "http://www.w3.org/Graphics/SVG/1.1/DTD/svg11.dtd" >
<svg xmlns="http://www.w3.org/2000/svg" xmlns:xlink="http://www.w3.org/1999/xlink" version="1.1">
<metadata>
Created by FontForge 20170731 at Wed Feb 16 15:57:27 2022
 By Aleksey,,,
Copyright 2014 The Nunito Project Authors (https://github.com/googlefonts/nunito)
</metadata>
<defs>
<font id="Nunito-SemiBoldItalic" horiz-adv-x="0" >
  <font-face 
    font-family="Nunito SemiBold"
    font-weight="600"
    font-style="italic"
    font-stretch="normal"
    units-per-em="1000"
    panose-1="0 0 0 0 0 0 0 0 0 0"
    ascent="800"
    descent="-200"
    x-height="488"
    cap-height="705"
    bbox="-301 -277 1364.79 1051"
    underline-thickness="28"
    underline-position="-122"
    slope="-9"
    unicode-range="U+000D-FB02"
  />
<missing-glyph horiz-adv-x="500" 
d="M50 -180v885h400v-885h-400zM100 -130h300v785h-300v-785z" />
    <glyph glyph-name="fi" unicode="fi" horiz-adv-x="582" 
d="M111 -7q-23 0 -34 15.5t-7 43.5l57 358h-51q-20 0 -30 8.5t-10 22.5q0 22 13 34.5t34 12.5h68l-14 -13l7 44q13 83 66 131.5t148 55.5l29 2q17 1 26.5 -6t13 -18.5t0.5 -23t-11 -20t-21 -9.5l-29 -2q-53 -4 -83 -31t-38 -79l-7 -41l-8 10h269q24 0 35 -13t7 -39l-62 -393
q-3 -25 -17.5 -37.5t-40.5 -12.5q-23 0 -34.5 15.5t-7.5 43.5l57 358h-208l-59 -367q-8 -50 -58 -50zM520 597q-26 0 -40.5 14t-11.5 39q3 29 21 45t49 16q27 0 41.5 -14t11.5 -39q-3 -30 -21 -45.5t-50 -15.5z" />
    <glyph glyph-name="fl" unicode="fl" horiz-adv-x="654" 
d="M111 -7q-23 0 -34 15.5t-7 43.5l57 358h-51q-20 0 -30 8.5t-10 22.5q0 22 13 34.5t34 12.5h68l-14 -13l7 44q13 83 65.5 131.5t148.5 55.5l31 2q17 1 26.5 -6t12.5 -18.5t0 -23t-11 -20t-20 -9.5l-29 -2q-55 -4 -85 -31t-38 -79l-7 -41l-8 10h103q20 0 30 -8t10 -23
q0 -22 -13 -34.5t-35 -12.5h-97l-58 -367q-9 -50 -59 -50zM538 -9q-77 0 -111.5 44.5t-21.5 130.5l80 496q4 25 18.5 37.5t39.5 12.5q23 0 34 -15t7 -44l-78 -486q-8 -49 8 -71t53 -22q12 0 19.5 2t13.5 2q8 0 13 -6t5 -23q0 -23 -10 -36t-26 -17q-8 -3 -21 -4t-23 -1z" />
    <glyph glyph-name=".notdef" horiz-adv-x="500" 
d="M50 -180v885h400v-885h-400zM100 -130h300v785h-300v-785z" />
    <glyph glyph-name=".null" 
 />
    <glyph glyph-name="nonmarkingreturn" horiz-adv-x="333" 
 />
    <glyph glyph-name="NULL" 
 />
    <glyph glyph-name="NULL" 
 />
    <glyph glyph-name="CR" unicode="&#xd;" horiz-adv-x="264" 
 />
    <glyph glyph-name="space" unicode=" " horiz-adv-x="264" 
 />
    <glyph glyph-name="exclam" unicode="!" horiz-adv-x="237" 
d="M113 194q-15 0 -23 8.5t-7 27.5l42 423q3 30 19.5 44.5t44.5 14.5q30 0 44 -18.5t7 -52.5l-91 -416q-3 -14 -12 -22.5t-24 -8.5zM91 -4q-29 0 -46.5 18t-17.5 46t17.5 45.5t46.5 17.5q30 0 46.5 -17.5t16.5 -45.5t-16.5 -46t-46.5 -18z" />
    <glyph glyph-name="quotedbl" unicode="&#x22;" horiz-adv-x="417" 
d="M147 415q-17 0 -26.5 9t-8.5 32l15 206q2 21 17 35.5t39 14.5q18 0 31 -7t19 -21t1 -34l-48 -200q-5 -19 -15.5 -27t-23.5 -8zM333 415q-17 0 -26.5 9t-8.5 32l15 206q2 21 17 35.5t39 14.5q18 0 31 -7t19 -21t1 -34l-48 -200q-5 -19 -15.5 -27t-23.5 -8z" />
    <glyph glyph-name="numbersign" unicode="#" horiz-adv-x="600" 
d="M85 -7q-20 0 -26 13.5t2 36.5l52 145l25 -11h-69q-7 0 -16 2t-16 8.5t-7 20.5q0 17 11 27.5t31 10.5h87l-28 -8l85 241l21 -12h-102q-6 0 -15 1.5t-16 8.5t-7 21q0 18 10.5 28t31.5 10h122l-30 -12l54 153q7 18 18.5 26.5t27.5 8.5q19 0 25 -13t-2 -36l-45 -127h145
l49 141q7 18 18.5 26.5t27.5 8.5q19 0 25.5 -13t-1.5 -36l-49 -139l-25 12h68q8 0 16.5 -1.5t15.5 -8t7 -20.5q0 -18 -11 -28.5t-31 -10.5h-86l29 12l-85 -241l-23 8h102q7 0 16 -1.5t16 -8t7 -21.5q0 -16 -11 -27t-32 -11h-121l29 11l-58 -160q-6 -18 -17.5 -26.5
t-27.5 -8.5q-19 0 -25 13.5t2 36.5l48 134h-144l-53 -149q-6 -18 -17.5 -26.5t-27.5 -8.5zM207 246h144l79 221h-145z" />
    <glyph glyph-name="dollar" unicode="$" horiz-adv-x="600" 
d="M256 -122q-21 0 -31.5 12t-6.5 35l14 88l13 -18q-57 3 -109 20t-90 42q-15 10 -20.5 24t-2.5 28t12.5 24.5t24 12t31.5 -9.5q40 -25 89 -39t109 -14q46 0 81.5 12.5t56 36.5t20.5 59q0 28 -11 47.5t-36.5 34t-69.5 25.5l-93 24q-70 18 -112 61t-42 118q0 68 36.5 114.5
t98 71t135.5 23.5l-13 -12l15 91q2 16 14 25.5t30 9.5q17 0 29 -11t7 -34l-12 -82l-8 8q42 -7 82.5 -24t73.5 -45q11 -8 14.5 -20.5t0 -25.5t-12.5 -21.5t-23 -9t-32 10.5q-36 26 -77.5 39t-89.5 13q-76 0 -120.5 -29.5t-44.5 -82.5q0 -44 22.5 -67.5t69.5 -35.5l93 -24
q92 -24 135.5 -69t43.5 -112q0 -65 -35 -110.5t-93 -69.5t-126 -27l18 19l-16 -102q-2 -16 -13.5 -25t-28.5 -9z" />
    <glyph glyph-name="percent" unicode="%" horiz-adv-x="937" 
d="M277 0q-10 -14 -22.5 -18.5t-24 -0.5t-19 13t-7.5 21.5t10 27.5l479 658q9 14 22 18t24.5 1t19 -12t8 -21.5t-10.5 -27.5zM240 281q-73 0 -113.5 44t-40.5 120q0 74 23.5 134.5t68.5 96.5t111 36q73 0 113 -44t40 -120q0 -74 -23.5 -135t-68.5 -96.5t-110 -35.5zM240 349
q38 0 64 27.5t39.5 72.5t14.5 97q2 53 -17.5 75.5t-51.5 22.5q-39 0 -65 -27.5t-39 -72t-15 -97.5q-1 -52 18 -75t52 -23zM682 -9q-73 0 -113 44t-40 119q0 74 23.5 135t68.5 97t109 36q73 0 113.5 -44.5t40.5 -119.5t-23 -135.5t-68 -96t-111 -35.5zM682 59q39 0 65 27
t39 72.5t15 97.5q1 53 -18 75.5t-52 22.5q-39 0 -65 -27.5t-39.5 -72.5t-14.5 -97t18 -75t52 -23z" />
    <glyph glyph-name="ampersand" unicode="&#x26;" horiz-adv-x="708" 
d="M258 -9q-65 0 -112.5 19.5t-73 56t-25.5 84.5q0 40 14.5 75t40.5 64t58.5 53.5t67.5 43.5l36 20l-16 -22q-33 40 -47 76.5t-14 69.5q0 54 25.5 95.5t71 64.5t105.5 23q68 0 109.5 -37t41.5 -96q0 -49 -24.5 -86.5t-66 -67.5t-92.5 -59l2 26l149 -197h-19q20 28 34 55.5
t25.5 60.5t22.5 74q5 19 16.5 28.5t30.5 9.5q22 0 33 -12t5 -34q-14 -53 -30 -95t-36.5 -77.5t-48.5 -71.5l-1 27l82 -102q13 -17 11.5 -32.5t-13.5 -25.5t-33 -10q-11 0 -22.5 3t-19.5 14l-66 87h23q-48 -50 -109 -77.5t-135 -27.5zM271 72q57 0 101.5 21.5t80.5 63.5
l-5 -28l-173 223l38 -4l-32 -19q-36 -20 -66.5 -43.5t-48.5 -52.5t-18 -68q0 -45 31.5 -69t91.5 -24zM384 640q-47 0 -75 -28t-28 -72q0 -18 4.5 -34.5t16 -35t31.5 -44.5l-23 2q51 26 83 49t46.5 47t14.5 53q0 30 -18.5 46.5t-51.5 16.5z" />
    <glyph glyph-name="quotesingle" unicode="'" horiz-adv-x="231" 
d="M147 415q-17 0 -26.5 9t-8.5 32l15 206q2 21 17 35.5t39 14.5q18 0 31 -7t19 -21t1 -34l-48 -200q-5 -19 -15.5 -27t-23.5 -8z" />
    <glyph glyph-name="parenleft" unicode="(" horiz-adv-x="336" 
d="M143 -153q-22 74 -33.5 144t-11.5 137q0 107 23 208.5t64 192t93 162.5q12 17 28.5 19.5t30.5 -4.5t19 -22.5t-5 -35.5q-46 -84 -78.5 -171.5t-49.5 -181t-17 -196.5q0 -36 2.5 -73t7 -75.5t11.5 -77.5q4 -24 -6 -38t-26 -18t-30.5 3.5t-21.5 26.5z" />
    <glyph glyph-name="parenright" unicode=")" horiz-adv-x="336" 
d="M64 -163q-12 -16 -28.5 -19t-30.5 3.5t-19 21.5t5 35q46 84 78.5 171.5t49.5 181.5t17 196q0 37 -2.5 73.5t-7.5 75t-11 77.5q-4 24 6 38t26 18t31 -3t21 -27q22 -73 33.5 -143.5t11.5 -137.5q0 -106 -22.5 -207t-63.5 -190.5t-94 -163.5z" />
    <glyph glyph-name="asterisk" unicode="*" horiz-adv-x="452" 
d="M172 363q-15 9 -17 24t9 32l67 104l14 -20l-124 -5q-20 -1 -32.5 8t-12.5 26t12.5 26t32.5 8l124 -6l-13 -20l-67 105q-12 18 -9.5 32.5t17.5 22.5q15 10 29 2.5t23 -25.5l53 -103h-13l52 103q9 19 23.5 26t29.5 -3q15 -9 17 -23.5t-9 -32.5l-67 -104l-14 20l125 6
q20 1 32 -8t12 -26q0 -18 -12 -26.5t-32 -7.5l-125 5l14 20l67 -104q10 -17 8.5 -31.5t-16.5 -23.5q-16 -9 -30 -2.5t-23 24.5l-52 104h13l-54 -104q-8 -18 -22 -24.5t-30 1.5z" />
    <glyph glyph-name="plus" unicode="+" horiz-adv-x="600" 
d="M269 33q-19 0 -28 12t-6 33l28 172h-168q-19 0 -29 8t-10 22q0 20 11.5 32t31.5 12h175l27 174q4 18 14 27.5t29 9.5t27.5 -11.5t5.5 -32.5l-26 -167h168q19 0 29 -8t10 -22q0 -21 -11.5 -32.5t-31.5 -11.5h-176l-28 -179q-3 -19 -13 -28.5t-29 -9.5z" />
    <glyph glyph-name="comma" unicode="," horiz-adv-x="237" 
d="M81 -102q-13 -13 -26 -13t-21 7.5t-8 20t13 24.5q23 23 33.5 42t14.5 43l7 -26q-30 0 -48.5 17.5t-18.5 46.5q0 28 17 45.5t46 17.5q30 0 45.5 -19.5t15.5 -50.5q0 -30 -8 -57t-23.5 -51.5t-38.5 -46.5z" />
    <glyph glyph-name="hyphen" unicode="-" horiz-adv-x="429" 
d="M111 226q-22 0 -33 8.5t-11 24.5q0 21 11.5 34.5t33.5 13.5h215q22 0 33 -8t11 -25q0 -20 -12 -34t-34 -14h-214z" />
    <glyph glyph-name="period" unicode="." horiz-adv-x="237" 
d="M91 -4q-29 0 -46.5 18t-17.5 46t17.5 45.5t46.5 17.5q30 0 46.5 -17.5t16.5 -45.5t-16.5 -46t-46.5 -18z" />
    <glyph glyph-name="slash" unicode="/" horiz-adv-x="297" 
d="M24 -35q-7 -15 -18.5 -20.5t-23.5 -3.5t-21 10t-12 20.5t5 27.5l348 725q7 15 18.5 20.5t23.5 3.5t21.5 -10t12.5 -20.5t-5 -27.5z" />
    <glyph glyph-name="zero" unicode="0" horiz-adv-x="600" 
d="M288 -9q-110 0 -168 67.5t-58 194.5q0 143 34.5 246t99 159t151.5 56q111 0 168.5 -67t57.5 -193q0 -144 -34.5 -247.5t-98.5 -159.5t-152 -56zM293 77q81 0 129.5 100.5t49.5 294.5q1 79 -31 117.5t-99 38.5q-80 0 -129.5 -100t-49.5 -295q0 -78 32 -117t98 -39z" />
    <glyph glyph-name="one" unicode="1" horiz-adv-x="600" 
d="M125 0q-22 0 -34.5 9.5t-12.5 28.5q0 22 14.5 35.5t37.5 13.5h122l85 532l51 -4l-151 -89q-17 -10 -31 -8.5t-23.5 11t-12.5 22.5t3 26.5t23 23.5l155 93q17 10 31 14t27 4q22 0 32 -13.5t5 -37.5l-91 -574h104q23 0 35 -9t12 -29q0 -21 -14 -35t-38 -14h-329z" />
    <glyph glyph-name="two" unicode="2" horiz-adv-x="600" 
d="M104 0q-23 0 -37 10.5t-14 30.5q0 16 8.5 29t26.5 30l244 226q55 52 89.5 100.5t34.5 103.5q0 46 -30.5 71t-85.5 25q-36 0 -75 -13t-80 -40q-16 -10 -29.5 -8.5t-22 10.5t-12 21.5t1 26t18.5 23.5q46 32 102.5 50t114.5 18q61 0 106.5 -21.5t70 -59.5t24.5 -88
q0 -57 -21.5 -104.5t-59 -90.5t-84.5 -85l-229 -207l-1 29h308q23 0 35 -9t12 -27q0 -23 -13.5 -37t-38.5 -14h-363z" />
    <glyph glyph-name="three" unicode="3" horiz-adv-x="600" 
d="M277 -9q-53 0 -110.5 12.5t-106.5 47.5q-16 9 -20 23t-0.5 27.5t12.5 23t22.5 11.5t27.5 -8q43 -29 86.5 -39t88.5 -10q42 0 75 15.5t52 45t19 70.5q0 48 -32 75.5t-93 27.5h-59q-23 0 -35 10.5t-12 28.5q0 22 14.5 35t37.5 13h60q43 0 78 15t55 44t20 69q0 45 -32 71.5
t-85 26.5q-39 0 -81 -12t-80 -39q-16 -9 -29.5 -8.5t-23 9.5t-12.5 21.5t2.5 26t20.5 24.5q48 34 105 50t111 16q66 0 112 -23.5t69.5 -62.5t23.5 -87q1 -48 -20.5 -86.5t-59 -65t-86.5 -35.5v12q65 -14 98.5 -57.5t33.5 -103.5q0 -61 -31.5 -109.5t-86.5 -76.5t-129 -28z
" />
    <glyph glyph-name="four" unicode="4" horiz-adv-x="600" 
d="M378 -7q-25 0 -36.5 14.5t-7.5 39.5l15 96h-261q-27 0 -40.5 12t-13.5 31q0 16 8 30t23 31l366 432q14 16 27 23t32 7q22 0 33.5 -15t7.5 -43l-67 -421h63q21 0 31.5 -9.5t10.5 -25.5q0 -23 -12 -37.5t-40 -14.5h-65l-16 -101q-3 -24 -17.5 -36.5t-40.5 -12.5zM362 230
l56 353h25l-321 -380l3 27h237z" />
    <glyph glyph-name="five" unicode="5" horiz-adv-x="600" 
d="M285 -9q-49 0 -103 13.5t-101 48.5q-15 11 -19.5 24.5t-1 26.5t13 22.5t22.5 11t28 -8.5q41 -29 78.5 -39.5t82.5 -10.5q47 0 84 20t58.5 55.5t21.5 80.5q0 55 -33.5 89t-89.5 34q-39 0 -72.5 -14t-64.5 -45q-11 -10 -22.5 -15.5t-26.5 -5.5q-19 0 -29.5 11.5t-7.5 34.5
l54 337q4 22 17.5 33t35.5 11h328q22 0 34.5 -9t12.5 -28q0 -23 -14 -36.5t-39 -13.5h-281l-40 -254h-28q32 38 79 59t96 21q55 0 98 -23.5t68.5 -68t25.5 -108.5q0 -77 -36 -134t-96.5 -88t-132.5 -31z" />
    <glyph glyph-name="six" unicode="6" horiz-adv-x="600" 
d="M308 -9q-74 0 -127 32t-82 91.5t-29 140.5q0 100 22 183.5t64 145.5t104 96t141 34q49 0 96.5 -17t85.5 -52q14 -11 17 -24.5t-1.5 -26.5t-14.5 -21t-23.5 -8.5t-27.5 10.5q-28 25 -64 38t-74 13q-65 0 -113.5 -37.5t-77.5 -107.5t-36 -168l-2 -31h-10q8 51 38.5 88
t74 57t90.5 20q56 0 99 -27t67.5 -72t24.5 -101q0 -73 -31 -131t-86 -91.5t-125 -33.5zM304 75q45 0 78.5 22t52 59t18.5 83q0 37 -16 64.5t-44 43t-65 15.5q-44 0 -78 -21.5t-52.5 -58.5t-18.5 -84q0 -36 16 -64t44.5 -43.5t64.5 -15.5z" />
    <glyph glyph-name="seven" unicode="7" horiz-adv-x="600" 
d="M139 -7q-20 0 -32 10t-12.5 27t12.5 37l398 590l-1 -39h-336q-23 0 -36 9.5t-13 28.5q0 24 14 36.5t38 12.5h384q29 0 41 -10.5t12 -28.5q0 -17 -7 -31.5t-21 -34.5l-382 -572q-13 -18 -27 -26.5t-32 -8.5z" />
    <glyph glyph-name="eight" unicode="8" horiz-adv-x="600" 
d="M271 -9q-71 0 -124 21t-83 60.5t-30 93.5t25 99t68 72.5t96 30.5l-3 -15q-55 13 -86 53.5t-31 100.5q0 67 34.5 113t93.5 70t134 24q65 0 114.5 -21t77 -59t27.5 -89q0 -49 -22 -91t-60.5 -69t-87.5 -34l3 17q60 -10 97 -51.5t37 -107.5q0 -71 -36.5 -119.5t-99.5 -73.5
t-144 -25zM276 73q82 0 129.5 36t47.5 105q0 51 -39 76.5t-103 25.5q-82 0 -130.5 -35.5t-48.5 -103.5q0 -51 39.5 -77.5t104.5 -26.5zM326 398q48 0 84 17t56.5 46.5t20.5 70.5q0 48 -34 73.5t-92 25.5q-75 0 -118 -34t-43 -98q0 -49 34 -75t92 -26z" />
    <glyph glyph-name="nine" unicode="9" horiz-adv-x="600" 
d="M239 -9q-48 0 -98 17t-90 52q-14 11 -17 24.5t1.5 26t14.5 21t23.5 9t27.5 -10.5q30 -25 67 -38t76 -13q63 0 110 37.5t76.5 107.5t35.5 167l2 32h11q-8 -51 -38.5 -88t-74 -57t-90.5 -20q-57 0 -100 27t-67.5 72.5t-24.5 100.5q0 74 31.5 131.5t86 91t124.5 33.5
q74 0 127.5 -31.5t82 -90.5t28.5 -141q0 -98 -20.5 -182t-62 -146.5t-102.5 -97t-140 -34.5zM306 343q45 0 78.5 21.5t52 59t18.5 83.5q0 37 -15.5 64.5t-44 43.5t-64.5 16q-44 0 -78 -22t-52.5 -59t-18.5 -84q0 -36 16 -64t44 -43.5t64 -15.5z" />
    <glyph glyph-name="colon" unicode=":" horiz-adv-x="237" 
d="M91 -4q-29 0 -46.5 18t-17.5 46t17.5 45.5t46.5 17.5q30 0 46.5 -17.5t16.5 -45.5t-16.5 -46t-46.5 -18zM150 365q-29 0 -47 18t-18 45q0 29 18 46.5t47 17.5t46 -17.5t17 -46.5q0 -27 -17 -45t-46 -18z" />
    <glyph glyph-name="semicolon" unicode=";" horiz-adv-x="237" 
d="M81 -102q-13 -13 -26 -13t-21 7.5t-8 20t13 24.5q23 23 33.5 42t14.5 43l7 -26q-30 0 -48.5 17.5t-18.5 46.5q0 28 17 45.5t46 17.5q30 0 45.5 -19t15.5 -51q0 -30 -8 -57t-23.5 -51.5t-38.5 -46.5zM150 365q-29 0 -47 18t-18 45q0 29 18 46.5t47 17.5t46 -17.5t17 -46.5
q0 -27 -17 -45t-46 -18z" />
    <glyph glyph-name="less" unicode="&#x3c;" horiz-adv-x="600" 
d="M473 52l-373 176q-45 20 -45 52q0 22 13 36.5t34 23.5l436 180q15 6 26.5 2.5t18.5 -13t8 -21t-5.5 -22.5t-20.5 -17l-472 -192l9 50l402 -188q14 -6 19.5 -17t3.5 -22t-9 -20.5t-19 -12t-26 4.5z" />
    <glyph glyph-name="equal" unicode="=" horiz-adv-x="600" 
d="M110 350q-19 0 -29 8t-10 22q0 20 11.5 32t31.5 12h420q20 0 30 -8t10 -22q0 -21 -11.5 -32.5t-32.5 -11.5h-420zM79 151q-19 0 -29 8t-10 22q0 20 11.5 31.5t31.5 11.5h420q20 0 29.5 -8t9.5 -22q0 -20 -11.5 -31.5t-31.5 -11.5h-420z" />
    <glyph glyph-name="greater" unicode="&#x3e;" horiz-adv-x="600" 
d="M76 56q-15 -6 -26.5 -2.5t-18.5 12.5t-8 20t5.5 22t20.5 17l471 191l-8 -50l-402 189q-15 6 -20.5 17t-4 23t8.5 21t19 12t26 -4l375 -178q44 -21 44 -52q0 -21 -12.5 -35.5t-33.5 -23.5z" />
    <glyph glyph-name="question" unicode="?" horiz-adv-x="450" 
d="M211 191q-19 0 -26.5 11.5t-4.5 30.5q5 33 15 61t31 56t61 63q30 27 49.5 47.5t29 41.5t9.5 46q0 33 -22 55.5t-70 22.5q-41 0 -77.5 -13t-70.5 -36q-17 -10 -31.5 -9.5t-23.5 9.5t-11 22t3.5 26.5t21.5 24.5q43 32 98.5 48t107.5 16q57 0 97 -20.5t60.5 -54.5t20.5 -76
q0 -40 -16.5 -74.5t-44.5 -64t-64 -56.5t-57.5 -52t-33 -48t-18.5 -47q-3 -14 -10.5 -22t-22.5 -8zM184 -4q-28 0 -46 18t-18 46t18 45.5t46 17.5q30 0 47 -17.5t17 -45.5t-17 -46t-47 -18z" />
    <glyph glyph-name="at" unicode="@" horiz-adv-x="948" 
d="M496 -164q-97 0 -175.5 30.5t-135 88t-87 137t-30.5 179.5q0 99 31.5 180.5t90.5 140.5t140.5 90.5t180.5 31.5q116 0 204 -46.5t137 -129.5t49 -195q0 -87 -24.5 -150.5t-67.5 -98.5t-101 -35q-60 0 -92 34t-30 94l23 1q-25 -63 -70.5 -96t-98.5 -33q-78 0 -121.5 49
t-43.5 135q0 73 28 130.5t77 90.5t110 33q55 0 89.5 -27t45.5 -77h-15l11 61q7 37 44 37q19 0 28 -11t5 -32l-36 -211q-3 -15 -4 -27.5t-1 -23.5q0 -32 14 -48t42 -16q36 0 63 27.5t42.5 77.5t15.5 116q0 94 -40 162.5t-112.5 105.5t-171.5 37q-111 0 -193.5 -46.5
t-128.5 -131.5t-46 -199q0 -115 43.5 -198t123 -127t187.5 -44q70 0 127.5 18.5t99.5 52.5q16 11 29 8t20 -13.5t4.5 -24.5t-17.5 -26q-48 -39 -115.5 -60t-147.5 -21zM454 126q41 0 73.5 25.5t51 70t18.5 101.5q0 53 -23 79.5t-72 26.5q-41 0 -74 -24t-51.5 -65.5
t-18.5 -95.5q0 -57 25 -87.5t71 -30.5z" />
    <glyph glyph-name="A" unicode="A" horiz-adv-x="736" 
d="M45 -7q-18 0 -30.5 8.5t-15 23t7.5 32.5l375 620q12 18 25.5 26.5t34.5 8.5t34.5 -10t19.5 -31l174 -611q7 -23 3 -38t-15.5 -22t-27.5 -7q-22 0 -34.5 11.5t-18.5 34.5l-41 155l35 -22h-420l45 20l-99 -168q-8 -16 -21 -23.5t-31 -7.5zM429 590l-206 -352l-23 18h349
l-25 -19l-93 353h-2z" />
    <glyph glyph-name="B" unicode="B" horiz-adv-x="682" 
d="M104 0q-28 0 -41.5 16t-9.5 44l95 594q4 26 19 38.5t40 12.5h226q76 0 124 -21t71 -58.5t23 -86.5q0 -77 -48.5 -126.5t-127.5 -61.5v16q66 -12 103.5 -54t37.5 -104q0 -103 -66 -156t-186 -53h-260zM156 80h205q77 0 116 34.5t39 99.5q0 51 -34 77t-99 26h-189zM207 397
h187q73 0 114.5 34t41.5 97q0 47 -32 72t-100 25h-175z" />
    <glyph glyph-name="C" unicode="C" horiz-adv-x="676" 
d="M387 -9q-92 0 -162.5 34.5t-110.5 105t-40 178.5q0 86 25.5 159.5t73 128.5t117 86t156.5 31q60 0 114 -17t94 -49q15 -11 18.5 -25.5t-1 -28.5t-14 -23.5t-23 -11t-27.5 7.5q-39 30 -79 42.5t-86 12.5q-81 0 -139 -40.5t-88.5 -111t-30.5 -159.5q0 -81 25 -131
t72.5 -73.5t115.5 -23.5q42 0 79 11.5t75 38.5q16 10 30 8.5t23.5 -11t12.5 -23t-2 -27.5t-20 -24q-45 -33 -99 -49t-109 -16z" />
    <glyph glyph-name="D" unicode="D" horiz-adv-x="751" 
d="M104 0q-28 0 -41.5 16t-9.5 44l95 594q4 26 19 38.5t40 12.5h164q164 0 253 -78t89 -220q0 -85 -24 -158.5t-74 -129.5t-125 -87.5t-178 -31.5h-208zM161 87h153q77 0 132.5 24.5t90.5 68t51.5 102t16.5 124.5q0 104 -59 158t-175 54h-126z" />
    <glyph glyph-name="E" unicode="E" horiz-adv-x="589" 
d="M105 0q-29 0 -42.5 15.5t-9.5 44.5l95 594q4 26 19 38.5t40 12.5h362q21 0 32.5 -8.5t11.5 -24.5q0 -25 -13.5 -38t-35.5 -13h-322l-35 -221h293q21 0 32 -8.5t11 -25.5q0 -24 -13.5 -37t-35.5 -13h-300l-38 -232h314q21 0 32.5 -8.5t11.5 -25.5q0 -24 -13.5 -37
t-35.5 -13h-360z" />
    <glyph glyph-name="F" unicode="F" horiz-adv-x="554" 
d="M100 -7q-27 0 -39.5 15.5t-8.5 43.5l96 602q4 26 19 38.5t40 12.5h349q22 0 33.5 -8.5t11.5 -25.5q0 -23 -13 -36.5t-37 -13.5h-304l-37 -225h276q22 0 33.5 -8.5t11.5 -25.5q0 -23 -13 -36.5t-37 -13.5h-284l-42 -268q-8 -51 -55 -51z" />
    <glyph glyph-name="G" unicode="G" horiz-adv-x="731" 
d="M394 -9q-98 0 -170 35t-111.5 104t-39.5 169q0 92 26 167.5t75 131.5t119 86t159 30q63 0 117.5 -16t93.5 -46q16 -11 20.5 -26t0.5 -29.5t-14 -24.5t-24 -11.5t-30 9.5q-35 28 -77.5 40.5t-92.5 12.5q-83 0 -142 -41t-90.5 -113t-31.5 -166q0 -113 58 -167.5t167 -54.5
q45 0 84.5 8t75.5 21l-28 -48l38 233h-129q-20 0 -32 9t-12 25q0 21 13.5 32.5t35.5 11.5h172q24 0 35.5 -13t7.5 -37l-39 -252q-4 -19 -12.5 -30.5t-26.5 -18.5q-39 -15 -92 -23t-104 -8z" />
    <glyph glyph-name="H" unicode="H" horiz-adv-x="767" 
d="M96 -7q-26 0 -37 16t-7 45l97 607q4 25 18 38t40 13t37 -16t6 -45l-40 -250h396l41 260q4 25 18 38t40 13t37 -15.5t6 -45.5l-96 -606q-3 -25 -17 -38.5t-40 -13.5q-27 0 -38 16t-6 45l41 260h-395l-43 -269q-4 -25 -18 -38.5t-40 -13.5z" />
    <glyph glyph-name="I" unicode="I" horiz-adv-x="268" 
d="M97 -7q-27 0 -38 16t-7 45l97 607q4 25 18 38t40 13t37 -15.5t6 -45.5l-96 -606q-4 -25 -17.5 -38.5t-39.5 -13.5z" />
    <glyph glyph-name="J" unicode="J" horiz-adv-x="338" 
d="M3 -7q-23 -1 -36.5 10t-12.5 32t11 32t31 12l31 2q51 4 80 33.5t38 86.5l74 463q4 25 17.5 36.5t38.5 11.5t37 -15t8 -42l-74 -464q-9 -60 -33.5 -102t-68 -65t-110.5 -28z" />
    <glyph glyph-name="K" unicode="K" horiz-adv-x="643" 
d="M96 -7q-25 0 -37 15.5t-7 44.5l97 609q4 25 18.5 37.5t39.5 12.5t36 -15.5t7 -43.5l-42 -265h2l355 300q15 13 25.5 18.5t26.5 5.5q20 0 32 -12t11.5 -29t-16.5 -31l-361 -305l-1 51l289 -323q14 -15 12.5 -31t-13.5 -27.5t-33 -11.5q-18 0 -29.5 8t-27.5 25l-279 306h-2
l-45 -289q-4 -25 -18 -37.5t-40 -12.5z" />
    <glyph glyph-name="L" unicode="L" horiz-adv-x="552" 
d="M101 0q-27 0 -39.5 15t-8.5 42l97 608q4 24 17.5 35.5t37.5 11.5q26 0 38 -15t8 -41l-89 -567h301q23 0 35.5 -9.5t12.5 -26.5q0 -26 -14.5 -39.5t-38.5 -13.5h-357z" />
    <glyph glyph-name="M" unicode="M" horiz-adv-x="862" 
d="M96 -4q-24 0 -34.5 14t-7.5 39l98 619q4 23 16.5 33.5t34.5 10.5q20 0 31 -8.5t19 -29.5l179 -485h-28l341 493q12 16 24.5 23t32.5 7q23 0 34 -14t7 -38l-99 -619q-3 -22 -15 -33.5t-35 -11.5t-34 14t-8 39l81 512h23l-302 -436q-9 -14 -18.5 -19.5t-23.5 -5.5
q-17 0 -26.5 8t-15.5 24l-163 427h21l-82 -518q-3 -22 -15.5 -33.5t-34.5 -11.5z" />
    <glyph glyph-name="N" unicode="N" horiz-adv-x="743" 
d="M93 -7q-22 0 -33.5 15t-7.5 42l98 618q4 23 17 33.5t31 10.5q20 0 30.5 -7.5t20.5 -24.5l320 -550h-22l84 535q4 24 18 35.5t38 11.5q22 0 32 -15t6 -41l-98 -618q-3 -23 -14 -34t-30 -11q-20 0 -32 8t-23 26l-320 548h22l-84 -535q-3 -24 -15.5 -35.5t-37.5 -11.5z" />
    <glyph glyph-name="O" unicode="O" horiz-adv-x="775" 
d="M374 -9q-91 0 -158.5 35t-105 104t-37.5 166q0 90 24.5 166t71.5 133t114 88t153 31q92 0 159.5 -35t104.5 -103.5t37 -165.5q0 -91 -24.5 -167t-71.5 -133t-114 -88t-153 -31zM376 81q82 0 138 42.5t85 116.5t29 168q0 110 -51.5 163t-143.5 53q-81 0 -137 -42t-85 -116
t-29 -168q0 -111 52 -164t142 -53z" />
    <glyph glyph-name="P" unicode="P" horiz-adv-x="642" 
d="M97 -7q-25 0 -36.5 16t-8.5 44l96 601q4 26 19 38.5t40 12.5h212q112 0 172 -49t60 -144q0 -110 -69 -174t-201 -64h-191l-36 -230q-4 -26 -18 -38.5t-39 -12.5zM204 357h183q80 0 121.5 38t41.5 110q0 60 -35.5 88.5t-106.5 28.5h-162z" />
    <glyph glyph-name="Q" unicode="Q" horiz-adv-x="775" 
d="M601 -130q10 -20 6 -35t-15.5 -24t-26.5 -10.5t-29 6t-23 26.5l-46 101q-13 29 -38 43t-68 14l87 33q42 -1 69.5 -17t47.5 -59zM374 -9q-91 0 -158.5 35t-105 104t-37.5 166q0 90 24.5 166t71.5 133t114 88t153 31q92 0 159.5 -35t104.5 -103.5t37 -165.5
q0 -91 -24.5 -167t-71.5 -133t-114 -88t-153 -31zM376 81q82 0 138 42.5t85 116.5t29 168q0 110 -51.5 163t-143.5 53q-81 0 -137 -42t-85 -116t-29 -168q0 -111 52 -164t142 -53z" />
    <glyph glyph-name="R" unicode="R" horiz-adv-x="677" 
d="M95 -7q-24 0 -35.5 16t-6.5 45l95 599q4 26 19 39t41 13h210q115 0 174 -51.5t59 -140.5q0 -74 -34 -123t-93 -73t-135 -23v14h21q45 0 74 -26t47 -72l57 -150q8 -21 6 -36t-13.5 -23t-33.5 -8q-21 0 -33.5 10.5t-21.5 34.5l-68 179q-15 40 -39.5 57t-69.5 17h-122
l-38 -247q-4 -25 -19 -38t-41 -13zM206 369h186q75 0 116.5 35.5t41.5 100.5q0 59 -35 88t-110 29h-159z" />
    <glyph glyph-name="S" unicode="S" horiz-adv-x="622" 
d="M299 -9q-44 0 -87 6t-83 20.5t-74 37.5q-15 9 -20.5 23t-2.5 27.5t12 23.5t23.5 12t31.5 -8q48 -30 100.5 -42t108.5 -12q75 0 120.5 30.5t45.5 82.5q0 37 -27 63t-93 40l-106 26q-71 17 -113.5 59.5t-42.5 117.5q0 50 21 90t59 68.5t87 43t104 14.5q56 0 116.5 -15.5
t107.5 -51.5q14 -10 18.5 -24t1.5 -27.5t-12 -22t-23.5 -9.5t-34.5 11q-37 26 -83.5 38.5t-92.5 12.5q-48 0 -85.5 -15t-59 -41.5t-21.5 -63.5q0 -45 24 -67t71 -34l106 -26q92 -21 136.5 -66t44.5 -109q0 -53 -22 -93t-60.5 -66.5t-88.5 -40t-107 -13.5z" />
    <glyph glyph-name="T" unicode="T" horiz-adv-x="611" 
d="M268 -7q-25 0 -36.5 16t-7.5 44l89 565h-203q-22 0 -34.5 9.5t-12.5 26.5q0 24 14.5 37.5t37.5 13.5h519q23 0 35 -9t12 -26q0 -25 -14 -38.5t-38 -13.5h-212l-91 -574q-4 -25 -18.5 -38t-39.5 -13z" />
    <glyph glyph-name="U" unicode="U" horiz-adv-x="733" 
d="M338 -9q-67 0 -119 19t-86 58t-46.5 97.5t0.5 136.5l57 362q4 25 18.5 36.5t38.5 11.5q26 0 37.5 -14.5t7.5 -42.5l-57 -362q-17 -105 22.5 -158.5t132.5 -53.5q91 0 143.5 46t68.5 148l62 389q4 25 18.5 36.5t38.5 11.5q25 0 36.5 -14.5t7.5 -42.5l-60 -381
q-15 -93 -54 -156t-105 -95t-162 -32z" />
    <glyph glyph-name="V" unicode="V" horiz-adv-x="699" 
d="M312 -7q-23 0 -37 12t-20 35l-169 601q-5 20 -0.5 34t16.5 22t29 8q20 0 32.5 -10t19.5 -36l155 -571h-38l342 580q12 20 25 28.5t33 8.5q21 0 33 -9.5t13.5 -25t-9.5 -32.5l-363 -607q-12 -20 -26 -29t-36 -9z" />
    <glyph glyph-name="W" unicode="W" horiz-adv-x="1107" 
d="M278 -7q-21 0 -33.5 12.5t-17.5 36.5l-117 608q-6 29 7.5 45.5t40.5 16.5q20 0 32.5 -11.5t16.5 -36.5l104 -568h-38l293 577q11 20 24.5 29.5t33.5 9.5q18 0 29.5 -12t16.5 -38l104 -566h-33l291 578q9 20 21.5 29t32.5 9q30 0 40.5 -19.5t-3.5 -47.5l-313 -613
q-10 -20 -24.5 -29.5t-36.5 -9.5t-34.5 12.5t-17.5 36.5l-101 537h22l-279 -547q-10 -20 -24 -29.5t-37 -9.5z" />
    <glyph glyph-name="X" unicode="X" horiz-adv-x="660" 
d="M54 -7q-20 0 -32 11.5t-12 29t15 34.5l278 313v-42l-176 300q-11 19 -9 35.5t15 27t33 10.5q19 0 29.5 -8.5t23.5 -29.5l148 -261h-24l230 268q15 17 28 24t30 7q20 0 32.5 -11t13 -28t-14.5 -35l-268 -302v47l186 -316q12 -18 9 -35.5t-15.5 -28t-33.5 -10.5
q-19 0 -29.5 8.5t-23.5 29.5l-160 277h31l-246 -284q-15 -17 -27.5 -24t-30.5 -7z" />
    <glyph glyph-name="Y" unicode="Y" horiz-adv-x="606" 
d="M263 -7q-25 0 -35.5 16t-6.5 44l49 311l11 -66l-189 340q-11 20 -9.5 36.5t14 27t33.5 10.5q19 0 30.5 -8.5t23.5 -29.5l150 -271h-24l243 278q15 18 27.5 24.5t30.5 6.5q19 0 31 -11t12 -28t-15 -35l-299 -340l33 66l-51 -320q-8 -51 -59 -51z" />
    <glyph glyph-name="Z" unicode="Z" horiz-adv-x="596" 
d="M59 0q-17 0 -28 8.5t-14.5 22.5t2 32t22.5 37l480 553l2 -35h-371q-22 0 -34 9.5t-12 26.5q0 25 14.5 38t37.5 13h421q21 0 33 -8.5t15.5 -22.5t-2.5 -31.5t-23 -35.5l-481 -555l-2 35h386q22 0 34 -8.5t12 -26.5q0 -25 -14 -38.5t-38 -13.5h-440z" />
    <glyph glyph-name="bracketleft" unicode="[" horiz-adv-x="333" 
d="M102 -180q-25 0 -40 17.5t-11 43.5l124 784q3 17 15.5 28.5t30.5 11.5h129q24 0 36 -9.5t12 -26.5q0 -23 -12.5 -32.5t-34.5 -9.5h-82l-115 -729h80q21 0 28.5 -9t7.5 -23q0 -20 -12 -33t-34 -13h-122z" />
    <glyph glyph-name="backslash" unicode="\" horiz-adv-x="297" 
d="M185 -29l-121 735q-2 15 4 26t17 16.5t23.5 4.5t22 -9.5t12.5 -25.5l121 -736q3 -15 -3.5 -26.5t-17.5 -16.5t-23.5 -3.5t-22 10t-12.5 25.5z" />
    <glyph glyph-name="bracketright" unicode="]" horiz-adv-x="333" 
d="M-11 -180q-24 0 -36 9.5t-12 26.5q0 23 12.5 32.5t34.5 9.5h82l115 729h-80q-21 0 -28.5 9.5t-7.5 22.5q0 21 12 33.5t34 12.5h122q25 0 40 -17.5t11 -43.5l-124 -784q-2 -17 -15 -28.5t-31 -11.5h-129z" />
    <glyph glyph-name="asciicircum" unicode="^" horiz-adv-x="600" 
d="M84 133q-24 0 -31 15.5t5 36.5l249 417q11 19 23.5 26t31.5 7q36 0 47 -41l116 -410q7 -24 -3 -37.5t-31 -13.5q-20 0 -27 10.5t-12 24.5l-118 425h50l-256 -432q-7 -12 -16.5 -20t-27.5 -8z" />
    <glyph glyph-name="underscore" unicode="_" horiz-adv-x="500" 
d="M5 -63q-18 0 -27 7t-9 20q0 19 11.5 27.5t27.5 8.5h400q19 0 27.5 -7.5t8.5 -19.5q0 -18 -11.5 -27t-27.5 -9h-400z" />
    <glyph glyph-name="grave" unicode="`" horiz-adv-x="396" 
d="M287 561l-100 143q-12 16 -10 30t11.5 22.5t23 11t27 -4.5t23.5 -25l80 -147q8 -15 4 -26.5t-14 -17t-23 -3t-22 16.5z" />
    <glyph glyph-name="a" unicode="a" horiz-adv-x="537" 
d="M196 -9q-43 0 -80 19.5t-59 53t-22 75.5q0 52 28.5 84t89.5 47.5t157 15.5h80l-9 -62h-62q-69 0 -109.5 -7t-57.5 -24.5t-17 -47.5q0 -40 26.5 -61t63.5 -21q34 0 63 15t49.5 43.5t26.5 68.5l19 120q9 53 -14.5 81t-83.5 28q-35 0 -67.5 -7t-65.5 -24q-15 -8 -28 -5.5
t-21 11t-9 20.5t6.5 24t25.5 21q40 20 85 29t86 9q73 0 115.5 -27t58 -75t5.5 -111l-38 -241q-3 -25 -17.5 -37.5t-37.5 -12.5q-22 0 -33 14.5t-7 41.5l11 73l8 -15q-13 -39 -39.5 -65.5t-59 -38.5t-67.5 -12z" />
    <glyph glyph-name="b" unicode="b" horiz-adv-x="591" 
d="M306 -9q-58 0 -102.5 28t-61.5 85l8 18l-12 -79q-3 -24 -16.5 -37t-38.5 -13q-24 0 -35.5 15.5t-7.5 43.5l97 610q4 25 18.5 37.5t39.5 12.5q24 0 35 -15t7 -44l-42 -264h-11q27 51 73 79.5t107 28.5q56 0 98 -25.5t65 -72.5t23 -112q0 -81 -28.5 -148.5t-83.5 -107.5
t-132 -40zM290 69q51 0 86 29t53.5 77.5t18.5 107.5q0 66 -32 100.5t-88 34.5q-50 0 -85.5 -28.5t-54.5 -77t-19 -108.5q0 -65 32 -100t89 -35z" />
    <glyph glyph-name="c" unicode="c" horiz-adv-x="467" 
d="M264 -9q-75 0 -124.5 27.5t-74 77t-24.5 114.5q0 54 16 105.5t48.5 92t83.5 65t120 24.5q37 0 72.5 -9.5t61.5 -25.5q17 -10 23.5 -22.5t4.5 -25t-9.5 -21.5t-19.5 -11.5t-26 5.5q-24 16 -48.5 23t-53.5 7q-46 0 -78 -17.5t-52.5 -48t-29.5 -66.5t-9 -74q0 -64 30.5 -102
t101.5 -38q22 0 46 6t49 22q12 6 23 4t19 -10.5t10 -19.5t-2.5 -23t-19.5 -21q-26 -18 -65 -28t-73 -10z" />
    <glyph glyph-name="d" unicode="d" horiz-adv-x="591" 
d="M226 -9q-56 0 -97.5 25.5t-65 72.5t-23.5 111q0 82 29 149.5t84 107.5t132 40q58 0 102.5 -28.5t61.5 -85.5l-7 1l44 280q4 26 18.5 37t39.5 11q23 0 34 -14.5t7 -42.5l-97 -611q-4 -25 -18.5 -38t-39.5 -13q-23 0 -33.5 16t-5.5 44l11 66l4 -21q-27 -49 -73 -78
t-107 -29zM263 69q51 0 86 29t53.5 77.5t18.5 107.5q0 66 -32 100.5t-88 34.5q-51 0 -86 -28.5t-54 -77t-19 -108.5q0 -65 32 -100t89 -35z" />
    <glyph glyph-name="e" unicode="e" horiz-adv-x="537" 
d="M275 -9q-72 0 -124.5 26.5t-81 75.5t-28.5 116q0 80 33 145t92.5 104t138.5 39q59 0 99 -20.5t63 -55.5t30.5 -79t2.5 -90q-2 -19 -10 -25t-23 -6h-346l8 62h307l-18 -14q7 44 -2.5 79t-36.5 56.5t-75 21.5q-49 0 -82.5 -22.5t-52 -57.5t-25.5 -74l-4 -27
q-14 -80 24.5 -128t117.5 -48q33 0 66 8t61 26q16 9 28.5 8.5t20 -8.5t9.5 -19.5t-3.5 -24t-19.5 -21.5q-34 -24 -81 -35.5t-88 -11.5z" />
    <glyph glyph-name="f" unicode="f" horiz-adv-x="347" 
d="M111 -7q-23 0 -34 15.5t-7 43.5l57 358h-51q-20 0 -30 8.5t-10 22.5q0 22 13 34.5t34 12.5h68l-14 -13l7 44q13 83 65.5 131.5t148.5 55.5l31 2q17 1 26.5 -6t12.5 -18.5t0 -23t-11 -20t-20 -9.5l-29 -2q-55 -4 -85 -31t-38 -79l-7 -41l-8 10h103q20 0 30 -8t10 -23
q0 -22 -13 -34.5t-35 -12.5h-97l-58 -367q-9 -50 -59 -50z" />
    <glyph glyph-name="g" unicode="g" horiz-adv-x="594" 
d="M252 -189q-59 0 -111 14.5t-92 39.5q-14 8 -18.5 20t-1.5 24t11.5 20.5t21 10.5t27.5 -7q33 -20 70 -32t79 -12q63 0 101.5 30t49.5 95l17 105l8 -1q-24 -50 -71 -78t-107 -28q-59 0 -102.5 24t-68 69t-24.5 107q0 56 17 107.5t49 91.5t77.5 63t103.5 23q59 0 104 -28.5
t62 -85.5l-11 -20l13 83q4 25 18.5 37t38.5 12t34 -15.5t6 -43.5l-66 -417q-16 -103 -74.5 -155.5t-160.5 -52.5zM265 91q52 0 88 28t54.5 74.5t18.5 99.5q0 59 -32 92t-91 33q-51 0 -87 -28t-54.5 -74t-18.5 -99q0 -60 32 -93t90 -33z" />
    <glyph glyph-name="h" unicode="h" horiz-adv-x="576" 
d="M82 -7q-24 0 -34.5 16t-6.5 44l96 609q4 25 18.5 37.5t39.5 12.5q23 0 34.5 -15t7.5 -43l-43 -272h-11q25 56 72.5 85.5t112.5 29.5q54 0 90.5 -22t52 -67t4.5 -114l-39 -251q-3 -24 -18 -37t-40 -13q-24 0 -35 15.5t-7 43.5l38 240q10 63 -10 93.5t-72 30.5
q-67 0 -106.5 -41t-50.5 -112l-35 -220q-7 -50 -58 -50z" />
    <glyph glyph-name="i" unicode="i" horiz-adv-x="243" 
d="M81 -7q-23 0 -34 15.5t-7 43.5l63 393q4 25 18.5 37.5t39.5 12.5q23 0 34 -15.5t7 -43.5l-63 -393q-4 -25 -18 -37.5t-40 -12.5zM178 597q-28 0 -42 14t-12 39q3 30 22 45.5t50 15.5q29 0 43 -14t12 -39q-3 -30 -21.5 -45.5t-51.5 -15.5z" />
    <glyph glyph-name="j" unicode="j" horiz-adv-x="246" 
d="M-74 -191q-17 -1 -27 6.5t-13.5 19t-0.5 23.5t12 19.5t24 8.5q47 2 76 26t37 77l72 456q4 25 18.5 37.5t39.5 12.5q23 0 34.5 -15.5t7.5 -43.5l-70 -439q-10 -63 -35 -103.5t-67.5 -61t-107.5 -23.5zM180 597q-28 0 -42.5 14t-11.5 39q2 30 21 45.5t51 15.5
q28 0 42.5 -14t11.5 -39q-3 -30 -21.5 -45.5t-50.5 -15.5z" />
    <glyph glyph-name="k" unicode="k" horiz-adv-x="516" 
d="M82 -7q-24 0 -34.5 15t-6.5 43l97 613q4 25 18.5 36.5t39.5 11.5q23 0 34 -15.5t7 -43.5l-60 -378h2l219 191q16 15 29 22t30 7q20 0 29.5 -11.5t7.5 -28.5t-18 -31l-224 -198l2 49l184 -210q14 -17 13 -33.5t-12.5 -27.5t-30.5 -11q-21 0 -33.5 9t-28.5 29l-175 196h-2
l-29 -186q-7 -48 -58 -48z" />
    <glyph glyph-name="l" unicode="l" horiz-adv-x="306" 
d="M191 -9q-77 0 -111.5 44.5t-21.5 130.5l80 496q4 25 18.5 37.5t39.5 12.5q23 0 34 -15t7 -44l-78 -486q-8 -49 8 -71t53 -22q12 0 19.5 2t13.5 2q8 0 13 -6t5 -23q0 -23 -10 -36t-26 -17q-8 -3 -21 -4t-23 -1z" />
    <glyph glyph-name="m" unicode="m" horiz-adv-x="866" 
d="M83 -7q-23 0 -34 15t-7 42l63 396q4 25 18.5 37t37.5 12t34 -15t7 -42l-12 -76l-8 18q28 59 73.5 88t99.5 29q57 0 93.5 -30.5t46.5 -89.5l-13 4q25 56 71.5 86t109.5 30q51 0 86.5 -22t49.5 -67t3 -115l-40 -252q-3 -23 -17 -35.5t-39 -12.5t-36 15t-7 42l38 246
q9 60 -9 90t-65 30q-55 0 -91.5 -40.5t-48.5 -112.5l-34 -222q-4 -23 -19 -35.5t-39 -12.5t-35.5 15t-7.5 42l40 246q9 60 -9.5 90t-64.5 30q-56 0 -92.5 -40.5t-48.5 -112.5l-35 -222q-7 -48 -59 -48z" />
    <glyph glyph-name="n" unicode="n" horiz-adv-x="576" 
d="M82 -7q-23 0 -34 16t-7 44l62 392q4 25 19 37.5t39 12.5q22 0 33 -14t6 -42l-11 -74l-6 17q25 56 72.5 85.5t112.5 29.5q54 0 90.5 -22t52 -67t4.5 -114l-39 -251q-3 -25 -18 -37.5t-40 -12.5q-24 0 -35 16t-7 43l38 240q10 63 -10 93.5t-72 30.5q-67 0 -106.5 -41
t-50.5 -112l-35 -220q-7 -50 -58 -50z" />
    <glyph glyph-name="o" unicode="o" horiz-adv-x="565" 
d="M261 -9q-69 0 -118 26t-75.5 75t-26.5 116q0 64 19.5 116.5t55 91.5t83.5 60t105 21q69 0 118 -26.5t75.5 -75t26.5 -115.5q0 -64 -19.5 -117t-55 -91.5t-83.5 -59.5t-105 -21zM263 69q52 0 87 29t53.5 77.5t18.5 107.5q0 66 -32 100.5t-88 34.5q-51 0 -86.5 -28.5
t-54 -77t-18.5 -108.5q0 -65 32 -100t88 -35z" />
    <glyph glyph-name="p" unicode="p" horiz-adv-x="591" 
d="M54 -187q-24 0 -35 15t-7 43l91 572q4 26 18.5 39t39.5 13q23 0 33.5 -15.5t5.5 -43.5l-10 -67l-5 21q27 51 73 79t106 28q56 0 98 -25.5t65 -72.5t23 -112q0 -81 -28.5 -148.5t-83.5 -107.5t-132 -40q-58 0 -102.5 28t-61.5 85h8l-39 -243q-4 -25 -17.5 -36.5
t-39.5 -11.5zM290 69q51 0 86 29t53.5 77.5t18.5 107.5q0 66 -32 100.5t-88 34.5q-50 0 -85.5 -28.5t-54.5 -77t-19 -108.5q0 -65 32 -100t89 -35z" />
    <glyph glyph-name="q" unicode="q" horiz-adv-x="591" 
d="M401 -187q-23 0 -34 15t-7 43l36 227h10q-27 -49 -73 -78t-106 -29q-57 0 -98.5 25.5t-65 72.5t-23.5 111q0 82 29 149.5t84.5 107.5t133.5 40q56 0 100.5 -28.5t61.5 -85.5l-8 -17l13 80q4 25 17 37t38 12q23 0 34.5 -15.5t7.5 -43.5l-91 -572q-4 -25 -19 -38t-40 -13z
M263 69q51 0 86 29t53.5 77.5t18.5 107.5q0 66 -32 100.5t-88 34.5q-51 0 -86 -28.5t-54 -77t-19 -108.5q0 -65 32 -100t89 -35z" />
    <glyph glyph-name="r" unicode="r" horiz-adv-x="373" 
d="M82 -7q-24 0 -35 15t-7 42l63 396q4 25 18.5 37t38.5 12q23 0 34 -14.5t7 -42.5l-11 -67h-10q20 59 68 91.5t110 35.5q25 1 33.5 -7t8.5 -28q0 -26 -12 -38t-39 -15l-24 -3q-74 -7 -106 -44t-43 -101l-35 -221q-3 -24 -18 -36t-41 -12z" />
    <glyph glyph-name="s" unicode="s" horiz-adv-x="484" 
d="M224 -9q-47 0 -91 10.5t-76 27.5q-16 8 -22 20.5t-4.5 24.5t9 20.5t20 10.5t27.5 -6q32 -18 67 -26.5t71 -8.5q51 0 79 20t28 54q0 23 -15.5 38t-45.5 21l-93 21q-52 11 -81.5 43t-29.5 80q0 44 24.5 79t72 56t112.5 21q38 0 79 -11t70 -30q14 -9 19.5 -21.5t3 -24
t-10 -19t-20 -8.5t-27.5 8q-25 16 -56 24t-63 8q-52 0 -81.5 -21t-29.5 -56q0 -21 13 -36.5t42 -21.5l93 -21q56 -13 86.5 -43.5t30.5 -78.5q0 -73 -55 -113.5t-146 -40.5z" />
    <glyph glyph-name="t" unicode="t" horiz-adv-x="365" 
d="M247 -9q-60 0 -99.5 23t-55 64t-6.5 96l38 236h-54q-20 0 -31.5 9t-11.5 24q0 22 14.5 33.5t37.5 11.5h57l17 107q4 24 18 35.5t37 11.5q26 0 37 -14.5t7 -41.5l-15 -98h110q21 0 32 -8t11 -25q0 -19 -12.5 -32t-35.5 -13h-117l-37 -228q-9 -57 13 -82t65 -25
q19 0 30.5 3.5t20.5 3.5q12 0 17.5 -6.5t5.5 -22.5q0 -27 -8.5 -38t-24.5 -16q-11 -4 -28.5 -6t-31.5 -2z" />
    <glyph glyph-name="u" unicode="u" horiz-adv-x="569" 
d="M206 -9q-52 0 -88.5 21.5t-52 67t-4.5 115.5l40 253q4 24 18 35.5t38 11.5t36 -14.5t8 -41.5l-39 -244q-9 -62 10.5 -92.5t69.5 -30.5q64 0 103 41.5t50 111.5l35 223q4 24 17.5 35.5t37.5 11.5q25 0 36.5 -14.5t7.5 -41.5l-63 -398q-7 -48 -55 -48q-23 0 -34.5 13
t-7.5 40l12 80l8 -19q-25 -56 -72.5 -86t-110.5 -30z" />
    <glyph glyph-name="v" unicode="v" horiz-adv-x="520" 
d="M224 -7q-24 0 -38.5 12.5t-21.5 36.5l-104 382q-6 21 -2 37t16.5 25t31.5 9q21 0 32.5 -10t17.5 -36l90 -366h-29l216 377q11 19 23.5 27t31.5 8q20 0 31 -9t12 -23.5t-10 -32.5l-235 -398q-13 -21 -27.5 -30t-34.5 -9z" />
    <glyph glyph-name="w" unicode="w" horiz-adv-x="846" 
d="M210 -7q-21 0 -35.5 11.5t-20.5 36.5l-84 382q-5 22 -0.5 38t16.5 25t30 9q20 0 30 -10.5t15 -34.5l72 -365h-25l198 378q9 17 21 24.5t30 7.5t30 -9.5t16 -30.5l74 -370h-21l193 373q11 20 23 28.5t32 8.5t30.5 -9t11.5 -23t-8 -31l-215 -400q-11 -20 -26.5 -29.5
t-35.5 -9.5q-21 0 -36 12t-21 36l-77 367h44l-198 -375q-11 -20 -26.5 -30t-36.5 -10z" />
    <glyph glyph-name="x" unicode="x" horiz-adv-x="534" 
d="M54 -7q-20 0 -31.5 10.5t-11 26t14.5 30.5l203 212l-2 -45l-128 197q-12 20 -9.5 36t14 25.5t28.5 9.5t30.5 -8t23.5 -24l104 -165h-27l155 170q13 14 24 20.5t29 6.5q22 0 33 -10.5t10.5 -26t-14.5 -29.5l-188 -200l-1 45l138 -210q13 -19 10.5 -35.5t-15 -26
t-29.5 -9.5q-16 0 -29.5 8t-23.5 24l-114 177l32 -1l-172 -181q-14 -14 -25 -20.5t-29 -6.5z" />
    <glyph glyph-name="y" unicode="y" horiz-adv-x="520" 
d="M121 -187q-19 0 -29.5 9t-11 24t8.5 31l95 157l-7 -43l-118 434q-5 20 -1.5 36t16.5 25t31 9q22 0 32.5 -10t16.5 -36l91 -367h-30l217 376q11 20 23 28.5t32 8.5q19 0 30.5 -9.5t12.5 -24t-9 -32.5l-345 -580q-11 -19 -23 -27.5t-32 -8.5z" />
    <glyph glyph-name="z" unicode="z" horiz-adv-x="468" 
d="M61 0q-16 0 -27 7t-15 18t-0.5 24.5t15.5 26.5l327 359l3 -24h-246q-19 0 -30 8.5t-11 23.5q0 21 12.5 33t33.5 12h297q17 0 28 -7t14.5 -18.5t-0.5 -25.5t-18 -29l-326 -358l-4 27h260q41 0 41 -32q0 -20 -12 -32.5t-34 -12.5h-308z" />
    <glyph glyph-name="braceleft" unicode="{" horiz-adv-x="370" 
d="M211 -180q-44 0 -71.5 14t-38 38.5t-6.5 58.5l34 212q8 46 -6.5 61t-50.5 18q-14 1 -21.5 10.5t-7.5 22.5q0 20 10 33.5t26 14.5q42 1 61.5 18t26.5 61l33 212q10 56 40.5 83.5t80.5 27.5h69q23 0 33 -10t10 -28t-12 -29t-31 -11h-42q-20 0 -32.5 -10.5t-16.5 -33.5
l-33 -212q-5 -36 -23 -60.5t-41 -37t-44 -12.5l-1 4q21 0 40 -13t29.5 -37t4.5 -61l-33 -213q-4 -23 5 -33t30 -10h36q15 0 25 -10t10 -25q0 -22 -10 -32.5t-32 -10.5h-51z" />
    <glyph glyph-name="bar" unicode="|" horiz-adv-x="275" 
d="M70 -187q-24 0 -34.5 15.5t-7.5 43.5l126 790q4 26 18.5 38t39.5 12q23 0 34 -15t7 -44l-125 -790q-8 -50 -58 -50z" />
    <glyph glyph-name="braceright" unicode="}" horiz-adv-x="370" 
d="M-14 -180q-23 0 -33 10t-10 28q0 19 12.5 29.5t30.5 10.5h42q20 0 32.5 10.5t16.5 33.5l33 212q6 37 23.5 61t41 36.5t43.5 12.5l1 -4q-20 0 -39.5 13t-29.5 37.5t-5 60.5l32 213q4 23 -4.5 33t-29.5 10h-36q-15 0 -25 10t-10 25q0 22 10 32.5t31 10.5h52q45 0 72 -13.5
t38 -38.5t6 -59l-34 -212q-7 -46 7 -60.5t50 -18.5q14 -1 21.5 -10t7.5 -23q0 -20 -10 -33.5t-27 -14.5q-40 0 -59.5 -17.5t-27.5 -61.5l-34 -212q-9 -55 -39.5 -83t-80.5 -28h-69z" />
    <glyph glyph-name="asciitilde" unicode="~" horiz-adv-x="600" 
d="M418 213q-33 0 -64.5 13.5t-59.5 28.5q-26 15 -49 25t-44 10q-26 0 -44 -12t-31 -31q-10 -13 -23 -14.5t-24 5.5t-14 19t6 28q25 38 55 57t69 19q34 0 66.5 -13.5t60.5 -28.5q27 -14 48.5 -24.5t41.5 -10.5q27 0 45 13t31 31q10 13 23 14t23.5 -5.5t14 -19t-6.5 -27.5
q-24 -38 -54.5 -57.5t-69.5 -19.5z" />
    <glyph glyph-name="uni00A0" unicode="&#xa0;" horiz-adv-x="264" 
 />
    <glyph glyph-name="exclamdown" unicode="&#xa1;" horiz-adv-x="237" 
d="M56 -187q-30 0 -45 18.5t-8 50.5l86 386q4 15 13 23t23 8q16 0 23.5 -9.5t5.5 -29.5l-36 -386q-2 -30 -18 -45.5t-44 -15.5zM150 365q-29 0 -47 18t-18 45q0 29 18 46.5t47 17.5t46 -17.5t17 -46.5q0 -27 -17 -45t-46 -18z" />
    <glyph glyph-name="cent" unicode="&#xa2;" horiz-adv-x="600" 
d="M257 -122q-18 0 -29 10.5t-8 33.5l16 98l13 -18q-55 10 -91 39t-53.5 72.5t-17.5 96.5q0 50 14 98t43 87.5t75 65t110 30.5l-24 -29l18 117q3 17 15 26.5t30 9.5q17 0 29 -10.5t8 -34.5l-17 -103l-13 26q36 -1 71 -12t58 -28q14 -8 18.5 -20.5t1.5 -23.5t-11 -19
t-21 -9.5t-27 6.5q-23 13 -47.5 19.5t-53.5 6.5q-48 0 -81 -17.5t-53.5 -47t-30 -65.5t-9.5 -72q0 -59 31.5 -97t105.5 -38q22 0 47 6t49 21q14 8 25 5.5t18 -11.5t9 -21.5t-4 -24t-19 -19.5q-37 -22 -79.5 -30.5t-75.5 -5.5l21 20l-16 -102q-3 -18 -14.5 -27t-30.5 -9z" />
    <glyph glyph-name="sterling" unicode="&#xa3;" horiz-adv-x="600" 
d="M57 0q-25 0 -37.5 11t-12.5 28q0 23 15.5 35t39.5 12h79l-33 -25l45 279l19 -23h-78q-21 0 -30 9t-9 23q0 17 13 29t32 12h73l-18 -32l24 146q12 70 41.5 116.5t80 70t123.5 23.5q50 0 98.5 -15.5t81.5 -43.5q14 -11 17.5 -25t-1 -26t-14.5 -20t-23 -8.5t-26 9.5
q-30 25 -62 34.5t-68 9.5q-62 0 -98.5 -31t-46.5 -90l-22 -141l-10 23h149q21 0 30.5 -9.5t9.5 -22.5q0 -18 -13 -29.5t-32 -11.5h-142l-37 -231h268q26 0 37.5 -10.5t11.5 -27.5q0 -20 -15 -34t-39 -14h-421z" />
    <glyph glyph-name="currency" unicode="&#xa4;" horiz-adv-x="600" 
d="M51 -11q-11 10 -11 23.5t11 23.5l57 59q-23 31 -36 69.5t-13 80.5q0 43 13 81.5t36 69.5l-57 59q-10 10 -10 23t10 23q9 11 22.5 10.5t24.5 -11.5l57 -58q30 25 67.5 38t78.5 13q40 0 77 -12.5t67 -36.5l55 56q10 11 25 11.5t24 -9.5q11 -11 11 -25t-11 -25l-56 -57
q24 -31 36 -69.5t12 -80.5t-12.5 -80.5t-36.5 -70.5l57 -58q10 -10 10 -23.5t-10 -23.5q-9 -10 -23 -10t-24 11l-56 58q-30 -24 -67 -37.5t-78 -13.5t-78.5 13.5t-68.5 36.5l-57 -57q-10 -11 -23 -11.5t-23 10.5zM300 81q43 0 78 22.5t55.5 59.5t20.5 82q0 46 -20.5 83
t-55.5 59.5t-78 21.5q-42 0 -77.5 -22t-56 -59t-20.5 -83q0 -45 20.5 -82t55.5 -59.5t78 -22.5z" />
    <glyph glyph-name="yen" unicode="&#xa5;" horiz-adv-x="600" 
d="M260 -7q-25 0 -36 15.5t-7 43.5l19 116h-137q-21 0 -32.5 9.5t-11.5 24.5q0 17 13 28t29 11h151l13 81h-138q-21 0 -32 9.5t-11 24.5q0 18 12.5 28.5t28.5 10.5h124l-1 -18l-146 264q-10 19 -7.5 35t15 26t33.5 10q18 0 27.5 -7.5t19.5 -28.5l146 -272h-24l237 279
q14 16 24.5 22.5t26.5 6.5q20 0 32 -10.5t13.5 -27t-12.5 -32.5l-229 -265l2 18h111q21 0 32 -9t11 -26q0 -16 -12.5 -27t-28.5 -11h-151l-13 -81h137q22 0 32.5 -9.5t10.5 -25.5t-12 -27t-29 -11h-151l-19 -125q-8 -50 -60 -50z" />
    <glyph glyph-name="brokenbar" unicode="&#xa6;" horiz-adv-x="275" 
d="M157 365q-24 0 -34.5 15.5t-6.5 43.5l38 238q4 26 18.5 38t39.5 12q23 0 34.5 -15t7.5 -44l-38 -238q-9 -50 -59 -50zM70 -187q-24 0 -34.5 15.5t-6.5 43.5l38 238q4 26 18.5 38.5t39.5 12.5q23 0 34.5 -15.5t7.5 -43.5l-38 -239q-8 -50 -59 -50z" />
    <glyph glyph-name="section" unicode="&#xa7;" horiz-adv-x="556" 
d="M212 -189q-55 0 -102.5 12t-84.5 35q-15 9 -20 21t-2.5 23.5t11 20t21 10t26.5 -8.5q31 -20 68.5 -30t79.5 -10q40 0 69.5 14.5t45.5 39t16 56.5q0 36 -16 57t-53 43l-107 61q-37 22 -62 46.5t-37.5 52.5t-12.5 58q0 47 23.5 86t67.5 67l-3 -12q-7 15 -11.5 32t-4.5 38
q0 59 31.5 101.5t83 66t112.5 23.5q48 0 90.5 -10.5t82.5 -36.5q15 -9 20.5 -21t2.5 -23.5t-12 -19t-22 -8.5t-28 8q-27 18 -62 28t-70 10q-40 0 -69.5 -14.5t-45.5 -39t-16 -57.5q0 -35 16 -57t54 -44l104 -60q38 -22 63.5 -46.5t38 -52t12.5 -58.5q0 -46 -23.5 -85.5
t-68.5 -68.5l3 17q8 -15 12.5 -33t4.5 -39q0 -59 -31 -102.5t-82 -66.5t-113 -23zM143 329q0 -31 20.5 -56t59.5 -49l95 -54q26 -15 43.5 -30t28.5 -32l-12 1q21 20 31.5 43.5t10.5 43.5q0 31 -21 56t-62 49l-92 52q-25 14 -42.5 29.5t-29.5 32.5l13 4q-22 -21 -32.5 -45
t-10.5 -45z" />
    <glyph glyph-name="dieresis" unicode="&#xa8;" horiz-adv-x="488" 
d="M392 600q-22 0 -34 11t-12 31q0 30 16.5 47t45.5 17q22 0 34 -10.5t12 -30.5q0 -30 -16 -47.5t-46 -17.5zM211 600q-23 0 -35 11t-12 31q0 30 16.5 47t45.5 17q23 0 35 -10.5t12 -30.5q0 -30 -16 -47.5t-46 -17.5z" />
    <glyph glyph-name="copyright" unicode="&#xa9;" horiz-adv-x="815" 
d="M425 -9q-77 0 -143 27.5t-115 76.5t-76.5 115t-27.5 143t27.5 143t76.5 114.5t115 76t143 27.5t143 -27.5t114.5 -76t76 -114.5t27.5 -143t-27.5 -143t-76 -115t-114.5 -76.5t-143 -27.5zM425 39q67 0 123.5 23.5t98.5 66.5t65.5 100t23.5 124t-23.5 124t-65.5 99.5
t-98.5 66t-123.5 23.5t-124 -23.5t-99 -66t-65.5 -99.5t-23.5 -124t23.5 -124t65.5 -100t99 -66.5t124 -23.5zM440 137q-98 0 -155 59.5t-57 158.5t57 156t155 57q32 0 65 -9t60 -28q11 -7 15 -17t1.5 -20t-9 -17.5t-17.5 -9.5t-24 6q-22 14 -42.5 19.5t-41.5 5.5
q-62 0 -96.5 -38t-34.5 -106q0 -67 34.5 -106.5t96.5 -39.5q21 0 42 5.5t45 20.5q15 10 27 5.5t18 -17t3 -25.5t-16 -22q-26 -18 -59.5 -28t-66.5 -10z" />
    <glyph glyph-name="ordfeminine" unicode="&#xaa;" horiz-adv-x="332" 
d="M167 409q-43 0 -72 27t-29 64q0 46 43 67t130 21h62l-7 -40h-50q-59 0 -84.5 -10.5t-25.5 -33.5q0 -21 14.5 -33.5t37.5 -12.5q21 0 40.5 9.5t33 26.5t17.5 38l11 69q5 31 -12.5 46t-51.5 15q-19 0 -39 -4t-39 -13q-13 -5 -23 -1t-13.5 13.5t1.5 20t19 15.5
q21 10 46.5 15.5t53.5 5.5q45 0 74 -16.5t41.5 -45.5t6.5 -68l-23 -144q-5 -30 -35 -30q-16 0 -23.5 9.5t-5.5 23.5l5 27h-3q-17 -29 -42 -45t-58 -16z" />
    <glyph glyph-name="guillemotleft" unicode="&#xab;" horiz-adv-x="465" 
d="M171 89q-19 -7 -34.5 -0.5t-23.5 24.5l-51 119q-6 15 -5 33t15 34l103 133q10 13 24 16t28 -4q16 -8 18 -25t-14 -40l-82 -117l40 -121q6 -19 1.5 -32t-19.5 -20zM364 89q-19 -7 -34.5 -0.5t-23.5 24.5l-51 119q-6 15 -5 33t15 34l103 133q10 13 24 16t28 -4
q16 -8 18 -25t-14 -40l-82 -117l40 -121q6 -19 1.5 -32t-19.5 -20z" />
    <glyph glyph-name="logicalnot" unicode="&#xac;" horiz-adv-x="600" 
d="M490 137q-19 0 -27.5 12t-5.5 34l28 169h-374q-19 0 -29 7.5t-10 22.5q0 20 11.5 31.5t31.5 11.5h397q27 0 41 -16t10 -45l-30 -190q-5 -37 -43 -37z" />
    <glyph glyph-name="uni00AD" unicode="&#xad;" horiz-adv-x="429" 
d="M111 226q-22 0 -33 8.5t-11 24.5q0 21 11.5 34.5t33.5 13.5h215q22 0 33 -8t11 -25q0 -20 -12 -34t-34 -14h-214z" />
    <glyph glyph-name="registered" unicode="&#xae;" horiz-adv-x="815" 
d="M425 -9q-77 0 -143 27.5t-115 76.5t-76.5 115t-27.5 143t27.5 143t76.5 114.5t115 76t143 27.5t143 -27.5t114.5 -76t76 -114.5t27.5 -143t-27.5 -143t-76 -115t-114.5 -76.5t-143 -27.5zM425 39q67 0 123.5 23.5t98.5 66.5t65.5 100t23.5 124t-23.5 124t-65.5 99.5
t-98.5 66t-123.5 23.5t-124 -23.5t-99 -66t-65.5 -99.5t-23.5 -124t23.5 -124t65.5 -100t99 -66.5t124 -23.5zM316 136q-40 0 -40 42v339q0 22 12 34.5t36 12.5h129q69 0 106 -33.5t37 -89.5q0 -58 -37 -88.5t-103 -30.5l16 11q32 0 51.5 -14t33.5 -53l29 -80
q8 -24 -4.5 -37t-33.5 -13q-15 0 -24 9t-14 23l-35 101q-8 24 -25 32t-41 8h-68l15 11v-142q0 -42 -40 -42zM355 371h87q39 0 58 16t19 50t-19 50t-58 16h-87v-132z" />
    <glyph glyph-name="macron" unicode="&#xaf;" horiz-adv-x="520" 
d="M199 621q-34 0 -34 27q0 17 10.5 27t27.5 10h248q34 0 34 -27q0 -17 -10 -27t-28 -10h-248z" />
    <glyph glyph-name="degree" unicode="&#xb0;" horiz-adv-x="375" 
d="M238 409q-44 0 -78.5 19.5t-54.5 54t-20 76.5q0 43 20 77.5t55 54t78 19.5t77 -19.5t54.5 -53.5t20.5 -78q0 -42 -20 -76.5t-54.5 -54t-77.5 -19.5zM238 471q37 0 61 25t24 63q0 39 -24 64t-61 25t-61 -25t-24 -64q0 -38 24 -63t61 -25z" />
    <glyph glyph-name="plusminus" unicode="&#xb1;" horiz-adv-x="600" 
d="M284 125q-19 0 -28 12t-6 33l20 124h-168q-18 0 -28.5 8t-10.5 23q0 20 11.5 31.5t32.5 11.5h176l19 131q3 19 13.5 29t29.5 10t27.5 -12.5t5.5 -33.5l-19 -124h167q20 0 30 -8t10 -22q0 -20 -11.5 -32t-32.5 -12h-176l-20 -130q-3 -19 -13 -29t-29 -10zM55 0
q-19 0 -29 8t-10 22q0 20 11.5 32t32.5 12h419q20 0 30 -8t10 -22q0 -21 -11.5 -32.5t-32.5 -11.5h-420z" />
    <glyph glyph-name="uni00B2" unicode="&#xb2;" horiz-adv-x="380" 
d="M98 282q-19 0 -29 9t-10 24q0 13 6 22t16 19l144 128q30 28 48 54t19 53q1 23 -15 35.5t-45 12.5q-22 0 -42 -6t-41 -17q-14 -7 -25.5 -2.5t-17 16t-1 24.5t19.5 22q29 17 61.5 25t64.5 8q42 0 71 -14.5t44.5 -39t14.5 -54.5q-1 -46 -27.5 -81.5t-76.5 -78.5l-128 -113
l-1 24h172q37 0 37 -29q0 -19 -11 -30t-31 -11h-217z" />
    <glyph glyph-name="uni00B3" unicode="&#xb3;" horiz-adv-x="380" 
d="M202 278q-35 0 -71.5 8.5t-63.5 26.5q-14 10 -16.5 23t4 24t19.5 15.5t29 -5.5q20 -13 44.5 -18t53.5 -5q33 0 55 16t23 48q1 24 -16 36.5t-51 12.5h-43q-17 0 -27.5 7.5t-10.5 22.5q0 17 11 29t32 12h44q35 0 59 15.5t24 45.5q0 23 -16.5 35t-48.5 12q-29 0 -51.5 -7
t-38.5 -17q-15 -8 -26.5 -3.5t-16.5 16t-1 25t20 21.5q24 14 56 24.5t71 10.5q63 0 98.5 -28.5t35.5 -73.5q0 -42 -29.5 -73t-75.5 -39v7q40 -8 61.5 -34.5t21.5 -61.5q0 -37 -21.5 -66.5t-57.5 -45.5t-80 -16z" />
    <glyph glyph-name="acute" unicode="&#xb4;" horiz-adv-x="363" 
d="M207 557q-10 -12 -21.5 -13.5t-21 5t-11.5 18t6 24.5l103 156q10 16 23.5 20.5t26 0.5t20.5 -14t8.5 -23.5t-11.5 -26.5z" />
    <glyph glyph-name="uni00B5" unicode="&#xb5;" horiz-adv-x="600" 
d="M67 -187q-23 0 -34 15t-7 42l92 577q4 25 18.5 36.5t38.5 11.5t35.5 -14.5t7.5 -43.5l-39 -242q-10 -62 10 -92.5t70 -30.5q64 0 103 42t50 111l34 221q5 25 19 37t39 12q24 0 35 -14.5t7 -43.5l-63 -396q-7 -48 -55 -48q-23 0 -35 12.5t-9 31.5l11 70h6
q-20 -55 -58.5 -85.5t-91.5 -30.5q-38 0 -66.5 15t-41.5 45l5 1l-24 -189q-3 -25 -17.5 -37.5t-39.5 -12.5z" />
    <glyph glyph-name="paragraph" unicode="&#xb6;" horiz-adv-x="604" 
d="M215 -187q-17 0 -25.5 11.5t-5.5 32.5l70 440q-55 0 -94 24t-60.5 63.5t-21.5 89.5q0 69 29.5 121t82 81t121.5 29h230q26 0 38 -14t8 -40l-127 -800q-6 -38 -45 -38q-18 0 -26 11.5t-5 32.5l122 774h-122l-124 -780q-6 -38 -45 -38z" />
    <glyph glyph-name="periodcentered" unicode="&#xb7;" horiz-adv-x="237" 
d="M124 204q-29 0 -47 17.5t-18 45.5t18 45.5t47 17.5t46 -17.5t17 -45.5t-17 -45.5t-46 -17.5z" />
    <glyph glyph-name="cedilla" unicode="&#xb8;" horiz-adv-x="406" 
d="M128 -194q-19 0 -36.5 3t-33.5 7q-14 4 -18.5 14.5t-2 21t12 16t23.5 0.5q11 -4 25 -6t28 -2q28 0 44 9t16 26q0 11 -8.5 17.5t-25.5 6.5q-8 0 -16.5 -1t-16.5 -3q-8 -1 -14 -1t-9 3q-4 5 -4.5 9.5t1.5 13.5l26 80h58l-25 -76l-27 9q12 3 24 5t22 2q36 0 57.5 -16.5
t21.5 -47.5q0 -40 -35 -65t-87 -25z" />
    <glyph glyph-name="uni00B9" unicode="&#xb9;" horiz-adv-x="380" 
d="M122 282q-37 0 -37 31q0 17 11 28t31 11h65l44 282h51l-102 -55q-19 -11 -33 -6t-20.5 18t-1.5 28t23 24l94 51q10 5 21 9.5t25 4.5q18 0 24.5 -8t7 -17t-0.5 -17l-50 -314h39q38 0 38 -30q0 -17 -11.5 -28.5t-30.5 -11.5h-187z" />
    <glyph glyph-name="ordmasculine" unicode="&#xba;" horiz-adv-x="345" 
d="M217 411q-42 0 -74.5 17.5t-51.5 49t-19 73.5q0 50 21.5 87t57 56.5t78.5 19.5q42 0 74.5 -17t51 -48.5t18.5 -74.5q0 -50 -20.5 -87t-56 -56.5t-79.5 -19.5zM218 464q38 0 62 28t24 83q0 41 -21 63.5t-55 22.5q-38 0 -62 -28t-24 -83q0 -41 20.5 -63.5t55.5 -22.5z" />
    <glyph glyph-name="guillemotright" unicode="&#xbb;" horiz-adv-x="465" 
d="M52 88q-16 8 -18 25.5t15 40.5l81 117l-40 120q-6 19 -1.5 32.5t19.5 19.5q19 8 34.5 1t23.5 -25l51 -118q6 -15 5 -33.5t-15 -34.5l-103 -133q-10 -13 -24 -16t-28 4zM245 88q-16 8 -18 25.5t15 40.5l81 117l-40 120q-6 19 -1.5 32.5t19.5 19.5q19 8 34.5 1t23.5 -25
l51 -118q6 -15 5 -33.5t-15 -34.5l-103 -133q-10 -13 -24 -16t-28 4z" />
    <glyph glyph-name="onequarter" unicode="&#xbc;" horiz-adv-x="902" 
d="M122 282q-37 0 -37 31q0 17 11 28t31 11h65l44 282h51l-102 -55q-19 -11 -33 -6t-20.5 18t-1.5 28t23 24l94 51q10 5 21 9.5t25 4.5q18 0 24.5 -8t7 -17t-0.5 -17l-50 -314h39q38 0 38 -30q0 -17 -11.5 -28.5t-30.5 -11.5h-187zM280 1q-10 -13 -21.5 -17t-22.5 -0.5
t-18 11.5t-7 20.5t10 25.5l488 664q9 13 21 16.5t22.5 0.5t17.5 -11.5t7 -21t-10 -25.5zM744 -4q-19 0 -28.5 9t-6.5 29l7 44h-143q-19 0 -32 6.5t-13 24.5q0 11 5 20.5t12 18.5l211 249q9 12 21.5 21t33.5 9t30 -10.5t5 -31.5l-37 -237h24q12 0 21.5 -8t9.5 -23
q0 -14 -10.5 -26.5t-27.5 -12.5h-28l-7 -45q-3 -18 -15 -27.5t-32 -9.5zM727 148l30 187h23l-173 -205l-1 18h121z" />
    <glyph glyph-name="onehalf" unicode="&#xbd;" horiz-adv-x="948" 
d="M122 282q-37 0 -37 31q0 17 11 28t31 11h65l44 282h51l-102 -55q-19 -11 -33 -6t-20.5 18t-1.5 28t23 24l94 51q10 5 21 9.5t25 4.5q18 0 24.5 -8t7 -17t-0.5 -17l-50 -314h39q38 0 38 -30q0 -17 -11.5 -28.5t-30.5 -11.5h-187zM280 1q-10 -13 -21.5 -17t-22.5 -0.5
t-18 11.5t-7 20.5t10 25.5l488 664q9 13 21 16.5t22.5 0.5t17.5 -11.5t7 -21t-10 -25.5zM621 0q-19 0 -29 9t-10 24q0 13 6 22t16 19l144 128q30 28 48 54t19 53q1 23 -15 35.5t-45 12.5q-22 0 -42 -6t-41 -17q-14 -7 -25.5 -2.5t-17 16t-1 24.5t19.5 22q29 17 61.5 25
t64.5 8q42 0 71 -14.5t44.5 -39t14.5 -54.5q-1 -46 -27.5 -81.5t-76.5 -78.5l-128 -113l-1 24h172q37 0 37 -29q0 -19 -11 -30t-31 -11h-217z" />
    <glyph glyph-name="threequarters" unicode="&#xbe;" horiz-adv-x="902" 
d="M202 278q-35 0 -71.5 8.5t-63.5 26.5q-14 10 -16.5 23t4 24t19.5 15.5t29 -5.5q20 -13 44.5 -18t53.5 -5q33 0 55 16t23 48q1 24 -16 36.5t-51 12.5h-43q-17 0 -27.5 7.5t-10.5 22.5q0 17 11 29t32 12h44q35 0 59 15.5t24 45.5q0 23 -16.5 35t-48.5 12q-29 0 -51.5 -7
t-38.5 -17q-15 -8 -26.5 -3.5t-16.5 16t-1 25t20 21.5q24 14 56 24.5t71 10.5q63 0 98.5 -28.5t35.5 -73.5q0 -42 -29.5 -73t-75.5 -39v7q40 -8 61.5 -34.5t21.5 -61.5q0 -37 -21.5 -66.5t-57.5 -45.5t-80 -16zM280 1q-10 -13 -21.5 -17t-22.5 -0.5t-18 11.5t-7 20.5
t10 25.5l488 664q9 13 21 16.5t22.5 0.5t17.5 -11.5t7 -21t-10 -25.5zM744 -4q-19 0 -28.5 9t-6.5 29l7 44h-143q-19 0 -32 6.5t-13 24.5q0 11 5 20.5t12 18.5l211 249q9 12 21.5 21t33.5 9t30 -10.5t5 -31.5l-37 -237h24q12 0 21.5 -8t9.5 -23q0 -14 -10.5 -26.5
t-27.5 -12.5h-28l-7 -45q-3 -18 -15 -27.5t-32 -9.5zM727 148l30 187h23l-173 -205l-1 18h121z" />
    <glyph glyph-name="questiondown" unicode="&#xbf;" horiz-adv-x="450" 
d="M154 -189q-54 0 -94.5 19t-62.5 52t-22 73q0 55 32.5 97.5t84.5 78.5q36 25 58.5 48t35.5 46t19 49q4 12 10.5 19t22.5 7q17 0 26 -10t5 -30q-6 -32 -16.5 -59t-32 -53t-60.5 -56q-37 -29 -59 -56.5t-22 -62.5q0 -32 23 -53t67 -21t80.5 10t72.5 32q18 10 32 8.5t22 -11
t10 -22.5t-4 -26t-21 -23q-43 -29 -97 -42.5t-110 -13.5zM265 365q-29 0 -46.5 18t-17.5 45q0 29 17.5 46.5t46.5 17.5q30 0 47 -17.5t17 -46.5q0 -27 -17 -45t-47 -18z" />
    <glyph glyph-name="Agrave" unicode="&#xc0;" horiz-adv-x="736" 
d="M45 -7q-18 0 -30.5 8.5t-15 23t7.5 32.5l375 620q12 18 25.5 26.5t34.5 8.5t34.5 -10t19.5 -31l174 -611q7 -23 3 -38t-15.5 -22t-27.5 -7q-22 0 -34.5 11.5t-18.5 34.5l-41 155l35 -22h-420l45 20l-99 -168q-8 -16 -21 -23.5t-31 -7.5zM429 590l-206 -352l-23 18h349
l-25 -19l-93 353h-2zM409 772l-87 111q-12 14 -11 27.5t9.5 23.5t21.5 14t26.5 -1t22.5 -22l72 -116q8 -14 4.5 -25.5t-13.5 -18.5t-22.5 -6t-22.5 13z" />
    <glyph glyph-name="Aacute" unicode="&#xc1;" horiz-adv-x="736" 
d="M45 -7q-18 0 -30.5 8.5t-15 23t7.5 32.5l375 620q12 18 25.5 26.5t34.5 8.5t34.5 -10t19.5 -31l174 -611q7 -23 3 -38t-15.5 -22t-27.5 -7q-22 0 -34.5 11.5t-18.5 34.5l-41 155l35 -22h-420l45 20l-99 -168q-8 -16 -21 -23.5t-31 -7.5zM429 590l-206 -352l-23 18h349
l-25 -19l-93 353h-2zM495 770q-11 -11 -23.5 -11.5t-21.5 6.5t-11 18.5t7 22.5l93 123q11 15 25 18.5t26 -0.5t20 -13.5t7.5 -22.5t-13.5 -26z" />
    <glyph glyph-name="Acircumflex" unicode="&#xc2;" horiz-adv-x="736" 
d="M45 -7q-18 0 -30.5 8.5t-15 23t7.5 32.5l375 620q12 18 25.5 26.5t34.5 8.5t34.5 -10t19.5 -31l174 -611q7 -23 3 -38t-15.5 -22t-27.5 -7q-22 0 -34.5 11.5t-18.5 34.5l-41 155l35 -22h-420l45 20l-99 -168q-8 -16 -21 -23.5t-31 -7.5zM429 590l-206 -352l-23 18h349
l-25 -19l-93 353h-2zM353 769q-10 -11 -22.5 -12t-21.5 5t-11 16t7 22l92 114q15 18 31 26.5t37 8.5q20 0 34 -10t26 -30l66 -108q9 -14 5.5 -25t-14.5 -16.5t-24.5 -2.5t-23.5 16l-76 104z" />
    <glyph glyph-name="Atilde" unicode="&#xc3;" horiz-adv-x="736" 
d="M45 -7q-18 0 -30.5 8.5t-15 23t7.5 32.5l375 620q12 18 25.5 26.5t34.5 8.5t34.5 -10t19.5 -31l174 -611q7 -23 3 -38t-15.5 -22t-27.5 -7q-22 0 -34.5 11.5t-18.5 34.5l-41 155l35 -22h-420l45 20l-99 -168q-8 -16 -21 -23.5t-31 -7.5zM429 590l-206 -352l-23 18h349
l-25 -19l-93 353h-2zM262 776q-12 1 -18 10t-2 25q16 57 49 83.5t78 26.5q28 0 51.5 -10.5t45 -24.5t41.5 -25t40 -11q24 0 42 13.5t27 40.5q4 13 11.5 18.5t21.5 4.5q13 -1 19 -10t2 -25q-15 -56 -49 -83.5t-79 -27.5q-28 0 -52 11t-45 25t-41 25t-40 11q-24 0 -41.5 -13.5
t-27.5 -41.5q-4 -12 -11.5 -17.5t-21.5 -4.5z" />
    <glyph glyph-name="Adieresis" unicode="&#xc4;" horiz-adv-x="736" 
d="M45 -7q-18 0 -30.5 8.5t-15 23t7.5 32.5l375 620q12 18 25.5 26.5t34.5 8.5t34.5 -10t19.5 -31l174 -611q7 -23 3 -38t-15.5 -22t-27.5 -7q-22 0 -34.5 11.5t-18.5 34.5l-41 155l35 -22h-420l45 20l-99 -168q-8 -16 -21 -23.5t-31 -7.5zM429 590l-206 -352l-23 18h349
l-25 -19l-93 353h-2zM547 795q-22 0 -34 11t-12 31q0 30 16 47t46 17q22 0 34.5 -10.5t12.5 -30.5q0 -30 -16.5 -47.5t-46.5 -17.5zM366 795q-21 0 -33.5 11t-12.5 31q0 30 16.5 47t46.5 17q22 0 34 -10.5t12 -30.5q0 -30 -16 -47.5t-47 -17.5z" />
    <glyph glyph-name="Aring" unicode="&#xc5;" horiz-adv-x="736" 
d="M45 -7q-18 0 -30.5 8.5t-15 23t7.5 32.5l375 620q12 18 25.5 26.5t34.5 8.5t34.5 -10t19.5 -31l174 -611q7 -23 3 -38t-15.5 -22t-27.5 -7q-22 0 -34.5 11.5t-18.5 34.5l-41 155l35 -22h-420l45 20l-99 -168q-8 -16 -21 -23.5t-31 -7.5zM429 590l-206 -352l-23 18h349
l-25 -19l-93 353h-2zM466 756q-34 0 -62 16.5t-44 43.5t-16 60q0 34 16 60.5t44 42t62 15.5q35 0 62.5 -15.5t43.5 -42t16 -60.5q0 -33 -16 -60t-43.5 -43.5t-62.5 -16.5zM466 806q31 0 50 20t19 50q0 29 -19 48.5t-50 19.5q-30 0 -49.5 -19.5t-19.5 -48.5q0 -30 19.5 -50
t49.5 -20z" />
    <glyph glyph-name="AE" unicode="&#xc6;" horiz-adv-x="987" 
d="M13 -7q-21 0 -32 10t-11 25.5t11 29.5l478 620q12 15 25.5 21t31.5 6h450q22 0 33.5 -8.5t11.5 -24.5q0 -25 -14 -38t-36 -13h-412l31 31l16 -280l-34 28h334q22 0 33.5 -8.5t11.5 -25.5q0 -24 -14 -37t-35 -13h-324l29 28l16 -292l-34 32h289q22 0 33.5 -8.5t11.5 -25.5
q0 -23 -13.5 -36.5t-36.5 -13.5h-292q-45 0 -48 45l-8 158l31 -31h-389l44 28l-135 -178q-11 -16 -23.5 -22.5t-29.5 -6.5zM491 587l-267 -356l-6 25h318l-23 -27l-20 358h-2z" />
    <glyph glyph-name="Ccedilla" unicode="&#xc7;" horiz-adv-x="676" 
d="M387 -9q-92 0 -162.5 34.5t-110.5 105t-40 178.5q0 86 25.5 159.5t73 128.5t117 86t156.5 31q60 0 114 -17t94 -49q15 -11 18.5 -25.5t-1 -28.5t-14 -23.5t-23 -11t-27.5 7.5q-39 30 -79 42.5t-86 12.5q-81 0 -139 -40.5t-88.5 -111t-30.5 -159.5q0 -81 25 -131
t72.5 -73.5t115.5 -23.5q42 0 79 11.5t75 38.5q16 10 30 8.5t23.5 -11t12.5 -23t-2 -27.5t-20 -24q-45 -33 -99 -49t-109 -16zM349 -194q-19 0 -36.5 3t-33.5 7q-14 4 -18.5 14.5t-2 21t12 16t23.5 0.5q11 -4 25 -6t28 -2q28 0 44 9t16 26q0 11 -8.5 17.5t-25.5 6.5
q-8 0 -16.5 -1t-16.5 -3q-8 -1 -14 -1t-9 3q-4 5 -4.5 9.5t1.5 13.5l26 80h58l-25 -76l-27 9q12 3 24 5t22 2q36 0 57.5 -16.5t21.5 -47.5q0 -40 -35 -65t-87 -25z" />
    <glyph glyph-name="Egrave" unicode="&#xc8;" horiz-adv-x="589" 
d="M105 0q-29 0 -42.5 15.5t-9.5 44.5l95 594q4 26 19 38.5t40 12.5h362q21 0 32.5 -8.5t11.5 -24.5q0 -25 -13.5 -38t-35.5 -13h-322l-35 -221h293q21 0 32 -8.5t11 -25.5q0 -24 -13.5 -37t-35.5 -13h-300l-38 -232h314q21 0 32.5 -8.5t11.5 -25.5q0 -24 -13.5 -37
t-35.5 -13h-360zM367 772l-87 111q-12 14 -11 27.5t9.5 23.5t21.5 14t26.5 -1t22.5 -22l72 -116q8 -14 4.5 -25.5t-13.5 -18.5t-22.5 -6t-22.5 13z" />
    <glyph glyph-name="Eacute" unicode="&#xc9;" horiz-adv-x="589" 
d="M105 0q-29 0 -42.5 15.5t-9.5 44.5l95 594q4 26 19 38.5t40 12.5h362q21 0 32.5 -8.5t11.5 -24.5q0 -25 -13.5 -38t-35.5 -13h-322l-35 -221h293q21 0 32 -8.5t11 -25.5q0 -24 -13.5 -37t-35.5 -13h-300l-38 -232h314q21 0 32.5 -8.5t11.5 -25.5q0 -24 -13.5 -37
t-35.5 -13h-360zM453 770q-11 -11 -23.5 -11.5t-21.5 6.5t-11 18.5t7 22.5l93 123q11 15 25 18.5t26 -0.5t20 -13.5t7.5 -22.5t-13.5 -26z" />
    <glyph glyph-name="Ecircumflex" unicode="&#xca;" horiz-adv-x="589" 
d="M105 0q-29 0 -42.5 15.5t-9.5 44.5l95 594q4 26 19 38.5t40 12.5h362q21 0 32.5 -8.5t11.5 -24.5q0 -25 -13.5 -38t-35.5 -13h-322l-35 -221h293q21 0 32 -8.5t11 -25.5q0 -24 -13.5 -37t-35.5 -13h-300l-38 -232h314q21 0 32.5 -8.5t11.5 -25.5q0 -24 -13.5 -37
t-35.5 -13h-360zM311 769q-10 -11 -22.5 -12t-21.5 5t-11 16t7 22l92 114q15 18 31 26.5t37 8.5q20 0 34 -10t26 -30l66 -108q9 -14 5.5 -25t-14.5 -16.5t-24.5 -2.5t-23.5 16l-76 104z" />
    <glyph glyph-name="Edieresis" unicode="&#xcb;" horiz-adv-x="589" 
d="M105 0q-29 0 -42.5 15.5t-9.5 44.5l95 594q4 26 19 38.5t40 12.5h362q21 0 32.5 -8.5t11.5 -24.5q0 -25 -13.5 -38t-35.5 -13h-322l-35 -221h293q21 0 32 -8.5t11 -25.5q0 -24 -13.5 -37t-35.5 -13h-300l-38 -232h314q21 0 32.5 -8.5t11.5 -25.5q0 -24 -13.5 -37
t-35.5 -13h-360zM505 795q-22 0 -34 11t-12 31q0 30 16 47t46 17q22 0 34.5 -10.5t12.5 -30.5q0 -30 -16.5 -47.5t-46.5 -17.5zM324 795q-21 0 -33.5 11t-12.5 31q0 30 16.5 47t46.5 17q22 0 34 -10.5t12 -30.5q0 -30 -16 -47.5t-47 -17.5z" />
    <glyph glyph-name="Igrave" unicode="&#xcc;" horiz-adv-x="268" 
d="M97 -7q-27 0 -38 16t-7 45l97 607q4 25 18 38t40 13t37 -15.5t6 -45.5l-96 -606q-4 -25 -17.5 -38.5t-39.5 -13.5zM174 772l-87 111q-12 14 -11 27.5t9.5 23.5t21.5 14t26.5 -1t22.5 -22l72 -116q8 -14 4.5 -25.5t-13.5 -18.5t-22.5 -6t-22.5 13z" />
    <glyph glyph-name="Iacute" unicode="&#xcd;" horiz-adv-x="268" 
d="M97 -7q-27 0 -38 16t-7 45l97 607q4 25 18 38t40 13t37 -15.5t6 -45.5l-96 -606q-4 -25 -17.5 -38.5t-39.5 -13.5zM260 770q-11 -11 -23.5 -11.5t-21.5 6.5t-11 18.5t7 22.5l93 123q11 15 25 18.5t26 -0.5t20 -13.5t7.5 -22.5t-13.5 -26z" />
    <glyph glyph-name="Icircumflex" unicode="&#xce;" horiz-adv-x="268" 
d="M97 -7q-27 0 -38 16t-7 45l97 607q4 25 18 38t40 13t37 -15.5t6 -45.5l-96 -606q-4 -25 -17.5 -38.5t-39.5 -13.5zM118 769q-10 -11 -22.5 -12t-21.5 5t-11 16t7 22l92 114q15 18 31 26.5t37 8.5q20 0 34 -10t26 -30l66 -108q9 -14 5.5 -25t-14.5 -16.5t-24.5 -2.5
t-23.5 16l-76 104z" />
    <glyph glyph-name="Idieresis" unicode="&#xcf;" horiz-adv-x="268" 
d="M97 -7q-27 0 -38 16t-7 45l97 607q4 25 18 38t40 13t37 -15.5t6 -45.5l-96 -606q-4 -25 -17.5 -38.5t-39.5 -13.5zM312 795q-22 0 -34 11t-12 31q0 30 16 47t46 17q22 0 34.5 -10.5t12.5 -30.5q0 -30 -16.5 -47.5t-46.5 -17.5zM131 795q-21 0 -33.5 11t-12.5 31
q0 30 16.5 47t46.5 17q22 0 34 -10.5t12 -30.5q0 -30 -16 -47.5t-47 -17.5z" />
    <glyph glyph-name="Eth" unicode="&#xd0;" horiz-adv-x="751" 
d="M104 0q-28 0 -41.5 16t-9.5 44l95 594q4 26 19 38.5t40 12.5h164q164 0 253 -78t89 -220q0 -85 -24 -158.5t-74 -129.5t-125 -87.5t-178 -31.5h-208zM161 87h153q77 0 132.5 24.5t90.5 68t51.5 102t16.5 124.5q0 104 -59 158t-175 54h-126zM48 319q-20 0 -31.5 8
t-11.5 24q0 22 13 33.5t35 11.5h309q21 0 32 -8t11 -23q0 -22 -12.5 -34t-35.5 -12h-309z" />
    <glyph glyph-name="Ntilde" unicode="&#xd1;" horiz-adv-x="743" 
d="M93 -7q-22 0 -33.5 15t-7.5 42l98 618q4 23 17 33.5t31 10.5q20 0 30.5 -7.5t20.5 -24.5l320 -550h-22l84 535q4 24 18 35.5t38 11.5q22 0 32 -15t6 -41l-98 -618q-3 -23 -14 -34t-30 -11q-20 0 -32 8t-23 26l-320 548h22l-84 -535q-3 -24 -15.5 -35.5t-37.5 -11.5z
M264 776q-12 1 -18 10t-2 25q16 57 49 83.5t78 26.5q28 0 51.5 -10.5t45 -24.5t41.5 -25t40 -11q24 0 42 13.5t27 40.5q4 13 11.5 18.5t21.5 4.5q13 -1 19 -10t2 -25q-15 -56 -49 -83.5t-79 -27.5q-28 0 -52 11t-45 25t-41 25t-40 11q-24 0 -41.5 -13.5t-27.5 -41.5
q-4 -12 -11.5 -17.5t-21.5 -4.5z" />
    <glyph glyph-name="Ograve" unicode="&#xd2;" horiz-adv-x="775" 
d="M374 -9q-91 0 -158.5 35t-105 104t-37.5 166q0 90 24.5 166t71.5 133t114 88t153 31q92 0 159.5 -35t104.5 -103.5t37 -165.5q0 -91 -24.5 -167t-71.5 -133t-114 -88t-153 -31zM376 81q82 0 138 42.5t85 116.5t29 168q0 110 -51.5 163t-143.5 53q-81 0 -137 -42t-85 -116
t-29 -168q0 -111 52 -164t142 -53zM416 772l-87 111q-12 14 -11 27.5t9.5 23.5t21.5 14t26.5 -1t22.5 -22l72 -116q8 -14 4.5 -25.5t-13.5 -18.5t-22.5 -6t-22.5 13z" />
    <glyph glyph-name="Oacute" unicode="&#xd3;" horiz-adv-x="775" 
d="M374 -9q-91 0 -158.5 35t-105 104t-37.5 166q0 90 24.5 166t71.5 133t114 88t153 31q92 0 159.5 -35t104.5 -103.5t37 -165.5q0 -91 -24.5 -167t-71.5 -133t-114 -88t-153 -31zM376 81q82 0 138 42.5t85 116.5t29 168q0 110 -51.5 163t-143.5 53q-81 0 -137 -42t-85 -116
t-29 -168q0 -111 52 -164t142 -53zM502 770q-11 -11 -23.5 -11.5t-21.5 6.5t-11 18.5t7 22.5l93 123q11 15 25 18.5t26 -0.5t20 -13.5t7.5 -22.5t-13.5 -26z" />
    <glyph glyph-name="Ocircumflex" unicode="&#xd4;" horiz-adv-x="775" 
d="M374 -9q-91 0 -158.5 35t-105 104t-37.5 166q0 90 24.5 166t71.5 133t114 88t153 31q92 0 159.5 -35t104.5 -103.5t37 -165.5q0 -91 -24.5 -167t-71.5 -133t-114 -88t-153 -31zM376 81q82 0 138 42.5t85 116.5t29 168q0 110 -51.5 163t-143.5 53q-81 0 -137 -42t-85 -116
t-29 -168q0 -111 52 -164t142 -53zM360 769q-10 -11 -22.5 -12t-21.5 5t-11 16t7 22l92 114q15 18 31 26.5t37 8.5q20 0 34 -10t26 -30l66 -108q9 -14 5.5 -25t-14.5 -16.5t-24.5 -2.5t-23.5 16l-76 104z" />
    <glyph glyph-name="Otilde" unicode="&#xd5;" horiz-adv-x="775" 
d="M374 -9q-91 0 -158.5 35t-105 104t-37.5 166q0 90 24.5 166t71.5 133t114 88t153 31q92 0 159.5 -35t104.5 -103.5t37 -165.5q0 -91 -24.5 -167t-71.5 -133t-114 -88t-153 -31zM376 81q82 0 138 42.5t85 116.5t29 168q0 110 -51.5 163t-143.5 53q-81 0 -137 -42t-85 -116
t-29 -168q0 -111 52 -164t142 -53zM269 776q-12 1 -18 10t-2 25q16 57 49 83.5t78 26.5q28 0 51.5 -10.5t45 -24.5t41.5 -25t40 -11q24 0 42 13.5t27 40.5q4 13 11.5 18.5t21.5 4.5q13 -1 19 -10t2 -25q-15 -56 -49 -83.5t-79 -27.5q-28 0 -52 11t-45 25t-41 25t-40 11
q-24 0 -41.5 -13.5t-27.5 -41.5q-4 -12 -11.5 -17.5t-21.5 -4.5z" />
    <glyph glyph-name="Odieresis" unicode="&#xd6;" horiz-adv-x="775" 
d="M374 -9q-91 0 -158.5 35t-105 104t-37.5 166q0 90 24.5 166t71.5 133t114 88t153 31q92 0 159.5 -35t104.5 -103.5t37 -165.5q0 -91 -24.5 -167t-71.5 -133t-114 -88t-153 -31zM376 81q82 0 138 42.5t85 116.5t29 168q0 110 -51.5 163t-143.5 53q-81 0 -137 -42t-85 -116
t-29 -168q0 -111 52 -164t142 -53zM554 795q-22 0 -34 11t-12 31q0 30 16 47t46 17q22 0 34.5 -10.5t12.5 -30.5q0 -30 -16.5 -47.5t-46.5 -17.5zM373 795q-21 0 -33.5 11t-12.5 31q0 30 16.5 47t46.5 17q22 0 34 -10.5t12 -30.5q0 -30 -16 -47.5t-47 -17.5z" />
    <glyph glyph-name="multiply" unicode="&#xd7;" horiz-adv-x="600" 
d="M131 72q-16 -14 -30.5 -12.5t-24 12t-10 25t12.5 27.5l176 163l-146 159q-10 12 -11 23.5t5.5 21.5t16.5 15t22.5 3t23.5 -14l144 -157l175 160q15 14 30 12.5t24.5 -12t10 -25t-13.5 -27.5l-177 -162l148 -163q10 -11 11 -23t-5.5 -21.5t-16.5 -14.5t-22 -2.5t-23 14.5
l-146 158z" />
    <glyph glyph-name="Oslash" unicode="&#xd8;" horiz-adv-x="775" 
d="M374 -9q-91 0 -158.5 35t-105 104t-37.5 166q0 90 24.5 166t71.5 133t114 88t153 31q92 0 159.5 -35t104.5 -103.5t37 -165.5q0 -91 -24.5 -167t-71.5 -133t-114 -88t-153 -31zM376 81q82 0 138 42.5t85 116.5t29 168q0 110 -51.5 163t-143.5 53q-81 0 -137 -42t-85 -116
t-29 -168q0 -111 52 -164t142 -53zM171 -24q-9 -11 -20.5 -14t-22 1t-17.5 12.5t-7 20.5t9 25l58 77l32 44l344 464l33 45l57 76q10 13 21.5 16t22.5 -1t17.5 -13t6.5 -21t-9 -25l-57 -76l-32 -44l-344 -464l-33 -44z" />
    <glyph glyph-name="Ugrave" unicode="&#xd9;" horiz-adv-x="733" 
d="M338 -9q-67 0 -119 19t-86 58t-46.5 97.5t0.5 136.5l57 362q4 25 18.5 36.5t38.5 11.5q26 0 37.5 -14.5t7.5 -42.5l-57 -362q-17 -105 22.5 -158.5t132.5 -53.5q91 0 143.5 46t68.5 148l62 389q4 25 18.5 36.5t38.5 11.5q25 0 36.5 -14.5t7.5 -42.5l-60 -381
q-15 -93 -54 -156t-105 -95t-162 -32zM406 772l-87 111q-12 14 -11 27.5t9.5 23.5t21.5 14t26.5 -1t22.5 -22l72 -116q8 -14 4.5 -25.5t-13.5 -18.5t-22.5 -6t-22.5 13z" />
    <glyph glyph-name="Uacute" unicode="&#xda;" horiz-adv-x="733" 
d="M338 -9q-67 0 -119 19t-86 58t-46.5 97.5t0.5 136.5l57 362q4 25 18.5 36.5t38.5 11.5q26 0 37.5 -14.5t7.5 -42.5l-57 -362q-17 -105 22.5 -158.5t132.5 -53.5q91 0 143.5 46t68.5 148l62 389q4 25 18.5 36.5t38.5 11.5q25 0 36.5 -14.5t7.5 -42.5l-60 -381
q-15 -93 -54 -156t-105 -95t-162 -32zM492 770q-11 -11 -23.5 -11.5t-21.5 6.5t-11 18.5t7 22.5l93 123q11 15 25 18.5t26 -0.5t20 -13.5t7.5 -22.5t-13.5 -26z" />
    <glyph glyph-name="Ucircumflex" unicode="&#xdb;" horiz-adv-x="733" 
d="M338 -9q-67 0 -119 19t-86 58t-46.5 97.5t0.5 136.5l57 362q4 25 18.5 36.5t38.5 11.5q26 0 37.5 -14.5t7.5 -42.5l-57 -362q-17 -105 22.5 -158.5t132.5 -53.5q91 0 143.5 46t68.5 148l62 389q4 25 18.5 36.5t38.5 11.5q25 0 36.5 -14.5t7.5 -42.5l-60 -381
q-15 -93 -54 -156t-105 -95t-162 -32zM350 769q-10 -11 -22.5 -12t-21.5 5t-11 16t7 22l92 114q15 18 31 26.5t37 8.5q20 0 34 -10t26 -30l66 -108q9 -14 5.5 -25t-14.5 -16.5t-24.5 -2.5t-23.5 16l-76 104z" />
    <glyph glyph-name="Udieresis" unicode="&#xdc;" horiz-adv-x="733" 
d="M338 -9q-67 0 -119 19t-86 58t-46.5 97.5t0.5 136.5l57 362q4 25 18.5 36.5t38.5 11.5q26 0 37.5 -14.5t7.5 -42.5l-57 -362q-17 -105 22.5 -158.5t132.5 -53.5q91 0 143.5 46t68.5 148l62 389q4 25 18.5 36.5t38.5 11.5q25 0 36.5 -14.5t7.5 -42.5l-60 -381
q-15 -93 -54 -156t-105 -95t-162 -32zM544 795q-22 0 -34 11t-12 31q0 30 16 47t46 17q22 0 34.5 -10.5t12.5 -30.5q0 -30 -16.5 -47.5t-46.5 -17.5zM363 795q-21 0 -33.5 11t-12.5 31q0 30 16.5 47t46.5 17q22 0 34 -10.5t12 -30.5q0 -30 -16 -47.5t-47 -17.5z" />
    <glyph glyph-name="Yacute" unicode="&#xdd;" horiz-adv-x="606" 
d="M263 -7q-25 0 -35.5 16t-6.5 44l49 311l11 -66l-189 340q-11 20 -9.5 36.5t14 27t33.5 10.5q19 0 30.5 -8.5t23.5 -29.5l150 -271h-24l243 278q15 18 27.5 24.5t30.5 6.5q19 0 31 -11t12 -28t-15 -35l-299 -340l33 66l-51 -320q-8 -51 -59 -51zM420 770
q-11 -11 -23.5 -11.5t-21.5 6.5t-11 18.5t7 22.5l93 123q11 15 25 18.5t26 -0.5t20 -13.5t7.5 -22.5t-13.5 -26z" />
    <glyph glyph-name="Thorn" unicode="&#xde;" horiz-adv-x="643" 
d="M95 -7q-25 0 -36 16t-7 45l96 603q4 26 19 39t41 13q24 0 36 -13t8 -35l-13 -79h161q112 0 172 -49t60 -143q0 -111 -69.5 -175t-200.5 -64h-191l-17 -107q-4 -25 -18.5 -38t-40.5 -13zM184 234h184q80 0 122 38t42 110q0 61 -36 89t-106 28h-164z" />
    <glyph glyph-name="germandbls" unicode="&#xdf;" horiz-adv-x="632" 
d="M393 -9q-46 0 -90 11.5t-75 31.5q-14 9 -19 21t-3 24.5t10 21t20.5 10.5t25.5 -6q30 -18 63 -27.5t68 -9.5q49 0 75.5 18t26.5 53q0 23 -18.5 41.5t-71.5 36.5q-66 23 -93.5 52.5t-27.5 71.5q0 28 9.5 49.5t30.5 43.5t56 49q29 23 46 43.5t17 51.5q0 25 -18 42.5
t-55 17.5q-68 0 -107.5 -38t-51.5 -114l-71 -445q-3 -24 -17 -36t-38 -12q-25 0 -36.5 14.5t-7.5 41.5l67 425q18 118 82 179t182 61q52 0 89.5 -17t57.5 -45.5t20 -62.5q0 -47 -23.5 -78.5t-64.5 -64.5q-24 -20 -40 -34.5t-24 -27.5t-8 -30q0 -21 18.5 -37.5t68.5 -33.5
q59 -21 91 -51.5t32 -82.5q0 -50 -25 -85.5t-69 -54t-102 -18.5z" />
    <glyph glyph-name="agrave" unicode="&#xe0;" horiz-adv-x="537" 
d="M196 -9q-43 0 -80 19.5t-59 53t-22 75.5q0 52 28.5 84t89.5 47.5t157 15.5h80l-9 -62h-62q-69 0 -109.5 -7t-57.5 -24.5t-17 -47.5q0 -40 26.5 -61t63.5 -21q34 0 63 15t49.5 43.5t26.5 68.5l19 120q9 53 -14.5 81t-83.5 28q-35 0 -67.5 -7t-65.5 -24q-15 -8 -28 -5.5
t-21 11t-9 20.5t6.5 24t25.5 21q40 20 85 29t86 9q73 0 115.5 -27t58 -75t5.5 -111l-38 -241q-3 -25 -17.5 -37.5t-37.5 -12.5q-22 0 -33 14.5t-7 41.5l11 73l8 -15q-13 -39 -39.5 -65.5t-59 -38.5t-67.5 -12zM276 561l-100 143q-12 16 -10 30t11.5 22.5t23 11t27 -4.5
t23.5 -25l80 -147q8 -15 4 -26.5t-14 -17t-23 -3t-22 16.5z" />
    <glyph glyph-name="aacute" unicode="&#xe1;" horiz-adv-x="537" 
d="M196 -9q-43 0 -80 19.5t-59 53t-22 75.5q0 52 28.5 84t89.5 47.5t157 15.5h80l-9 -62h-62q-69 0 -109.5 -7t-57.5 -24.5t-17 -47.5q0 -40 26.5 -61t63.5 -21q34 0 63 15t49.5 43.5t26.5 68.5l19 120q9 53 -14.5 81t-83.5 28q-35 0 -67.5 -7t-65.5 -24q-15 -8 -28 -5.5
t-21 11t-9 20.5t6.5 24t25.5 21q40 20 85 29t86 9q73 0 115.5 -27t58 -75t5.5 -111l-38 -241q-3 -25 -17.5 -37.5t-37.5 -12.5q-22 0 -33 14.5t-7 41.5l11 73l8 -15q-13 -39 -39.5 -65.5t-59 -38.5t-67.5 -12zM356 557q-10 -12 -21.5 -13.5t-21 5t-11.5 18t6 24.5l103 156
q10 16 23.5 20.5t26 0.5t20.5 -14t8.5 -23.5t-11.5 -26.5z" />
    <glyph glyph-name="acircumflex" unicode="&#xe2;" horiz-adv-x="537" 
d="M196 -9q-43 0 -80 19.5t-59 53t-22 75.5q0 52 28.5 84t89.5 47.5t157 15.5h80l-9 -62h-62q-69 0 -109.5 -7t-57.5 -24.5t-17 -47.5q0 -40 26.5 -61t63.5 -21q34 0 63 15t49.5 43.5t26.5 68.5l19 120q9 53 -14.5 81t-83.5 28q-35 0 -67.5 -7t-65.5 -24q-15 -8 -28 -5.5
t-21 11t-9 20.5t6.5 24t25.5 21q40 20 85 29t86 9q73 0 115.5 -27t58 -75t5.5 -111l-38 -241q-3 -25 -17.5 -37.5t-37.5 -12.5q-22 0 -33 14.5t-7 41.5l11 73l8 -15q-13 -39 -39.5 -65.5t-59 -38.5t-67.5 -12zM455 588q6 -15 1 -25.5t-15.5 -15.5t-22 -2.5t-17.5 14.5
l-70 134l-101 -135q-8 -11 -20 -13.5t-21.5 3t-12 16.5t5.5 24l93 143q12 19 27 28.5t34 9.5t33 -9t23 -29z" />
    <glyph glyph-name="atilde" unicode="&#xe3;" horiz-adv-x="537" 
d="M196 -9q-43 0 -80 19.5t-59 53t-22 75.5q0 52 28.5 84t89.5 47.5t157 15.5h80l-9 -62h-62q-69 0 -109.5 -7t-57.5 -24.5t-17 -47.5q0 -40 26.5 -61t63.5 -21q34 0 63 15t49.5 43.5t26.5 68.5l19 120q9 53 -14.5 81t-83.5 28q-35 0 -67.5 -7t-65.5 -24q-15 -8 -28 -5.5
t-21 11t-9 20.5t6.5 24t25.5 21q40 20 85 29t86 9q73 0 115.5 -27t58 -75t5.5 -111l-38 -241q-3 -25 -17.5 -37.5t-37.5 -12.5q-22 0 -33 14.5t-7 41.5l11 73l8 -15q-13 -39 -39.5 -65.5t-59 -38.5t-67.5 -12zM164 585q-13 1 -19.5 9.5t-2.5 22.5q6 27 17 48.5t26 36
t33.5 22t39.5 7.5q25 0 42.5 -11t32.5 -25t30 -25t33 -11q21 0 38 15t24 40q3 12 12 17.5t21 4.5q13 -1 19 -9t3 -23q-8 -36 -25 -61.5t-40 -38.5t-52 -13q-24 0 -42.5 10.5t-33 24.5t-29.5 25t-33 11q-20 0 -37 -15t-25 -40q-3 -11 -11.5 -17t-20.5 -5z" />
    <glyph glyph-name="adieresis" unicode="&#xe4;" horiz-adv-x="537" 
d="M196 -9q-43 0 -80 19.5t-59 53t-22 75.5q0 52 28.5 84t89.5 47.5t157 15.5h80l-9 -62h-62q-69 0 -109.5 -7t-57.5 -24.5t-17 -47.5q0 -40 26.5 -61t63.5 -21q34 0 63 15t49.5 43.5t26.5 68.5l19 120q9 53 -14.5 81t-83.5 28q-35 0 -67.5 -7t-65.5 -24q-15 -8 -28 -5.5
t-21 11t-9 20.5t6.5 24t25.5 21q40 20 85 29t86 9q73 0 115.5 -27t58 -75t5.5 -111l-38 -241q-3 -25 -17.5 -37.5t-37.5 -12.5q-22 0 -33 14.5t-7 41.5l11 73l8 -15q-13 -39 -39.5 -65.5t-59 -38.5t-67.5 -12zM417 600q-22 0 -34 11t-12 31q0 30 16.5 47t45.5 17
q22 0 34 -10.5t12 -30.5q0 -30 -16 -47.5t-46 -17.5zM236 600q-23 0 -35 11t-12 31q0 30 16.5 47t45.5 17q23 0 35 -10.5t12 -30.5q0 -30 -16 -47.5t-46 -17.5z" />
    <glyph glyph-name="aring" unicode="&#xe5;" horiz-adv-x="537" 
d="M196 -9q-43 0 -80 19.5t-59 53t-22 75.5q0 52 28.5 84t89.5 47.5t157 15.5h80l-9 -62h-62q-69 0 -109.5 -7t-57.5 -24.5t-17 -47.5q0 -40 26.5 -61t63.5 -21q34 0 63 15t49.5 43.5t26.5 68.5l19 120q9 53 -14.5 81t-83.5 28q-35 0 -67.5 -7t-65.5 -24q-15 -8 -28 -5.5
t-21 11t-9 20.5t6.5 24t25.5 21q40 20 85 29t86 9q73 0 115.5 -27t58 -75t5.5 -111l-38 -241q-3 -25 -17.5 -37.5t-37.5 -12.5q-22 0 -33 14.5t-7 41.5l11 73l8 -15q-13 -39 -39.5 -65.5t-59 -38.5t-67.5 -12zM336 546q-33 0 -61 16t-44.5 43t-16.5 60q0 34 16.5 60.5
t44.5 42.5t61 16q35 0 62.5 -16t43.5 -42.5t16 -60.5q0 -33 -16 -60t-43.5 -43t-62.5 -16zM336 596q30 0 49.5 20t19.5 49q0 30 -19.5 49.5t-49.5 19.5q-29 0 -48.5 -19.5t-19.5 -48.5q0 -31 19.5 -50.5t48.5 -19.5z" />
    <glyph glyph-name="ae" unicode="&#xe6;" horiz-adv-x="863" 
d="M212 -9q-46 0 -86.5 17t-65.5 50.5t-25 80.5q0 52 28.5 84t89.5 47t157 15h80l-9 -62h-62q-68 0 -108.5 -7t-58 -24.5t-17.5 -46.5q0 -39 26.5 -60t63.5 -21q34 0 63.5 14t49.5 40.5t26 65.5l19 120q10 57 -14 86t-84 29q-35 0 -67.5 -7t-65.5 -24q-15 -8 -28 -5.5
t-21 11t-9 20.5t6.5 24t25.5 21q40 20 85 29t86 9q69 0 110.5 -29t53.5 -83h-31q32 51 83 81.5t118 30.5q62 0 102.5 -21.5t63 -57t29.5 -77.5t1 -83l-2 -13q-1 -11 -9 -16.5t-19 -5.5h-351l9 62h306l-17 -16q6 43 -3 78.5t-36 57t-75 21.5t-81 -22.5t-51.5 -57.5t-25.5 -74
l-4 -27q-13 -81 24.5 -128.5t114.5 -47.5q33 0 66 7.5t61 26.5q16 9 28.5 8.5t20 -8.5t9 -19.5t-3.5 -24t-19 -21.5q-35 -24 -82 -35.5t-88 -11.5q-84 0 -138.5 38.5t-71.5 107.5h26q-22 -75 -78.5 -110.5t-124.5 -35.5z" />
    <glyph glyph-name="ccedilla" unicode="&#xe7;" horiz-adv-x="467" 
d="M264 -9q-75 0 -124.5 27.5t-74 77t-24.5 114.5q0 54 16 105.5t48.5 92t83.5 65t120 24.5q37 0 72.5 -9.5t61.5 -25.5q17 -10 23.5 -22.5t4.5 -25t-9.5 -21.5t-19.5 -11.5t-26 5.5q-24 16 -48.5 23t-53.5 7q-46 0 -78 -17.5t-52.5 -48t-29.5 -66.5t-9 -74q0 -64 30.5 -102
t101.5 -38q22 0 46 6t49 22q12 6 23 4t19 -10.5t10 -19.5t-2.5 -23t-19.5 -21q-26 -18 -65 -28t-73 -10zM222 -194q-19 0 -36.5 3t-33.5 7q-14 4 -18.5 14.5t-2 21t12 16t23.5 0.5q11 -4 25 -6t28 -2q28 0 44 9t16 26q0 11 -8.5 17.5t-25.5 6.5q-8 0 -16.5 -1t-16.5 -3
q-8 -1 -14 -1t-9 3q-4 5 -4.5 9.5t1.5 13.5l26 80h58l-25 -76l-27 9q12 3 24 5t22 2q36 0 57.5 -16.5t21.5 -47.5q0 -40 -35 -65t-87 -25z" />
    <glyph glyph-name="egrave" unicode="&#xe8;" horiz-adv-x="537" 
d="M275 -9q-72 0 -124.5 26.5t-81 75.5t-28.5 116q0 80 33 145t92.5 104t138.5 39q59 0 99 -20.5t63 -55.5t30.5 -79t2.5 -90q-2 -19 -10 -25t-23 -6h-346l8 62h307l-18 -14q7 44 -2.5 79t-36.5 56.5t-75 21.5q-49 0 -82.5 -22.5t-52 -57.5t-25.5 -74l-4 -27
q-14 -80 24.5 -128t117.5 -48q33 0 66 8t61 26q16 9 28.5 8.5t20 -8.5t9.5 -19.5t-3.5 -24t-19.5 -21.5q-34 -24 -81 -35.5t-88 -11.5zM285 561l-100 143q-12 16 -10 30t11.5 22.5t23 11t27 -4.5t23.5 -25l80 -147q8 -15 4 -26.5t-14 -17t-23 -3t-22 16.5z" />
    <glyph glyph-name="eacute" unicode="&#xe9;" horiz-adv-x="537" 
d="M275 -9q-72 0 -124.5 26.5t-81 75.5t-28.5 116q0 80 33 145t92.5 104t138.5 39q59 0 99 -20.5t63 -55.5t30.5 -79t2.5 -90q-2 -19 -10 -25t-23 -6h-346l8 62h307l-18 -14q7 44 -2.5 79t-36.5 56.5t-75 21.5q-49 0 -82.5 -22.5t-52 -57.5t-25.5 -74l-4 -27
q-14 -80 24.5 -128t117.5 -48q33 0 66 8t61 26q16 9 28.5 8.5t20 -8.5t9.5 -19.5t-3.5 -24t-19.5 -21.5q-34 -24 -81 -35.5t-88 -11.5zM365 557q-10 -12 -21.5 -13.5t-21 5t-11.5 18t6 24.5l103 156q10 16 23.5 20.5t26 0.5t20.5 -14t8.5 -23.5t-11.5 -26.5z" />
    <glyph glyph-name="ecircumflex" unicode="&#xea;" horiz-adv-x="537" 
d="M275 -9q-72 0 -124.5 26.5t-81 75.5t-28.5 116q0 80 33 145t92.5 104t138.5 39q59 0 99 -20.5t63 -55.5t30.5 -79t2.5 -90q-2 -19 -10 -25t-23 -6h-346l8 62h307l-18 -14q7 44 -2.5 79t-36.5 56.5t-75 21.5q-49 0 -82.5 -22.5t-52 -57.5t-25.5 -74l-4 -27
q-14 -80 24.5 -128t117.5 -48q33 0 66 8t61 26q16 9 28.5 8.5t20 -8.5t9.5 -19.5t-3.5 -24t-19.5 -21.5q-34 -24 -81 -35.5t-88 -11.5zM464 588q6 -15 1 -25.5t-15.5 -15.5t-22 -2.5t-17.5 14.5l-70 134l-101 -135q-8 -11 -20 -13.5t-21.5 3t-12 16.5t5.5 24l93 143
q12 19 27 28.5t34 9.5t33 -9t23 -29z" />
    <glyph glyph-name="edieresis" unicode="&#xeb;" horiz-adv-x="537" 
d="M275 -9q-72 0 -124.5 26.5t-81 75.5t-28.5 116q0 80 33 145t92.5 104t138.5 39q59 0 99 -20.5t63 -55.5t30.5 -79t2.5 -90q-2 -19 -10 -25t-23 -6h-346l8 62h307l-18 -14q7 44 -2.5 79t-36.5 56.5t-75 21.5q-49 0 -82.5 -22.5t-52 -57.5t-25.5 -74l-4 -27
q-14 -80 24.5 -128t117.5 -48q33 0 66 8t61 26q16 9 28.5 8.5t20 -8.5t9.5 -19.5t-3.5 -24t-19.5 -21.5q-34 -24 -81 -35.5t-88 -11.5zM426 600q-22 0 -34 11t-12 31q0 30 16.5 47t45.5 17q22 0 34 -10.5t12 -30.5q0 -30 -16 -47.5t-46 -17.5zM245 600q-23 0 -35 11t-12 31
q0 30 16.5 47t45.5 17q23 0 35 -10.5t12 -30.5q0 -30 -16 -47.5t-46 -17.5z" />
    <glyph glyph-name="igrave" unicode="&#xec;" horiz-adv-x="243" 
d="M81 -7q-23 0 -34 15.5t-7 43.5l63 393q4 25 18.5 37.5t39.5 12.5q23 0 34 -15.5t7 -43.5l-63 -393q-4 -25 -18 -37.5t-40 -12.5zM129 561l-100 143q-12 16 -10 30t11.5 22.5t23 11t27 -4.5t23.5 -25l80 -147q8 -15 4 -26.5t-14 -17t-23 -3t-22 16.5z" />
    <glyph glyph-name="iacute" unicode="&#xed;" horiz-adv-x="243" 
d="M81 -7q-23 0 -34 15.5t-7 43.5l63 393q4 25 18.5 37.5t39.5 12.5q23 0 34 -15.5t7 -43.5l-63 -393q-4 -25 -18 -37.5t-40 -12.5zM209 557q-10 -12 -21.5 -13.5t-21 5t-11.5 18t6 24.5l103 156q10 16 23.5 20.5t26 0.5t20.5 -14t8.5 -23.5t-11.5 -26.5z" />
    <glyph glyph-name="icircumflex" unicode="&#xee;" horiz-adv-x="243" 
d="M81 -7q-23 0 -34 15.5t-7 43.5l63 393q4 25 18.5 37.5t39.5 12.5q23 0 34 -15.5t7 -43.5l-63 -393q-4 -25 -18 -37.5t-40 -12.5zM308 588q6 -15 1 -25.5t-15.5 -15.5t-22 -2.5t-17.5 14.5l-70 134l-101 -135q-8 -11 -20 -13.5t-21.5 3t-12 16.5t5.5 24l93 143
q12 19 27 28.5t34 9.5t33 -9t23 -29z" />
    <glyph glyph-name="idieresis" unicode="&#xef;" horiz-adv-x="243" 
d="M81 -7q-23 0 -34 15.5t-7 43.5l63 393q4 25 18.5 37.5t39.5 12.5q23 0 34 -15.5t7 -43.5l-63 -393q-4 -25 -18 -37.5t-40 -12.5zM270 600q-22 0 -34 11t-12 31q0 30 16.5 47t45.5 17q22 0 34 -10.5t12 -30.5q0 -30 -16 -47.5t-46 -17.5zM89 600q-23 0 -35 11t-12 31
q0 30 16.5 47t45.5 17q23 0 35 -10.5t12 -30.5q0 -30 -16 -47.5t-46 -17.5z" />
    <glyph glyph-name="eth" unicode="&#xf0;" horiz-adv-x="569" 
d="M257 -9q-62 0 -112 24.5t-78.5 70t-28.5 104.5q0 78 32.5 136.5t89.5 91.5t128 33q46 0 83.5 -15t62 -47t29.5 -83l-20 -1q6 91 -24 163.5t-91 118.5l17 -2l-140 -61q-14 -6 -24 -1t-14 15t-0.5 20.5t16.5 16.5l108 46l-2 -9q-15 10 -33.5 17.5t-38.5 13.5
q-18 6 -25 18.5t-3.5 25t16.5 19.5t33 2q40 -11 74 -25.5t62 -33.5l-18 1l130 57q15 6 25.5 1.5t14.5 -15t0 -21t-18 -16.5l-101 -44l2 10q44 -38 71.5 -86t40.5 -103.5t13 -116.5q0 -65 -17 -124t-51 -104.5t-86 -71t-123 -25.5zM265 71q45 0 79.5 21t55.5 61.5t21 96.5
q0 58 -33 90.5t-92 32.5q-43 0 -78.5 -21t-56.5 -61t-21 -98t33.5 -90t91.5 -32z" />
    <glyph glyph-name="ntilde" unicode="&#xf1;" horiz-adv-x="576" 
d="M82 -7q-23 0 -34 16t-7 44l62 392q4 25 19 37.5t39 12.5q22 0 33 -14t6 -42l-11 -74l-6 17q25 56 72.5 85.5t112.5 29.5q54 0 90.5 -22t52 -67t4.5 -114l-39 -251q-3 -25 -18 -37.5t-40 -12.5q-24 0 -35 16t-7 43l38 240q10 63 -10 93.5t-72 30.5q-67 0 -106.5 -41
t-50.5 -112l-35 -220q-7 -50 -58 -50zM182 585q-13 1 -19.5 9.5t-2.5 22.5q6 27 17 48.5t26 36t33.5 22t39.5 7.5q25 0 42.5 -11t32.5 -25t30 -25t33 -11q21 0 38 15t24 40q3 12 12 17.5t21 4.5q13 -1 19 -9t3 -23q-8 -36 -25 -61.5t-40 -38.5t-52 -13q-24 0 -42.5 10.5
t-33 24.5t-29.5 25t-33 11q-20 0 -37 -15t-25 -40q-3 -11 -11.5 -17t-20.5 -5z" />
    <glyph glyph-name="ograve" unicode="&#xf2;" horiz-adv-x="565" 
d="M261 -9q-69 0 -118 26t-75.5 75t-26.5 116q0 64 19.5 116.5t55 91.5t83.5 60t105 21q69 0 118 -26.5t75.5 -75t26.5 -115.5q0 -64 -19.5 -117t-55 -91.5t-83.5 -59.5t-105 -21zM263 69q52 0 87 29t53.5 77.5t18.5 107.5q0 66 -32 100.5t-88 34.5q-51 0 -86.5 -28.5
t-54 -77t-18.5 -108.5q0 -65 32 -100t88 -35zM292 561l-100 143q-12 16 -10 30t11.5 22.5t23 11t27 -4.5t23.5 -25l80 -147q8 -15 4 -26.5t-14 -17t-23 -3t-22 16.5z" />
    <glyph glyph-name="oacute" unicode="&#xf3;" horiz-adv-x="565" 
d="M261 -9q-69 0 -118 26t-75.5 75t-26.5 116q0 64 19.5 116.5t55 91.5t83.5 60t105 21q69 0 118 -26.5t75.5 -75t26.5 -115.5q0 -64 -19.5 -117t-55 -91.5t-83.5 -59.5t-105 -21zM263 69q52 0 87 29t53.5 77.5t18.5 107.5q0 66 -32 100.5t-88 34.5q-51 0 -86.5 -28.5
t-54 -77t-18.5 -108.5q0 -65 32 -100t88 -35zM372 557q-10 -12 -21.5 -13.5t-21 5t-11.5 18t6 24.5l103 156q10 16 23.5 20.5t26 0.5t20.5 -14t8.5 -23.5t-11.5 -26.5z" />
    <glyph glyph-name="ocircumflex" unicode="&#xf4;" horiz-adv-x="565" 
d="M261 -9q-69 0 -118 26t-75.5 75t-26.5 116q0 64 19.5 116.5t55 91.5t83.5 60t105 21q69 0 118 -26.5t75.5 -75t26.5 -115.5q0 -64 -19.5 -117t-55 -91.5t-83.5 -59.5t-105 -21zM263 69q52 0 87 29t53.5 77.5t18.5 107.5q0 66 -32 100.5t-88 34.5q-51 0 -86.5 -28.5
t-54 -77t-18.5 -108.5q0 -65 32 -100t88 -35zM471 588q6 -15 1 -25.5t-15.5 -15.5t-22 -2.5t-17.5 14.5l-70 134l-101 -135q-8 -11 -20 -13.5t-21.5 3t-12 16.5t5.5 24l93 143q12 19 27 28.5t34 9.5t33 -9t23 -29z" />
    <glyph glyph-name="otilde" unicode="&#xf5;" horiz-adv-x="565" 
d="M261 -9q-69 0 -118 26t-75.5 75t-26.5 116q0 64 19.5 116.5t55 91.5t83.5 60t105 21q69 0 118 -26.5t75.5 -75t26.5 -115.5q0 -64 -19.5 -117t-55 -91.5t-83.5 -59.5t-105 -21zM263 69q52 0 87 29t53.5 77.5t18.5 107.5q0 66 -32 100.5t-88 34.5q-51 0 -86.5 -28.5
t-54 -77t-18.5 -108.5q0 -65 32 -100t88 -35zM180 585q-13 1 -19.5 9.5t-2.5 22.5q6 27 17 48.5t26 36t33.5 22t39.5 7.5q25 0 42.5 -11t32.5 -25t30 -25t33 -11q21 0 38 15t24 40q3 12 12 17.5t21 4.5q13 -1 19 -9t3 -23q-8 -36 -25 -61.5t-40 -38.5t-52 -13
q-24 0 -42.5 10.5t-33 24.5t-29.5 25t-33 11q-20 0 -37 -15t-25 -40q-3 -11 -11.5 -17t-20.5 -5z" />
    <glyph glyph-name="odieresis" unicode="&#xf6;" horiz-adv-x="565" 
d="M261 -9q-69 0 -118 26t-75.5 75t-26.5 116q0 64 19.5 116.5t55 91.5t83.5 60t105 21q69 0 118 -26.5t75.5 -75t26.5 -115.5q0 -64 -19.5 -117t-55 -91.5t-83.5 -59.5t-105 -21zM263 69q52 0 87 29t53.5 77.5t18.5 107.5q0 66 -32 100.5t-88 34.5q-51 0 -86.5 -28.5
t-54 -77t-18.5 -108.5q0 -65 32 -100t88 -35zM433 600q-22 0 -34 11t-12 31q0 30 16.5 47t45.5 17q22 0 34 -10.5t12 -30.5q0 -30 -16 -47.5t-46 -17.5zM252 600q-23 0 -35 11t-12 31q0 30 16.5 47t45.5 17q23 0 35 -10.5t12 -30.5q0 -30 -16 -47.5t-46 -17.5z" />
    <glyph glyph-name="divide" unicode="&#xf7;" horiz-adv-x="600" 
d="M95 250q-19 0 -29 8t-10 22q0 20 11.5 32t31.5 12h420q19 0 29 -8t10 -22q0 -21 -11.5 -32.5t-31.5 -11.5h-420zM262 37q-21 0 -33 11.5t-12 30.5q0 26 16.5 43.5t44.5 17.5q21 0 32 -11t11 -30q0 -27 -15.5 -44.5t-43.5 -17.5zM324 433q-21 0 -32.5 11.5t-11.5 30.5
q0 26 16.5 43.5t43.5 17.5q21 0 33 -11t12 -30q0 -27 -16 -44.5t-45 -17.5z" />
    <glyph glyph-name="oslash" unicode="&#xf8;" horiz-adv-x="565" 
d="M261 -9q-68 0 -117.5 26.5t-75.5 75.5t-26 116q0 63 19.5 116t55 91.5t83.5 59.5t105 21q69 0 118 -26.5t75.5 -75t26.5 -115.5q0 -64 -19.5 -117t-55 -91.5t-83.5 -59.5t-106 -21zM265 64q53 0 90 29t56 79t19 113q0 68 -33.5 103t-96.5 35q-52 0 -89 -28.5t-56.5 -78
t-19.5 -112.5q0 -69 34 -104.5t96 -35.5zM123 -26q-9 -12 -21 -13t-21.5 6t-12 19.5t7.5 25.5l369 501q9 12 21 13t21 -6t11 -19.5t-7 -25.5z" />
    <glyph glyph-name="ugrave" unicode="&#xf9;" horiz-adv-x="569" 
d="M206 -9q-52 0 -88.5 21.5t-52 67t-4.5 115.5l40 253q4 24 18 35.5t38 11.5t36 -14.5t8 -41.5l-39 -244q-9 -62 10.5 -92.5t69.5 -30.5q64 0 103 41.5t50 111.5l35 223q4 24 17.5 35.5t37.5 11.5q25 0 36.5 -14.5t7.5 -41.5l-63 -398q-7 -48 -55 -48q-23 0 -34.5 13
t-7.5 40l12 80l8 -19q-25 -56 -72.5 -86t-110.5 -30zM289 562l-100 143q-12 16 -10 30t11.5 22.5t23 11t27 -4.5t23.5 -25l80 -147q8 -15 4 -26.5t-14 -17t-23 -3t-22 16.5z" />
    <glyph glyph-name="uacute" unicode="&#xfa;" horiz-adv-x="569" 
d="M206 -9q-52 0 -88.5 21.5t-52 67t-4.5 115.5l40 253q4 24 18 35.5t38 11.5t36 -14.5t8 -41.5l-39 -244q-9 -62 10.5 -92.5t69.5 -30.5q64 0 103 41.5t50 111.5l35 223q4 24 17.5 35.5t37.5 11.5q25 0 36.5 -14.5t7.5 -41.5l-63 -398q-7 -48 -55 -48q-23 0 -34.5 13
t-7.5 40l12 80l8 -19q-25 -56 -72.5 -86t-110.5 -30zM369 558q-10 -12 -21.5 -13.5t-21 5t-11.5 18t6 24.5l103 156q10 16 23.5 20.5t26 0.5t20.5 -14t8.5 -23.5t-11.5 -26.5z" />
    <glyph glyph-name="ucircumflex" unicode="&#xfb;" horiz-adv-x="569" 
d="M206 -9q-52 0 -88.5 21.5t-52 67t-4.5 115.5l40 253q4 24 18 35.5t38 11.5t36 -14.5t8 -41.5l-39 -244q-9 -62 10.5 -92.5t69.5 -30.5q64 0 103 41.5t50 111.5l35 223q4 24 17.5 35.5t37.5 11.5q25 0 36.5 -14.5t7.5 -41.5l-63 -398q-7 -48 -55 -48q-23 0 -34.5 13
t-7.5 40l12 80l8 -19q-25 -56 -72.5 -86t-110.5 -30zM468 589q6 -15 1 -25.5t-15.5 -15.5t-22 -2.5t-17.5 14.5l-70 134l-101 -135q-8 -11 -20 -13.5t-21.5 3t-12 16.5t5.5 24l93 143q12 19 27 28.5t34 9.5t33 -9t23 -29z" />
    <glyph glyph-name="udieresis" unicode="&#xfc;" horiz-adv-x="569" 
d="M206 -9q-52 0 -88.5 21.5t-52 67t-4.5 115.5l40 253q4 24 18 35.5t38 11.5t36 -14.5t8 -41.5l-39 -244q-9 -62 10.5 -92.5t69.5 -30.5q64 0 103 41.5t50 111.5l35 223q4 24 17.5 35.5t37.5 11.5q25 0 36.5 -14.5t7.5 -41.5l-63 -398q-7 -48 -55 -48q-23 0 -34.5 13
t-7.5 40l12 80l8 -19q-25 -56 -72.5 -86t-110.5 -30zM430 601q-22 0 -34 11t-12 31q0 30 16.5 47t45.5 17q22 0 34 -10.5t12 -30.5q0 -30 -16 -47.5t-46 -17.5zM249 601q-23 0 -35 11t-12 31q0 30 16.5 47t45.5 17q23 0 35 -10.5t12 -30.5q0 -30 -16 -47.5t-46 -17.5z" />
    <glyph glyph-name="yacute" unicode="&#xfd;" horiz-adv-x="520" 
d="M121 -187q-19 0 -29.5 9t-11 24t8.5 31l95 157l-7 -43l-118 434q-5 20 -1.5 36t16.5 25t31 9q22 0 32.5 -10t16.5 -36l91 -367h-30l217 376q11 20 23 28.5t32 8.5q19 0 30.5 -9.5t12.5 -24t-9 -32.5l-345 -580q-11 -19 -23 -27.5t-32 -8.5zM335 557q-10 -12 -21.5 -13.5
t-21 5t-11.5 18t6 24.5l103 156q10 16 23.5 20.5t26 0.5t20.5 -14t8.5 -23.5t-11.5 -26.5z" />
    <glyph glyph-name="thorn" unicode="&#xfe;" horiz-adv-x="591" 
d="M54 -187q-24 0 -35 15t-7 43l125 790q4 26 18.5 38.5t39.5 12.5q23 0 34.5 -14t7.5 -43l-45 -286l-7 21q27 51 73 79t106 28q56 0 98 -25.5t65 -72.5t23 -112q0 -81 -28.5 -148.5t-83.5 -107.5t-132 -40q-58 0 -102.5 28t-61.5 85h8l-39 -243q-4 -25 -17.5 -36.5
t-39.5 -11.5zM290 69q51 0 86 29t53.5 77.5t18.5 107.5q0 66 -32 100.5t-88 34.5q-50 0 -85.5 -28.5t-54.5 -77t-19 -108.5q0 -65 32 -100t89 -35z" />
    <glyph glyph-name="ydieresis" unicode="&#xff;" horiz-adv-x="520" 
d="M121 -187q-19 0 -29.5 9t-11 24t8.5 31l95 157l-7 -43l-118 434q-5 20 -1.5 36t16.5 25t31 9q22 0 32.5 -10t16.5 -36l91 -367h-30l217 376q11 20 23 28.5t32 8.5q19 0 30.5 -9.5t12.5 -24t-9 -32.5l-345 -580q-11 -19 -23 -27.5t-32 -8.5zM396 600q-22 0 -34 11t-12 31
q0 30 16.5 47t45.5 17q22 0 34 -10.5t12 -30.5q0 -30 -16 -47.5t-46 -17.5zM215 600q-23 0 -35 11t-12 31q0 30 16.5 47t45.5 17q23 0 35 -10.5t12 -30.5q0 -30 -16 -47.5t-46 -17.5z" />
    <glyph glyph-name="Amacron" unicode="&#x100;" horiz-adv-x="736" 
d="M45 -7q-18 0 -30.5 8.5t-15 23t7.5 32.5l375 620q12 18 25.5 26.5t34.5 8.5t34.5 -10t19.5 -31l174 -611q7 -23 3 -38t-15.5 -22t-27.5 -7q-22 0 -34.5 11.5t-18.5 34.5l-41 155l35 -22h-420l45 20l-99 -168q-8 -16 -21 -23.5t-31 -7.5zM429 590l-206 -352l-23 18h349
l-25 -19l-93 353h-2zM324 811q-35 0 -35 26q0 18 10.5 27.5t27.5 9.5h278q34 0 34 -26q0 -17 -10 -27t-28 -10h-277z" />
    <glyph glyph-name="amacron" unicode="&#x101;" horiz-adv-x="537" 
d="M196 -9q-43 0 -80 19.5t-59 53t-22 75.5q0 52 28.5 84t89.5 47.5t157 15.5h80l-9 -62h-62q-69 0 -109.5 -7t-57.5 -24.5t-17 -47.5q0 -40 26.5 -61t63.5 -21q34 0 63 15t49.5 43.5t26.5 68.5l19 120q9 53 -14.5 81t-83.5 28q-35 0 -67.5 -7t-65.5 -24q-15 -8 -28 -5.5
t-21 11t-9 20.5t6.5 24t25.5 21q40 20 85 29t86 9q73 0 115.5 -27t58 -75t5.5 -111l-38 -241q-3 -25 -17.5 -37.5t-37.5 -12.5q-22 0 -33 14.5t-7 41.5l11 73l8 -15q-13 -39 -39.5 -65.5t-59 -38.5t-67.5 -12zM208 621q-34 0 -34 27q0 17 10.5 27t27.5 10h248q34 0 34 -27
q0 -17 -10 -27t-28 -10h-248z" />
    <glyph glyph-name="Abreve" unicode="&#x102;" horiz-adv-x="736" 
d="M45 -7q-18 0 -30.5 8.5t-15 23t7.5 32.5l375 620q12 18 25.5 26.5t34.5 8.5t34.5 -10t19.5 -31l174 -611q7 -23 3 -38t-15.5 -22t-27.5 -7q-22 0 -34.5 11.5t-18.5 34.5l-41 155l35 -22h-420l45 20l-99 -168q-8 -16 -21 -23.5t-31 -7.5zM429 590l-206 -352l-23 18h349
l-25 -19l-93 353h-2zM456 760q-69 0 -111.5 39.5t-49.5 103.5q-2 16 5 25.5t21 10.5q9 2 16.5 -1t12.5 -9t6 -16q3 -42 31.5 -65.5t71.5 -23.5q42 0 74.5 23t44.5 67q3 9 8 15t12.5 9t16.5 1q14 -1 21 -12t1 -28q-19 -64 -67.5 -101.5t-113.5 -37.5z" />
    <glyph glyph-name="abreve" unicode="&#x103;" horiz-adv-x="537" 
d="M196 -9q-43 0 -80 19.5t-59 53t-22 75.5q0 52 28.5 84t89.5 47.5t157 15.5h80l-9 -62h-62q-69 0 -109.5 -7t-57.5 -24.5t-17 -47.5q0 -40 26.5 -61t63.5 -21q34 0 63 15t49.5 43.5t26.5 68.5l19 120q9 53 -14.5 81t-83.5 28q-35 0 -67.5 -7t-65.5 -24q-15 -8 -28 -5.5
t-21 11t-9 20.5t6.5 24t25.5 21q40 20 85 29t86 9q73 0 115.5 -27t58 -75t5.5 -111l-38 -241q-3 -25 -17.5 -37.5t-37.5 -12.5q-22 0 -33 14.5t-7 41.5l11 73l8 -15q-13 -39 -39.5 -65.5t-59 -38.5t-67.5 -12zM327 550q-43 0 -75 20t-50.5 56.5t-20.5 86.5q-1 15 6 24.5
t21 10.5q14 2 24 -4.5t10 -22.5q2 -52 25.5 -79.5t62.5 -27.5q38 0 66.5 28t38.5 80q4 14 13 21t23 5q14 -1 20.5 -12t2.5 -29q-11 -50 -34.5 -85t-57.5 -53.5t-75 -18.5z" />
    <glyph glyph-name="Aogonek" unicode="&#x104;" horiz-adv-x="736" 
d="M622 -194q-51 0 -76.5 26t-25.5 65t19.5 70t55.5 54l-4 -12q-5 5 -8.5 12.5t-5.5 17.5l-41 155l35 -22h-420l45 20l-99 -168q-8 -16 -21 -23.5t-31 -7.5t-30.5 8.5t-15 23t7.5 32.5l375 620q12 18 25.5 26.5t34.5 8.5t34.5 -10t19.5 -31l174 -611q7 -26 1 -41.5
t-20 -22.5q-21 -10 -35 -22.5t-21 -27t-7 -32.5q0 -22 13.5 -36t38.5 -14q8 0 16.5 1.5t18.5 4.5q14 4 21.5 -1.5t9 -16.5t-3 -21t-14.5 -14q-14 -5 -32 -8t-34 -3zM429 590l-206 -352l-23 18h349l-25 -19l-93 353h-2z" />
    <glyph glyph-name="aogonek" unicode="&#x105;" horiz-adv-x="537" 
d="M369 -194q-51 0 -76.5 26t-25.5 65q0 42 22 74.5t62 54.5l-5 -12q-3 7 -3.5 16t0.5 19l11 73l8 -15q-13 -39 -39.5 -65.5t-59 -38.5t-67.5 -12q-43 0 -80 19.5t-59 53t-22 75.5q0 52 28.5 84t89.5 47.5t157 15.5h80l-9 -62h-62q-69 0 -109.5 -7t-57.5 -24.5t-17 -47.5
q0 -40 26.5 -61t63.5 -21q34 0 63 15t49.5 43.5t26.5 68.5l19 120q9 53 -14.5 81t-83.5 28q-35 0 -67.5 -7t-65.5 -24q-15 -8 -28 -5.5t-21 11t-9 20.5t6.5 24t25.5 21q40 20 85 29t86 9q73 0 115.5 -27t58 -75t5.5 -111l-38 -241q-3 -20 -13 -32t-26 -17q-32 -12 -48 -33
t-16 -47q0 -22 13.5 -36t38.5 -14q8 0 16.5 1.5t18.5 4.5q14 4 21.5 -1.5t9 -16.5t-3 -21t-14.5 -14q-14 -5 -32 -8t-34 -3z" />
    <glyph glyph-name="Cacute" unicode="&#x106;" horiz-adv-x="676" 
d="M387 -9q-92 0 -162.5 34.5t-110.5 105t-40 178.5q0 86 25.5 159.5t73 128.5t117 86t156.5 31q60 0 114 -17t94 -49q15 -11 18.5 -25.5t-1 -28.5t-14 -23.5t-23 -11t-27.5 7.5q-39 30 -79 42.5t-86 12.5q-81 0 -139 -40.5t-88.5 -111t-30.5 -159.5q0 -81 25 -131
t72.5 -73.5t115.5 -23.5q42 0 79 11.5t75 38.5q16 10 30 8.5t23.5 -11t12.5 -23t-2 -27.5t-20 -24q-45 -33 -99 -49t-109 -16zM492 770q-11 -11 -23.5 -11.5t-21.5 6.5t-11 18.5t7 22.5l93 123q11 15 25 18.5t26 -0.5t20 -13.5t7.5 -22.5t-13.5 -26z" />
    <glyph glyph-name="cacute" unicode="&#x107;" horiz-adv-x="467" 
d="M264 -9q-75 0 -124.5 27.5t-74 77t-24.5 114.5q0 54 16 105.5t48.5 92t83.5 65t120 24.5q37 0 72.5 -9.5t61.5 -25.5q17 -10 23.5 -22.5t4.5 -25t-9.5 -21.5t-19.5 -11.5t-26 5.5q-24 16 -48.5 23t-53.5 7q-46 0 -78 -17.5t-52.5 -48t-29.5 -66.5t-9 -74q0 -64 30.5 -102
t101.5 -38q22 0 46 6t49 22q12 6 23 4t19 -10.5t10 -19.5t-2.5 -23t-19.5 -21q-26 -18 -65 -28t-73 -10zM355 557q-10 -12 -21.5 -13.5t-21 5t-11.5 18t6 24.5l103 156q10 16 23.5 20.5t26 0.5t20.5 -14t8.5 -23.5t-11.5 -26.5z" />
    <glyph glyph-name="Ccircumflex" unicode="&#x108;" horiz-adv-x="676" 
d="M387 -9q-92 0 -162.5 34.5t-110.5 105t-40 178.5q0 86 25.5 159.5t73 128.5t117 86t156.5 31q60 0 114 -17t94 -49q15 -11 18.5 -25.5t-1 -28.5t-14 -23.5t-23 -11t-27.5 7.5q-39 30 -79 42.5t-86 12.5q-81 0 -139 -40.5t-88.5 -111t-30.5 -159.5q0 -81 25 -131
t72.5 -73.5t115.5 -23.5q42 0 79 11.5t75 38.5q16 10 30 8.5t23.5 -11t12.5 -23t-2 -27.5t-20 -24q-45 -33 -99 -49t-109 -16zM350 769q-10 -11 -22.5 -12t-21.5 5t-11 16t7 22l92 114q15 18 31 26.5t37 8.5q20 0 34 -10t26 -30l66 -108q9 -14 5.5 -25t-14.5 -16.5
t-24.5 -2.5t-23.5 16l-76 104z" />
    <glyph glyph-name="ccircumflex" unicode="&#x109;" horiz-adv-x="467" 
d="M264 -9q-75 0 -124.5 27.5t-74 77t-24.5 114.5q0 54 16 105.5t48.5 92t83.5 65t120 24.5q37 0 72.5 -9.5t61.5 -25.5q17 -10 23.5 -22.5t4.5 -25t-9.5 -21.5t-19.5 -11.5t-26 5.5q-24 16 -48.5 23t-53.5 7q-46 0 -78 -17.5t-52.5 -48t-29.5 -66.5t-9 -74q0 -64 30.5 -102
t101.5 -38q22 0 46 6t49 22q12 6 23 4t19 -10.5t10 -19.5t-2.5 -23t-19.5 -21q-26 -18 -65 -28t-73 -10zM454 588q6 -15 1 -25.5t-15.5 -15.5t-22 -2.5t-17.5 14.5l-70 134l-101 -135q-8 -11 -20 -13.5t-21.5 3t-12 16.5t5.5 24l93 143q12 19 27 28.5t34 9.5t33 -9t23 -29z
" />
    <glyph glyph-name="Cdotaccent" unicode="&#x10a;" horiz-adv-x="676" 
d="M387 -9q-92 0 -162.5 34.5t-110.5 105t-40 178.5q0 86 25.5 159.5t73 128.5t117 86t156.5 31q60 0 114 -17t94 -49q15 -11 18.5 -25.5t-1 -28.5t-14 -23.5t-23 -11t-27.5 7.5q-39 30 -79 42.5t-86 12.5q-81 0 -139 -40.5t-88.5 -111t-30.5 -159.5q0 -81 25 -131
t72.5 -73.5t115.5 -23.5q42 0 79 11.5t75 38.5q16 10 30 8.5t23.5 -11t12.5 -23t-2 -27.5t-20 -24q-45 -33 -99 -49t-109 -16zM454 797q-23 0 -36 11t-13 32q0 32 17.5 48.5t49.5 16.5q23 0 36 -10.5t13 -32.5q0 -29 -17.5 -47t-49.5 -18z" />
    <glyph glyph-name="cdotaccent" unicode="&#x10b;" horiz-adv-x="467" 
d="M264 -9q-75 0 -124.5 27.5t-74 77t-24.5 114.5q0 54 16 105.5t48.5 92t83.5 65t120 24.5q37 0 72.5 -9.5t61.5 -25.5q17 -10 23.5 -22.5t4.5 -25t-9.5 -21.5t-19.5 -11.5t-26 5.5q-24 16 -48.5 23t-53.5 7q-46 0 -78 -17.5t-52.5 -48t-29.5 -66.5t-9 -74q0 -64 30.5 -102
t101.5 -38q22 0 46 6t49 22q12 6 23 4t19 -10.5t10 -19.5t-2.5 -23t-19.5 -21q-26 -18 -65 -28t-73 -10zM324 600q-23 0 -36 11t-13 32q0 31 17.5 48t49.5 17q23 0 36 -11t13 -31q0 -31 -18 -48.5t-49 -17.5z" />
    <glyph glyph-name="Ccaron" unicode="&#x10c;" horiz-adv-x="676" 
d="M387 -9q-92 0 -162.5 34.5t-110.5 105t-40 178.5q0 86 25.5 159.5t73 128.5t117 86t156.5 31q60 0 114 -17t94 -49q15 -11 18.5 -25.5t-1 -28.5t-14 -23.5t-23 -11t-27.5 7.5q-39 30 -79 42.5t-86 12.5q-81 0 -139 -40.5t-88.5 -111t-30.5 -159.5q0 -81 25 -131
t72.5 -73.5t115.5 -23.5q42 0 79 11.5t75 38.5q16 10 30 8.5t23.5 -11t12.5 -23t-2 -27.5t-20 -24q-45 -33 -99 -49t-109 -16zM446 754q-20 0 -33.5 10.5t-25.5 29.5l-67 108q-9 15 -5.5 25.5t14 16t23.5 2.5t23 -17l77 -103l104 109q10 11 23 12t23 -5t12 -16.5t-7 -22.5
l-92 -112q-15 -19 -31 -28t-38 -9z" />
    <glyph glyph-name="ccaron" unicode="&#x10d;" horiz-adv-x="467" 
d="M264 -9q-75 0 -124.5 27.5t-74 77t-24.5 114.5q0 54 16 105.5t48.5 92t83.5 65t120 24.5q37 0 72.5 -9.5t61.5 -25.5q17 -10 23.5 -22.5t4.5 -25t-9.5 -21.5t-19.5 -11.5t-26 5.5q-24 16 -48.5 23t-53.5 7q-46 0 -78 -17.5t-52.5 -48t-29.5 -66.5t-9 -74q0 -64 30.5 -102
t101.5 -38q22 0 46 6t49 22q12 6 23 4t19 -10.5t10 -19.5t-2.5 -23t-19.5 -21q-26 -18 -65 -28t-73 -10zM315 540q-19 0 -33.5 9.5t-22.5 29.5l-62 143q-6 15 -1.5 26t15 15.5t22.5 1.5t18 -16l70 -135l103 137q9 12 21 14.5t21 -3t12 -16t-6 -25.5l-92 -140
q-13 -20 -29.5 -30.5t-35.5 -10.5z" />
    <glyph glyph-name="Dcaron" unicode="&#x10e;" horiz-adv-x="751" 
d="M104 0q-28 0 -41.5 16t-9.5 44l95 594q4 26 19 38.5t40 12.5h164q164 0 253 -78t89 -220q0 -85 -24 -158.5t-74 -129.5t-125 -87.5t-178 -31.5h-208zM161 87h153q77 0 132.5 24.5t90.5 68t51.5 102t16.5 124.5q0 104 -59 158t-175 54h-126zM445 754q-20 0 -33.5 10.5
t-25.5 29.5l-67 108q-9 15 -5.5 25.5t14 16t23.5 2.5t23 -17l77 -103l104 109q10 11 23 12t23 -5t12 -16.5t-7 -22.5l-92 -112q-15 -19 -31 -28t-38 -9z" />
    <glyph glyph-name="dcaron" unicode="&#x10f;" horiz-adv-x="591" 
d="M226 -9q-56 0 -97.5 25.5t-65 72.5t-23.5 111q0 82 29 149.5t84 107.5t132 40q58 0 102.5 -28.5t61.5 -85.5l-7 1l44 280q4 26 18.5 37t39.5 11q23 0 34 -14.5t7 -42.5l-97 -611q-4 -25 -18.5 -38t-39.5 -13q-23 0 -33.5 16t-5.5 44l11 66l4 -21q-27 -49 -73 -78
t-107 -29zM263 69q51 0 86 29t53.5 77.5t18.5 107.5q0 66 -32 100.5t-88 34.5q-51 0 -86 -28.5t-54 -77t-19 -108.5q0 -65 32 -100t89 -35zM630 508q-11 0 -17 7.5t-3 21.5l23 142q5 33 39 33q19 0 27 -10.5t2 -30.5l-41 -139q-6 -24 -30 -24z" />
    <glyph glyph-name="Dcroat" unicode="&#x110;" horiz-adv-x="751" 
d="M104 0q-28 0 -41.5 16t-9.5 44l95 594q4 26 19 38.5t40 12.5h164q164 0 253 -78t89 -220q0 -85 -24 -158.5t-74 -129.5t-125 -87.5t-178 -31.5h-208zM161 87h153q77 0 132.5 24.5t90.5 68t51.5 102t16.5 124.5q0 104 -59 158t-175 54h-126zM48 319q-20 0 -31.5 8
t-11.5 24q0 22 13 33.5t35 11.5h309q21 0 32 -8t11 -23q0 -22 -12.5 -34t-35.5 -12h-309z" />
    <glyph glyph-name="dcroat" unicode="&#x111;" horiz-adv-x="591" 
d="M226 -9q-56 0 -97.5 25.5t-65 72.5t-23.5 111q0 82 29 149.5t84 107.5t132 40q58 0 102.5 -28.5t61.5 -85.5l-8 1l27 165h-151q-20 0 -30.5 7.5t-10.5 22.5q0 20 12 31.5t33 11.5h178l-26 -41l13 82q4 25 18.5 37t39.5 12q23 0 34.5 -14t6.5 -42l-12 -75l-14 41h70
q20 0 30.5 -7.5t10.5 -22.5q0 -20 -12.5 -31.5t-33.5 -11.5h-56l-80 -505q-4 -25 -18.5 -38t-39.5 -13q-24 0 -34 16t-5 44l11 66l4 -21q-27 -49 -73 -78t-107 -29zM263 69q51 0 86 29t53.5 77.5t18.5 107.5q0 66 -32 100.5t-88 34.5q-51 0 -86 -28.5t-54 -77t-19 -108.5
q0 -65 32 -100t89 -35z" />
    <glyph glyph-name="Emacron" unicode="&#x112;" horiz-adv-x="589" 
d="M105 0q-29 0 -42.5 15.5t-9.5 44.5l95 594q4 26 19 38.5t40 12.5h362q21 0 32.5 -8.5t11.5 -24.5q0 -25 -13.5 -38t-35.5 -13h-322l-35 -221h293q21 0 32 -8.5t11 -25.5q0 -24 -13.5 -37t-35.5 -13h-300l-38 -232h314q21 0 32.5 -8.5t11.5 -25.5q0 -24 -13.5 -37
t-35.5 -13h-360zM282 811q-35 0 -35 26q0 18 10.5 27.5t27.5 9.5h278q34 0 34 -26q0 -17 -10 -27t-28 -10h-277z" />
    <glyph glyph-name="emacron" unicode="&#x113;" horiz-adv-x="537" 
d="M275 -9q-72 0 -124.5 26.5t-81 75.5t-28.5 116q0 80 33 145t92.5 104t138.5 39q59 0 99 -20.5t63 -55.5t30.5 -79t2.5 -90q-2 -19 -10 -25t-23 -6h-346l8 62h307l-18 -14q7 44 -2.5 79t-36.5 56.5t-75 21.5q-49 0 -82.5 -22.5t-52 -57.5t-25.5 -74l-4 -27
q-14 -80 24.5 -128t117.5 -48q33 0 66 8t61 26q16 9 28.5 8.5t20 -8.5t9.5 -19.5t-3.5 -24t-19.5 -21.5q-34 -24 -81 -35.5t-88 -11.5zM217 621q-34 0 -34 27q0 17 10.5 27t27.5 10h248q34 0 34 -27q0 -17 -10 -27t-28 -10h-248z" />
    <glyph glyph-name="Ebreve" unicode="&#x114;" horiz-adv-x="589" 
d="M105 0q-29 0 -42.5 15.5t-9.5 44.5l95 594q4 26 19 38.5t40 12.5h362q21 0 32.5 -8.5t11.5 -24.5q0 -25 -13.5 -38t-35.5 -13h-322l-35 -221h293q21 0 32 -8.5t11 -25.5q0 -24 -13.5 -37t-35.5 -13h-300l-38 -232h314q21 0 32.5 -8.5t11.5 -25.5q0 -24 -13.5 -37
t-35.5 -13h-360zM414 760q-69 0 -111.5 39.5t-49.5 103.5q-2 16 5 25.5t21 10.5q9 2 16.5 -1t12.5 -9t6 -16q3 -42 31.5 -65.5t71.5 -23.5q42 0 74.5 23t44.5 67q3 9 8 15t12.5 9t16.5 1q14 -1 21 -12t1 -28q-19 -64 -67.5 -101.5t-113.5 -37.5z" />
    <glyph glyph-name="ebreve" unicode="&#x115;" horiz-adv-x="537" 
d="M275 -9q-72 0 -124.5 26.5t-81 75.5t-28.5 116q0 80 33 145t92.5 104t138.5 39q59 0 99 -20.5t63 -55.5t30.5 -79t2.5 -90q-2 -19 -10 -25t-23 -6h-346l8 62h307l-18 -14q7 44 -2.5 79t-36.5 56.5t-75 21.5q-49 0 -82.5 -22.5t-52 -57.5t-25.5 -74l-4 -27
q-14 -80 24.5 -128t117.5 -48q33 0 66 8t61 26q16 9 28.5 8.5t20 -8.5t9.5 -19.5t-3.5 -24t-19.5 -21.5q-34 -24 -81 -35.5t-88 -11.5zM336 550q-43 0 -75 20t-50.5 56.5t-20.5 86.5q-1 15 6 24.5t21 10.5q14 2 24 -4.5t10 -22.5q2 -52 25.5 -79.5t62.5 -27.5q38 0 66.5 28
t38.5 80q4 14 13 21t23 5q14 -1 20.5 -12t2.5 -29q-11 -50 -34.5 -85t-57.5 -53.5t-75 -18.5z" />
    <glyph glyph-name="Edotaccent" unicode="&#x116;" horiz-adv-x="589" 
d="M105 0q-29 0 -42.5 15.5t-9.5 44.5l95 594q4 26 19 38.5t40 12.5h362q21 0 32.5 -8.5t11.5 -24.5q0 -25 -13.5 -38t-35.5 -13h-322l-35 -221h293q21 0 32 -8.5t11 -25.5q0 -24 -13.5 -37t-35.5 -13h-300l-38 -232h314q21 0 32.5 -8.5t11.5 -25.5q0 -24 -13.5 -37
t-35.5 -13h-360zM415 797q-23 0 -36 11t-13 32q0 32 17.5 48.5t49.5 16.5q23 0 36 -10.5t13 -32.5q0 -29 -17.5 -47t-49.5 -18z" />
    <glyph glyph-name="edotaccent" unicode="&#x117;" horiz-adv-x="537" 
d="M275 -9q-72 0 -124.5 26.5t-81 75.5t-28.5 116q0 80 33 145t92.5 104t138.5 39q59 0 99 -20.5t63 -55.5t30.5 -79t2.5 -90q-2 -19 -10 -25t-23 -6h-346l8 62h307l-18 -14q7 44 -2.5 79t-36.5 56.5t-75 21.5q-49 0 -82.5 -22.5t-52 -57.5t-25.5 -74l-4 -27
q-14 -80 24.5 -128t117.5 -48q33 0 66 8t61 26q16 9 28.5 8.5t20 -8.5t9.5 -19.5t-3.5 -24t-19.5 -21.5q-34 -24 -81 -35.5t-88 -11.5zM334 600q-23 0 -36 11t-13 32q0 31 17.5 48t49.5 17q23 0 36 -11t13 -31q0 -31 -18 -48.5t-49 -17.5z" />
    <glyph glyph-name="Eogonek" unicode="&#x118;" horiz-adv-x="589" 
d="M105 0q-29 0 -42.5 15.5t-9.5 44.5l95 594q4 26 19 38.5t40 12.5h362q21 0 32.5 -8.5t11.5 -24.5q0 -25 -13.5 -38t-35.5 -13h-322l-35 -221h293q21 0 32 -8.5t11 -25.5q0 -24 -13.5 -37t-35.5 -13h-300l-38 -232h314q21 0 32.5 -8.5t11.5 -25.5q0 -24 -13.5 -37
t-35.5 -13h-360zM418 -194q-51 0 -76.5 26t-25.5 65q0 47 28.5 83t80.5 59l29 -39q-23 -9 -38.5 -22.5t-24 -29.5t-8.5 -34q0 -22 14 -36t38 -14q9 0 17.5 1.5t18.5 4.5q14 4 21.5 -1.5t9 -16.5t-3 -21t-14.5 -14q-15 -5 -32.5 -8t-33.5 -3z" />
    <glyph glyph-name="eogonek" unicode="&#x119;" horiz-adv-x="537" 
d="M275 -9q-72 0 -124.5 26.5t-81 75.5t-28.5 116q0 80 33 145t92.5 104t138.5 39q59 0 99 -20.5t63 -55.5t30.5 -79t2.5 -90q-2 -19 -10 -25t-23 -6h-346l8 62h307l-18 -14q7 44 -2.5 79t-36.5 56.5t-75 21.5q-49 0 -82.5 -22.5t-52 -57.5t-25.5 -74l-4 -27
q-14 -80 24.5 -128t117.5 -48q33 0 66 8t61 26q16 9 28.5 8.5t20 -8.5t9.5 -19.5t-3.5 -24t-19.5 -21.5q-34 -24 -81 -35.5t-88 -11.5zM293 -194q-51 0 -76.5 26t-25.5 65q0 47 28.5 83t80.5 59l29 -39q-23 -9 -38.5 -22.5t-24 -29.5t-8.5 -34q0 -22 14 -36t38 -14
q9 0 17.5 1.5t18.5 4.5q14 4 21.5 -1.5t9 -16.5t-3 -21t-14.5 -14q-15 -5 -32.5 -8t-33.5 -3z" />
    <glyph glyph-name="Ecaron" unicode="&#x11a;" horiz-adv-x="589" 
d="M105 0q-29 0 -42.5 15.5t-9.5 44.5l95 594q4 26 19 38.5t40 12.5h362q21 0 32.5 -8.5t11.5 -24.5q0 -25 -13.5 -38t-35.5 -13h-322l-35 -221h293q21 0 32 -8.5t11 -25.5q0 -24 -13.5 -37t-35.5 -13h-300l-38 -232h314q21 0 32.5 -8.5t11.5 -25.5q0 -24 -13.5 -37
t-35.5 -13h-360zM407 754q-20 0 -33.5 10.5t-25.5 29.5l-67 108q-9 15 -5.5 25.5t14 16t23.5 2.5t23 -17l77 -103l104 109q10 11 23 12t23 -5t12 -16.5t-7 -22.5l-92 -112q-15 -19 -31 -28t-38 -9z" />
    <glyph glyph-name="ecaron" unicode="&#x11b;" horiz-adv-x="537" 
d="M275 -9q-72 0 -124.5 26.5t-81 75.5t-28.5 116q0 80 33 145t92.5 104t138.5 39q59 0 99 -20.5t63 -55.5t30.5 -79t2.5 -90q-2 -19 -10 -25t-23 -6h-346l8 62h307l-18 -14q7 44 -2.5 79t-36.5 56.5t-75 21.5q-49 0 -82.5 -22.5t-52 -57.5t-25.5 -74l-4 -27
q-14 -80 24.5 -128t117.5 -48q33 0 66 8t61 26q16 9 28.5 8.5t20 -8.5t9.5 -19.5t-3.5 -24t-19.5 -21.5q-34 -24 -81 -35.5t-88 -11.5zM325 540q-19 0 -33.5 9.5t-22.5 29.5l-62 143q-6 15 -1.5 26t15 15.5t22.5 1.5t18 -16l70 -135l103 137q9 12 21 14.5t21 -3t12 -16
t-6 -25.5l-92 -140q-13 -20 -29.5 -30.5t-35.5 -10.5z" />
    <glyph glyph-name="Gcircumflex" unicode="&#x11c;" horiz-adv-x="731" 
d="M394 -9q-98 0 -170 35t-111.5 104t-39.5 169q0 92 26 167.5t75 131.5t119 86t159 30q63 0 117.5 -16t93.5 -46q16 -11 20.5 -26t0.5 -29.5t-14 -24.5t-24 -11.5t-30 9.5q-35 28 -77.5 40.5t-92.5 12.5q-83 0 -142 -41t-90.5 -113t-31.5 -166q0 -113 58 -167.5t167 -54.5
q45 0 84.5 8t75.5 21l-28 -48l38 233h-129q-20 0 -32 9t-12 25q0 21 13.5 32.5t35.5 11.5h172q24 0 35.5 -13t7.5 -37l-39 -252q-4 -19 -12.5 -30.5t-26.5 -18.5q-39 -15 -92 -23t-104 -8zM354 769q-10 -11 -22.5 -12t-21.5 5t-11 16t7 22l92 114q15 18 31 26.5t37 8.5
q20 0 34 -10t26 -30l66 -108q9 -14 5.5 -25t-14.5 -16.5t-24.5 -2.5t-23.5 16l-76 104z" />
    <glyph glyph-name="gcircumflex" unicode="&#x11d;" horiz-adv-x="594" 
d="M252 -189q-59 0 -111 14.5t-92 39.5q-14 8 -18.5 20t-1.5 24t11.5 20.5t21 10.5t27.5 -7q33 -20 70 -32t79 -12q63 0 101.5 30t49.5 95l17 105l8 -1q-24 -50 -71 -78t-107 -28q-59 0 -102.5 24t-68 69t-24.5 107q0 56 17 107.5t49 91.5t77.5 63t103.5 23q59 0 104 -28.5
t62 -85.5l-11 -20l13 83q4 25 18.5 37t38.5 12t34 -15.5t6 -43.5l-66 -417q-16 -103 -74.5 -155.5t-160.5 -52.5zM265 91q52 0 88 28t54.5 74.5t18.5 99.5q0 59 -32 92t-91 33q-51 0 -87 -28t-54.5 -74t-18.5 -99q0 -60 32 -93t90 -33zM480 588q6 -15 1 -25.5t-15.5 -15.5
t-22 -2.5t-17.5 14.5l-70 134l-101 -135q-8 -11 -20 -13.5t-21.5 3t-12 16.5t5.5 24l93 143q12 19 27 28.5t34 9.5t33 -9t23 -29z" />
    <glyph glyph-name="Gbreve" unicode="&#x11e;" horiz-adv-x="731" 
d="M394 -9q-98 0 -170 35t-111.5 104t-39.5 169q0 92 26 167.5t75 131.5t119 86t159 30q63 0 117.5 -16t93.5 -46q16 -11 20.5 -26t0.5 -29.5t-14 -24.5t-24 -11.5t-30 9.5q-35 28 -77.5 40.5t-92.5 12.5q-83 0 -142 -41t-90.5 -113t-31.5 -166q0 -113 58 -167.5t167 -54.5
q45 0 84.5 8t75.5 21l-28 -48l38 233h-129q-20 0 -32 9t-12 25q0 21 13.5 32.5t35.5 11.5h172q24 0 35.5 -13t7.5 -37l-39 -252q-4 -19 -12.5 -30.5t-26.5 -18.5q-39 -15 -92 -23t-104 -8zM457 760q-69 0 -111.5 39.5t-49.5 103.5q-2 16 5 25.5t21 10.5q9 2 16.5 -1t12.5 -9
t6 -16q3 -42 31.5 -65.5t71.5 -23.5q42 0 74.5 23t44.5 67q3 9 8 15t12.5 9t16.5 1q14 -1 21 -12t1 -28q-19 -64 -67.5 -101.5t-113.5 -37.5z" />
    <glyph glyph-name="gbreve" unicode="&#x11f;" horiz-adv-x="594" 
d="M252 -189q-59 0 -111 14.5t-92 39.5q-14 8 -18.5 20t-1.5 24t11.5 20.5t21 10.5t27.5 -7q33 -20 70 -32t79 -12q63 0 101.5 30t49.5 95l17 105l8 -1q-24 -50 -71 -78t-107 -28q-59 0 -102.5 24t-68 69t-24.5 107q0 56 17 107.5t49 91.5t77.5 63t103.5 23q59 0 104 -28.5
t62 -85.5l-11 -20l13 83q4 25 18.5 37t38.5 12t34 -15.5t6 -43.5l-66 -417q-16 -103 -74.5 -155.5t-160.5 -52.5zM265 91q52 0 88 28t54.5 74.5t18.5 99.5q0 59 -32 92t-91 33q-51 0 -87 -28t-54.5 -74t-18.5 -99q0 -60 32 -93t90 -33zM352 550q-43 0 -75 20t-50.5 56.5
t-20.5 86.5q-1 15 6 24.5t21 10.5q14 2 24 -4.5t10 -22.5q2 -52 25.5 -79.5t62.5 -27.5q38 0 66.5 28t38.5 80q4 14 13 21t23 5q14 -1 20.5 -12t2.5 -29q-11 -50 -34.5 -85t-57.5 -53.5t-75 -18.5z" />
    <glyph glyph-name="Gdotaccent" unicode="&#x120;" horiz-adv-x="731" 
d="M394 -9q-98 0 -170 35t-111.5 104t-39.5 169q0 92 26 167.5t75 131.5t119 86t159 30q63 0 117.5 -16t93.5 -46q16 -11 20.5 -26t0.5 -29.5t-14 -24.5t-24 -11.5t-30 9.5q-35 28 -77.5 40.5t-92.5 12.5q-83 0 -142 -41t-90.5 -113t-31.5 -166q0 -113 58 -167.5t167 -54.5
q45 0 84.5 8t75.5 21l-28 -48l38 233h-129q-20 0 -32 9t-12 25q0 21 13.5 32.5t35.5 11.5h172q24 0 35.5 -13t7.5 -37l-39 -252q-4 -19 -12.5 -30.5t-26.5 -18.5q-39 -15 -92 -23t-104 -8zM458 797q-23 0 -36 11t-13 32q0 32 17.5 48.5t49.5 16.5q23 0 36 -10.5t13 -32.5
q0 -29 -17.5 -47t-49.5 -18z" />
    <glyph glyph-name="gdotaccent" unicode="&#x121;" horiz-adv-x="594" 
d="M252 -189q-59 0 -111 14.5t-92 39.5q-14 8 -18.5 20t-1.5 24t11.5 20.5t21 10.5t27.5 -7q33 -20 70 -32t79 -12q63 0 101.5 30t49.5 95l17 105l8 -1q-24 -50 -71 -78t-107 -28q-59 0 -102.5 24t-68 69t-24.5 107q0 56 17 107.5t49 91.5t77.5 63t103.5 23q59 0 104 -28.5
t62 -85.5l-11 -20l13 83q4 25 18.5 37t38.5 12t34 -15.5t6 -43.5l-66 -417q-16 -103 -74.5 -155.5t-160.5 -52.5zM265 91q52 0 88 28t54.5 74.5t18.5 99.5q0 59 -32 92t-91 33q-51 0 -87 -28t-54.5 -74t-18.5 -99q0 -60 32 -93t90 -33zM350 600q-23 0 -36 11t-13 32
q0 31 17.5 48t49.5 17q23 0 36 -11t13 -31q0 -31 -18 -48.5t-49 -17.5z" />
    <glyph glyph-name="uni0122" unicode="&#x122;" horiz-adv-x="731" 
d="M394 -9q-98 0 -170 35t-111.5 104t-39.5 169q0 92 26 167.5t75 131.5t119 86t159 30q63 0 117.5 -16t93.5 -46q16 -11 20.5 -26t0.5 -29.5t-14 -24.5t-24 -11.5t-30 9.5q-35 28 -77.5 40.5t-92.5 12.5q-83 0 -142 -41t-90.5 -113t-31.5 -166q0 -113 58 -167.5t167 -54.5
q45 0 84.5 8t75.5 21l-28 -48l38 233h-129q-20 0 -32 9t-12 25q0 21 13.5 32.5t35.5 11.5h172q24 0 35.5 -13t7.5 -37l-39 -252q-4 -19 -12.5 -30.5t-26.5 -18.5q-39 -15 -92 -23t-104 -8zM367 -256q-11 -11 -22.5 -11.5t-19 6t-7.5 17t12 22.5q14 15 21 30.5t9 32.5l3 -18
q-28 0 -42.5 12.5t-14.5 34.5q0 28 17 43t46 15q26 0 39.5 -13t13.5 -39q0 -24 -7 -48.5t-19.5 -46t-28.5 -37.5z" />
    <glyph glyph-name="uni0123" unicode="&#x123;" horiz-adv-x="594" 
d="M252 -189q-59 0 -111 14.5t-92 39.5q-14 8 -18.5 20t-1.5 24t11.5 20.5t21 10.5t27.5 -7q33 -20 70 -32t79 -12q63 0 101.5 30t49.5 95l17 105l8 -1q-24 -50 -71 -78t-107 -28q-59 0 -102.5 24t-68 69t-24.5 107q0 56 17 107.5t49 91.5t77.5 63t103.5 23q59 0 104 -28.5
t62 -85.5l-11 -20l13 83q4 25 18.5 37t38.5 12t34 -15.5t6 -43.5l-66 -417q-16 -103 -74.5 -155.5t-160.5 -52.5zM265 91q52 0 88 28t54.5 74.5t18.5 99.5q0 59 -32 92t-91 33q-51 0 -87 -28t-54.5 -74t-18.5 -99q0 -60 32 -93t90 -33zM349 561q-26 0 -39.5 13t-13.5 39
q0 24 7 48.5t19.5 46.5t28.5 37q11 11 22.5 11.5t19 -6t7.5 -17t-12 -22.5q-14 -15 -21 -30.5t-9 -32.5l-3 18q28 0 42.5 -12.5t14.5 -34.5q0 -28 -17 -43t-46 -15z" />
    <glyph glyph-name="Hcircumflex" unicode="&#x124;" horiz-adv-x="767" 
d="M96 -7q-26 0 -37 16t-7 45l97 607q4 25 18 38t40 13t37 -16t6 -45l-40 -250h396l41 260q4 25 18 38t40 13t37 -15.5t6 -45.5l-96 -606q-3 -25 -17 -38.5t-40 -13.5q-27 0 -38 16t-6 45l41 260h-395l-43 -269q-4 -25 -18 -38.5t-40 -13.5zM366 769q-10 -11 -22.5 -12
t-21.5 5t-11 16t7 22l92 114q15 18 31 26.5t37 8.5q20 0 34 -10t26 -30l66 -108q9 -14 5.5 -25t-14.5 -16.5t-24.5 -2.5t-23.5 16l-76 104z" />
    <glyph glyph-name="hcircumflex" unicode="&#x125;" horiz-adv-x="576" 
d="M82 -7q-24 0 -34.5 16t-6.5 44l96 609q4 25 18.5 37.5t39.5 12.5q23 0 34.5 -15t7.5 -43l-43 -272h-11q25 56 72.5 85.5t112.5 29.5q54 0 90.5 -22t52 -67t4.5 -114l-39 -251q-3 -24 -18 -37t-40 -13q-24 0 -35 15.5t-7 43.5l38 240q10 63 -10 93.5t-72 30.5
q-67 0 -106.5 -41t-50.5 -112l-35 -220q-7 -50 -58 -50zM272 769q-10 -11 -22.5 -12t-21.5 5t-11 16t7 22l92 114q15 18 31 26.5t37 8.5q20 0 34 -10t26 -30l66 -108q9 -14 5.5 -25t-14.5 -16.5t-24.5 -2.5t-23.5 16l-76 104z" />
    <glyph glyph-name="Hbar" unicode="&#x126;" horiz-adv-x="807" 
d="M117 -7q-25 0 -37 16t-8 45l76 481l16 -19h-66q-43 0 -43 31q0 22 13 34t35 12h75l-24 -23l14 91q5 25 19 38t40 13q24 0 36 -15.5t8 -43.5l-15 -90l-18 30h438l-26 -28l16 96q4 26 19 38.5t40 12.5q24 0 35.5 -15.5t7.5 -43.5l-14 -93l-15 33h67q42 0 42 -31
q0 -22 -13 -34t-34 -12h-75l23 23l-78 -494q-3 -25 -17 -38.5t-40 -13.5q-25 0 -37 16t-7 45l40 253h-394l-42 -262q-4 -25 -17.5 -38.5t-39.5 -13.5zM229 394h395l20 122h-396z" />
    <glyph glyph-name="hbar" unicode="&#x127;" horiz-adv-x="576" 
d="M82 -7q-24 0 -35 15.5t-7 43.5l79 497h-49q-20 0 -30 9t-9 25q4 39 45 39h80l-30 -35l11 75q4 28 19 39t40 11q23 0 35 -13t6 -43l-12 -75l-14 41h169q22 0 32.5 -8.5t8.5 -26.5q-5 -38 -45 -38h-156l-26 -167h-11q25 56 72.5 85.5t111.5 29.5q54 0 91 -22t52.5 -67
t4.5 -114l-39 -251q-3 -24 -18 -37t-40 -13q-24 0 -35 15.5t-7 43.5l38 241q10 62 -10 92.5t-73 30.5q-66 0 -105.5 -41t-50.5 -112l-35 -220q-7 -50 -58 -50z" />
    <glyph glyph-name="Itilde" unicode="&#x128;" horiz-adv-x="268" 
d="M97 -7q-27 0 -38 16t-7 45l97 607q4 25 18 38t40 13t37 -15.5t6 -45.5l-96 -606q-4 -25 -17.5 -38.5t-39.5 -13.5zM27 776q-12 1 -18 10t-2 25q16 57 49 83.5t78 26.5q28 0 51.5 -10.5t45 -24.5t41.5 -25t40 -11q24 0 42 13.5t27 40.5q4 13 11.5 18.5t21.5 4.5
q13 -1 19 -10t2 -25q-15 -56 -49 -83.5t-79 -27.5q-28 0 -52 11t-45 25t-41 25t-40 11q-24 0 -41.5 -13.5t-27.5 -41.5q-4 -12 -11.5 -17.5t-21.5 -4.5z" />
    <glyph glyph-name="itilde" unicode="&#x129;" horiz-adv-x="243" 
d="M81 -7q-23 0 -34 15.5t-7 43.5l63 393q4 25 18.5 37.5t39.5 12.5q23 0 34 -15.5t7 -43.5l-63 -393q-4 -25 -18 -37.5t-40 -12.5zM17 585q-13 1 -19.5 9.5t-2.5 22.5q6 27 17 48.5t26 36t33.5 22t39.5 7.5q25 0 42.5 -11t32.5 -25t30 -25t33 -11q21 0 38 15t24 40
q3 12 12 17.5t21 4.5q13 -1 19 -9t3 -23q-8 -36 -25 -61.5t-40 -38.5t-52 -13q-24 0 -42.5 10.5t-33 24.5t-29.5 25t-33 11q-20 0 -37 -15t-25 -40q-3 -11 -11.5 -17t-20.5 -5z" />
    <glyph glyph-name="Imacron" unicode="&#x12a;" horiz-adv-x="268" 
d="M97 -7q-27 0 -38 16t-7 45l97 607q4 25 18 38t40 13t37 -15.5t6 -45.5l-96 -606q-4 -25 -17.5 -38.5t-39.5 -13.5zM89 811q-35 0 -35 26q0 18 10.5 27.5t27.5 9.5h278q34 0 34 -26q0 -17 -10 -27t-28 -10h-277z" />
    <glyph glyph-name="imacron" unicode="&#x12b;" horiz-adv-x="243" 
d="M81 -7q-23 0 -34 15.5t-7 43.5l63 393q4 25 18.5 37.5t39.5 12.5q23 0 34 -15.5t7 -43.5l-63 -393q-4 -25 -18 -37.5t-40 -12.5zM61 621q-34 0 -34 27q0 17 10.5 27t27.5 10h248q34 0 34 -27q0 -17 -10 -27t-28 -10h-248z" />
    <glyph glyph-name="Ibreve" unicode="&#x12c;" horiz-adv-x="268" 
d="M97 -7q-27 0 -38 16t-7 45l97 607q4 25 18 38t40 13t37 -15.5t6 -45.5l-96 -606q-4 -25 -17.5 -38.5t-39.5 -13.5zM221 760q-69 0 -111.5 39.5t-49.5 103.5q-2 16 5 25.5t21 10.5q9 2 16.5 -1t12.5 -9t6 -16q3 -42 31.5 -65.5t71.5 -23.5q42 0 74.5 23t44.5 67q3 9 8 15
t12.5 9t16.5 1q14 -1 21 -12t1 -28q-19 -64 -67.5 -101.5t-113.5 -37.5z" />
    <glyph glyph-name="ibreve" unicode="&#x12d;" horiz-adv-x="243" 
d="M81 -7q-23 0 -34 15.5t-7 43.5l63 393q4 25 18.5 37.5t39.5 12.5q23 0 34 -15.5t7 -43.5l-63 -393q-4 -25 -18 -37.5t-40 -12.5zM180 550q-43 0 -75 20t-50.5 56.5t-20.5 86.5q-1 15 6 24.5t21 10.5q14 2 24 -4.5t10 -22.5q2 -52 25.5 -79.5t62.5 -27.5q38 0 66.5 28
t38.5 80q4 14 13 21t23 5q14 -1 20.5 -12t2.5 -29q-11 -50 -34.5 -85t-57.5 -53.5t-75 -18.5z" />
    <glyph glyph-name="Iogonek" unicode="&#x12e;" horiz-adv-x="268" 
d="M91 -194q-51 0 -76.5 26t-25.5 65t19 69.5t54 52.5l2 -16q-8 8 -11.5 21t-0.5 30l97 607q4 25 18 38t40 13t37 -15.5t6 -45.5l-96 -606q-3 -19 -11 -31t-22 -18q-31 -13 -48 -34.5t-17 -47.5q0 -22 14 -36t38 -14q9 0 17.5 1.5t18.5 4.5q14 4 21.5 -1.5t9 -16.5t-3 -21
t-14.5 -14q-15 -5 -32.5 -8t-33.5 -3z" />
    <glyph glyph-name="iogonek" unicode="&#x12f;" horiz-adv-x="243" 
d="M78 -194q-51 0 -76.5 26t-25.5 65q0 43 22.5 74t55.5 51l-6 -16q-6 9 -8 20.5t0 25.5l63 393q4 25 18.5 37.5t39.5 12.5q23 0 34 -15.5t7 -43.5l-63 -393q-2 -17 -10 -28.5t-23 -18.5q-30 -14 -46 -35t-16 -47q0 -22 14 -36t38 -14q8 0 16.5 1.5t18.5 4.5q14 4 21.5 -1.5
t9 -16.5t-3 -21t-14.5 -14q-14 -5 -32 -8t-34 -3zM178 597q-28 0 -42 14t-12 39q3 30 22 45.5t50 15.5q29 0 43 -14t12 -39q-3 -30 -21.5 -45.5t-51.5 -15.5z" />
    <glyph glyph-name="Idotaccent" unicode="&#x130;" horiz-adv-x="268" 
d="M97 -7q-27 0 -38 16t-7 45l97 607q4 25 18 38t40 13t37 -15.5t6 -45.5l-96 -606q-4 -25 -17.5 -38.5t-39.5 -13.5zM222 797q-23 0 -36 11t-13 32q0 32 17.5 48.5t49.5 16.5q23 0 36 -10.5t13 -32.5q0 -29 -17.5 -47t-49.5 -18z" />
    <glyph glyph-name="dotlessi" unicode="&#x131;" horiz-adv-x="243" 
d="M81 -7q-23 0 -34 15.5t-7 43.5l63 393q4 25 18.5 37.5t39.5 12.5q23 0 34 -15.5t7 -43.5l-63 -393q-4 -25 -18 -37.5t-40 -12.5z" />
    <glyph glyph-name="IJ" unicode="&#x132;" horiz-adv-x="606" 
d="M97 -7q-27 0 -38 16t-7 45l97 607q4 25 18 38t40 13t37 -15.5t6 -45.5l-96 -606q-4 -25 -17.5 -38.5t-39.5 -13.5zM271 -7q-23 -1 -36.5 10t-12.5 32t11 32t31 12l31 2q51 4 80 33.5t38 86.5l74 463q4 25 17.5 36.5t38.5 11.5t37 -15t8 -42l-74 -464q-9 -60 -33.5 -102
t-68 -65t-110.5 -28z" />
    <glyph glyph-name="Jcircumflex" unicode="&#x134;" horiz-adv-x="338" 
d="M3 -7q-23 -1 -36.5 10t-12.5 32t11 32t31 12l31 2q51 4 80 33.5t38 86.5l74 463q4 25 17.5 36.5t38.5 11.5t37 -15t8 -42l-74 -464q-9 -60 -33.5 -102t-68 -65t-110.5 -28zM187 769q-10 -11 -22.5 -12t-21.5 5t-11 16t7 22l92 114q15 18 31 26.5t37 8.5q20 0 34 -10
t26 -30l66 -108q9 -14 5.5 -25t-14.5 -16.5t-24.5 -2.5t-23.5 16l-76 104z" />
    <glyph glyph-name="jcircumflex" unicode="&#x135;" horiz-adv-x="246" 
d="M-74 -191q-17 -1 -27 6.5t-13.5 19t-0.5 23.5t12 19.5t24 8.5q47 2 76 26t37 77l72 456q4 25 18.5 37.5t39.5 12.5q23 0 34.5 -15.5t7.5 -43.5l-70 -439q-10 -63 -35 -103.5t-67.5 -61t-107.5 -23.5zM310 588q6 -15 1 -25.5t-15.5 -15.5t-22 -2.5t-17.5 14.5l-70 134
l-101 -135q-8 -11 -20 -13.5t-21.5 3t-12 16.5t5.5 24l93 143q12 19 27 28.5t34 9.5t33 -9t23 -29z" />
    <glyph glyph-name="uni0136" unicode="&#x136;" horiz-adv-x="643" 
d="M96 -7q-25 0 -37 15.5t-7 44.5l97 609q4 25 18.5 37.5t39.5 12.5t36 -15.5t7 -43.5l-42 -265h2l355 300q15 13 25.5 18.5t26.5 5.5q20 0 32 -12t11.5 -29t-16.5 -31l-361 -305l-1 51l289 -323q14 -15 12.5 -31t-13.5 -27.5t-33 -11.5q-18 0 -29.5 8t-27.5 25l-279 306h-2
l-45 -289q-4 -25 -18 -37.5t-40 -12.5zM274 -256q-11 -11 -22.5 -11.5t-19 6t-7.5 17t12 22.5q14 15 21 30.5t9 32.5l3 -18q-28 0 -42.5 12.5t-14.5 34.5q0 28 17 43t46 15q26 0 39.5 -13t13.5 -39q0 -24 -7 -48.5t-19.5 -46t-28.5 -37.5z" />
    <glyph glyph-name="uni0137" unicode="&#x137;" horiz-adv-x="516" 
d="M82 -7q-24 0 -34.5 15t-6.5 43l97 613q4 25 18.5 36.5t39.5 11.5q23 0 34 -15.5t7 -43.5l-60 -378h2l219 191q16 15 29 22t30 7q20 0 29.5 -11.5t7.5 -28.5t-18 -31l-224 -198l2 49l184 -210q14 -17 13 -33.5t-12.5 -27.5t-30.5 -11q-21 0 -33.5 9t-28.5 29l-175 196h-2
l-29 -186q-7 -48 -58 -48zM211 -256q-11 -11 -22.5 -11.5t-19 6t-7.5 17t12 22.5q14 15 21 30.5t9 32.5l3 -18q-28 0 -42.5 12.5t-14.5 34.5q0 28 17 43t46 15q26 0 39.5 -13t13.5 -39q0 -24 -7 -48.5t-19.5 -46t-28.5 -37.5z" />
    <glyph glyph-name="kgreenlandic" unicode="&#x138;" horiz-adv-x="516" 
d="M85 -7q-27 0 -37.5 15t-6.5 43l62 395q4 24 18.5 36.5t37.5 12.5q27 0 37.5 -16t6.5 -44l-26 -160h2l219 191q12 10 25.5 19.5t31.5 9.5q21 0 31.5 -11.5t8.5 -28.5t-19 -31l-224 -198l2 49l184 -210q14 -17 13.5 -33.5t-13 -27.5t-33.5 -11q-18 0 -30.5 9t-28.5 29
l-175 196h-2l-29 -186q-4 -25 -18.5 -36.5t-36.5 -11.5z" />
    <glyph glyph-name="Lacute" unicode="&#x139;" horiz-adv-x="552" 
d="M101 0q-27 0 -39.5 15t-8.5 42l97 608q4 24 17.5 35.5t37.5 11.5q26 0 38 -15t8 -41l-89 -567h301q23 0 35.5 -9.5t12.5 -26.5q0 -26 -14.5 -39.5t-38.5 -13.5h-357zM260 770q-11 -11 -23.5 -11.5t-21.5 6.5t-11 18.5t7 22.5l93 123q11 15 25 18.5t26 -0.5t20 -13.5
t7.5 -22.5t-13.5 -26z" />
    <glyph glyph-name="lacute" unicode="&#x13a;" horiz-adv-x="306" 
d="M191 -9q-77 0 -111.5 44.5t-21.5 130.5l80 496q4 25 18.5 37.5t39.5 12.5q23 0 34 -15t7 -44l-78 -486q-8 -49 8 -71t53 -22q12 0 19.5 2t13.5 2q8 0 13 -6t5 -23q0 -23 -10 -36t-26 -17q-8 -3 -21 -4t-23 -1zM247 770q-11 -11 -23.5 -11.5t-21.5 6.5t-11 18.5t7 22.5
l93 123q11 15 25 18.5t26 -0.5t20 -13.5t7.5 -22.5t-13.5 -26z" />
    <glyph glyph-name="uni013B" unicode="&#x13b;" horiz-adv-x="552" 
d="M101 0q-27 0 -39.5 15t-8.5 42l97 608q4 24 17.5 35.5t37.5 11.5q26 0 38 -15t8 -41l-89 -567h301q23 0 35.5 -9.5t12.5 -26.5q0 -26 -14.5 -39.5t-38.5 -13.5h-357zM253 -256q-11 -11 -22.5 -11.5t-19 6t-7.5 17t12 22.5q14 15 21 30.5t9 32.5l3 -18q-28 0 -42.5 12.5
t-14.5 34.5q0 28 17 43t46 15q26 0 39.5 -13t13.5 -39q0 -24 -7 -48.5t-19.5 -46t-28.5 -37.5z" />
    <glyph glyph-name="uni013C" unicode="&#x13c;" horiz-adv-x="306" 
d="M191 -9q-77 0 -111.5 44.5t-21.5 130.5l80 496q4 25 18.5 37.5t39.5 12.5q23 0 34 -15t7 -44l-78 -486q-8 -49 8 -71t53 -22q12 0 19.5 2t13.5 2q8 0 13 -6t5 -23q0 -23 -10 -36t-26 -17q-8 -3 -21 -4t-23 -1zM134 -256q-11 -11 -22.5 -11.5t-19 6t-7.5 17t12 22.5
q14 15 21 30.5t9 32.5l3 -18q-28 0 -42.5 12.5t-14.5 34.5q0 28 17 43t46 15q26 0 39.5 -13t13.5 -39q0 -24 -7 -48.5t-19.5 -46t-28.5 -37.5z" />
    <glyph glyph-name="Lcaron" unicode="&#x13d;" horiz-adv-x="552" 
d="M101 0q-27 0 -39.5 15t-8.5 42l97 608q4 24 17.5 35.5t37.5 11.5q26 0 38 -15t8 -41l-89 -567h301q23 0 35.5 -9.5t12.5 -26.5q0 -26 -14.5 -39.5t-38.5 -13.5h-357zM363 469q-14 0 -20.5 10t-3.5 25l27 171q3 21 14 29t30 8q20 0 29.5 -12t3.5 -34l-42 -168
q-7 -29 -38 -29z" />
    <glyph glyph-name="lcaron" unicode="&#x13e;" horiz-adv-x="306" 
d="M191 -9q-77 0 -111.5 44.5t-21.5 130.5l80 496q4 25 18.5 37.5t39.5 12.5q23 0 34 -15t7 -44l-78 -486q-8 -49 8 -71t53 -22q12 0 19.5 2t13.5 2q8 0 13 -6t5 -23q0 -23 -10 -36t-26 -17q-8 -3 -21 -4t-23 -1zM281 508q-11 0 -17 7.5t-3 21.5l23 142q5 33 39 33
q19 0 27 -10.5t2 -30.5l-41 -139q-6 -24 -30 -24z" />
    <glyph glyph-name="Ldot" unicode="&#x13f;" horiz-adv-x="552" 
d="M101 0q-27 0 -39.5 15t-8.5 42l97 608q4 24 17.5 35.5t37.5 11.5q26 0 38 -15t8 -41l-89 -567h301q23 0 35.5 -9.5t12.5 -26.5q0 -26 -14.5 -39.5t-38.5 -13.5h-357zM438 328q-29 0 -46.5 18t-17.5 45q0 29 17.5 46.5t46.5 17.5q30 0 46.5 -17.5t16.5 -46.5
q0 -27 -16.5 -45t-46.5 -18z" />
    <glyph glyph-name="ldot" unicode="&#x140;" horiz-adv-x="354" 
d="M191 -9q-77 0 -111.5 44.5t-21.5 130.5l80 496q4 25 18.5 37.5t39.5 12.5q23 0 34 -15t7 -44l-78 -486q-8 -49 8 -71t53 -22q12 0 19.5 2t13.5 2q8 0 13 -6t5 -23q0 -23 -10 -36t-26 -17q-8 -3 -21 -4t-23 -1zM318 289q-29 0 -46.5 18t-17.5 45q0 29 17.5 46.5t46.5 17.5
q30 0 46.5 -17.5t16.5 -46.5q0 -27 -16.5 -45t-46.5 -18z" />
    <glyph glyph-name="Lslash" unicode="&#x141;" horiz-adv-x="552" 
d="M101 0q-27 0 -39.5 15t-8.5 42l97 608q4 24 17.5 35.5t37.5 11.5q26 0 38 -15t8 -41l-89 -567h301q23 0 35.5 -9.5t12.5 -26.5q0 -26 -14.5 -39.5t-38.5 -13.5h-357zM43 272q-16 -7 -29 -4t-21 12.5t-9.5 21.5t4.5 24t22 19l336 157q16 7 29 4t21 -12.5t9.5 -21.5
t-4.5 -24t-23 -19z" />
    <glyph glyph-name="lslash" unicode="&#x142;" horiz-adv-x="306" 
d="M191 -9q-77 0 -111.5 44.5t-21.5 130.5l80 496q4 25 18.5 37.5t39.5 12.5q23 0 34 -15t7 -44l-78 -486q-8 -49 8 -71t53 -22q12 0 19.5 2t13.5 2q8 0 13 -6t5 -23q0 -23 -10 -36t-26 -17q-8 -3 -21 -4t-23 -1zM44 262q-15 -8 -28.5 -5t-21.5 12t-10.5 21.5t4 24.5
t21.5 20l245 116q15 8 28 5t21.5 -12t11 -21.5t-3.5 -24.5t-23 -20z" />
    <glyph glyph-name="Nacute" unicode="&#x143;" horiz-adv-x="743" 
d="M93 -7q-22 0 -33.5 15t-7.5 42l98 618q4 23 17 33.5t31 10.5q20 0 30.5 -7.5t20.5 -24.5l320 -550h-22l84 535q4 24 18 35.5t38 11.5q22 0 32 -15t6 -41l-98 -618q-3 -23 -14 -34t-30 -11q-20 0 -32 8t-23 26l-320 548h22l-84 -535q-3 -24 -15.5 -35.5t-37.5 -11.5z
M497 770q-11 -11 -23.5 -11.5t-21.5 6.5t-11 18.5t7 22.5l93 123q11 15 25 18.5t26 -0.5t20 -13.5t7.5 -22.5t-13.5 -26z" />
    <glyph glyph-name="nacute" unicode="&#x144;" horiz-adv-x="576" 
d="M82 -7q-23 0 -34 16t-7 44l62 392q4 25 19 37.5t39 12.5q22 0 33 -14t6 -42l-11 -74l-6 17q25 56 72.5 85.5t112.5 29.5q54 0 90.5 -22t52 -67t4.5 -114l-39 -251q-3 -25 -18 -37.5t-40 -12.5q-24 0 -35 16t-7 43l38 240q10 63 -10 93.5t-72 30.5q-67 0 -106.5 -41
t-50.5 -112l-35 -220q-7 -50 -58 -50zM374 557q-10 -12 -21.5 -13.5t-21 5t-11.5 18t6 24.5l103 156q10 16 23.5 20.5t26 0.5t20.5 -14t8.5 -23.5t-11.5 -26.5z" />
    <glyph glyph-name="uni0145" unicode="&#x145;" horiz-adv-x="743" 
d="M93 -7q-22 0 -33.5 15t-7.5 42l98 618q4 23 17 33.5t31 10.5q20 0 30.5 -7.5t20.5 -24.5l320 -550h-22l84 535q4 24 18 35.5t38 11.5q22 0 32 -15t6 -41l-98 -618q-3 -23 -14 -34t-30 -11q-20 0 -32 8t-23 26l-320 548h22l-84 -535q-3 -24 -15.5 -35.5t-37.5 -11.5z
M326 -256q-11 -11 -22.5 -11.5t-19 6t-7.5 17t12 22.5q14 15 21 30.5t9 32.5l3 -18q-28 0 -42.5 12.5t-14.5 34.5q0 28 17 43t46 15q26 0 39.5 -13t13.5 -39q0 -24 -7 -48.5t-19.5 -46t-28.5 -37.5z" />
    <glyph glyph-name="uni0146" unicode="&#x146;" horiz-adv-x="576" 
d="M82 -7q-23 0 -34 16t-7 44l62 392q4 25 19 37.5t39 12.5q22 0 33 -14t6 -42l-11 -74l-6 17q25 56 72.5 85.5t112.5 29.5q54 0 90.5 -22t52 -67t4.5 -114l-39 -251q-3 -25 -18 -37.5t-40 -12.5q-24 0 -35 16t-7 43l38 240q10 63 -10 93.5t-72 30.5q-67 0 -106.5 -41
t-50.5 -112l-35 -220q-7 -50 -58 -50zM236 -256q-11 -11 -22.5 -11.5t-19 6t-7.5 17t12 22.5q14 15 21 30.5t9 32.5l3 -18q-28 0 -42.5 12.5t-14.5 34.5q0 28 17 43t46 15q26 0 39.5 -13t13.5 -39q0 -24 -7 -48.5t-19.5 -46t-28.5 -37.5z" />
    <glyph glyph-name="Ncaron" unicode="&#x147;" horiz-adv-x="743" 
d="M93 -7q-22 0 -33.5 15t-7.5 42l98 618q4 23 17 33.5t31 10.5q20 0 30.5 -7.5t20.5 -24.5l320 -550h-22l84 535q4 24 18 35.5t38 11.5q22 0 32 -15t6 -41l-98 -618q-3 -23 -14 -34t-30 -11q-20 0 -32 8t-23 26l-320 548h22l-84 -535q-3 -24 -15.5 -35.5t-37.5 -11.5z
M451 754q-20 0 -33.5 10.5t-25.5 29.5l-67 108q-9 15 -5.5 25.5t14 16t23.5 2.5t23 -17l77 -103l104 109q10 11 23 12t23 -5t12 -16.5t-7 -22.5l-92 -112q-15 -19 -31 -28t-38 -9z" />
    <glyph glyph-name="ncaron" unicode="&#x148;" horiz-adv-x="576" 
d="M82 -7q-23 0 -34 16t-7 44l62 392q4 25 19 37.5t39 12.5q22 0 33 -14t6 -42l-11 -74l-6 17q25 56 72.5 85.5t112.5 29.5q54 0 90.5 -22t52 -67t4.5 -114l-39 -251q-3 -25 -18 -37.5t-40 -12.5q-24 0 -35 16t-7 43l38 240q10 63 -10 93.5t-72 30.5q-67 0 -106.5 -41
t-50.5 -112l-35 -220q-7 -50 -58 -50zM334 540q-19 0 -33.5 9.5t-22.5 29.5l-62 143q-6 15 -1.5 26t15 15.5t22.5 1.5t18 -16l70 -135l103 137q9 12 21 14.5t21 -3t12 -16t-6 -25.5l-92 -140q-13 -20 -29.5 -30.5t-35.5 -10.5z" />
    <glyph glyph-name="napostrophe" unicode="&#x149;" horiz-adv-x="576" 
d="M115 582q-11 -11 -22 -11.5t-18.5 6t-7.5 17.5t11 22q14 15 21 31t10 32l2 -18q-27 0 -42 13t-15 35q0 27 17.5 42.5t45.5 15.5q26 0 40 -13.5t14 -39.5q0 -23 -7.5 -47.5t-19.5 -47t-29 -37.5zM82 -7q-23 0 -34 16t-7 44l62 392q4 25 19 37.5t39 12.5q22 0 33 -14t6 -42
l-11 -74l-6 17q25 56 72.5 85.5t112.5 29.5q54 0 90.5 -22t52 -67t4.5 -114l-39 -251q-3 -25 -18 -37.5t-40 -12.5q-24 0 -35 16t-7 43l38 240q10 63 -10 93.5t-72 30.5q-67 0 -106.5 -41t-50.5 -112l-35 -220q-7 -50 -58 -50z" />
    <glyph glyph-name="Eng" unicode="&#x14a;" horiz-adv-x="743" 
d="M411 -191q-17 0 -26.5 7.5t-13 18.5t-1 23t12 19.5t24.5 8.5q47 2 78 26t39 77l8 52l12 -41l-336 575h22l-84 -535q-3 -24 -15.5 -35.5t-37.5 -11.5q-22 0 -33.5 15t-7.5 42l98 618q4 23 17 33.5t31 10.5q20 0 30.5 -7.5t20.5 -24.5l320 -550h-22l84 535q4 24 17.5 35.5
t37.5 11.5q23 0 33 -15t6 -41l-104 -659q-15 -95 -66.5 -141.5t-143.5 -46.5z" />
    <glyph glyph-name="eng" unicode="&#x14b;" horiz-adv-x="576" 
d="M258 -190q-16 -1 -26.5 6t-14 18t-0.5 22.5t12 20t24 9.5q46 3 75.5 26.5t37.5 76.5l48 303q10 63 -10 93.5t-72 30.5q-67 0 -106.5 -41t-50.5 -112l-35 -220q-7 -50 -58 -50q-23 0 -34 16t-7 43l62 393q4 25 19 37.5t39 12.5q22 0 33 -14t6 -41l-11 -75l-6 17
q25 56 72.5 85.5t112.5 29.5q54 0 90.5 -22t52 -67t4.5 -114l-47 -297q-10 -63 -35.5 -103.5t-68.5 -60.5t-106 -23z" />
    <glyph glyph-name="Omacron" unicode="&#x14c;" horiz-adv-x="775" 
d="M374 -9q-91 0 -158.5 35t-105 104t-37.5 166q0 90 24.5 166t71.5 133t114 88t153 31q92 0 159.5 -35t104.5 -103.5t37 -165.5q0 -91 -24.5 -167t-71.5 -133t-114 -88t-153 -31zM376 81q82 0 138 42.5t85 116.5t29 168q0 110 -51.5 163t-143.5 53q-81 0 -137 -42t-85 -116
t-29 -168q0 -111 52 -164t142 -53zM331 811q-35 0 -35 26q0 18 10.5 27.5t27.5 9.5h278q34 0 34 -26q0 -17 -10 -27t-28 -10h-277z" />
    <glyph glyph-name="omacron" unicode="&#x14d;" horiz-adv-x="565" 
d="M261 -9q-69 0 -118 26t-75.5 75t-26.5 116q0 64 19.5 116.5t55 91.5t83.5 60t105 21q69 0 118 -26.5t75.5 -75t26.5 -115.5q0 -64 -19.5 -117t-55 -91.5t-83.5 -59.5t-105 -21zM263 69q52 0 87 29t53.5 77.5t18.5 107.5q0 66 -32 100.5t-88 34.5q-51 0 -86.5 -28.5
t-54 -77t-18.5 -108.5q0 -65 32 -100t88 -35zM224 621q-34 0 -34 27q0 17 10.5 27t27.5 10h248q34 0 34 -27q0 -17 -10 -27t-28 -10h-248z" />
    <glyph glyph-name="Obreve" unicode="&#x14e;" horiz-adv-x="775" 
d="M374 -9q-91 0 -158.5 35t-105 104t-37.5 166q0 90 24.5 166t71.5 133t114 88t153 31q92 0 159.5 -35t104.5 -103.5t37 -165.5q0 -91 -24.5 -167t-71.5 -133t-114 -88t-153 -31zM376 81q82 0 138 42.5t85 116.5t29 168q0 110 -51.5 163t-143.5 53q-81 0 -137 -42t-85 -116
t-29 -168q0 -111 52 -164t142 -53zM463 760q-69 0 -111.5 39.5t-49.5 103.5q-2 16 5 25.5t21 10.5q9 2 16.5 -1t12.5 -9t6 -16q3 -42 31.5 -65.5t71.5 -23.5q42 0 74.5 23t44.5 67q3 9 8 15t12.5 9t16.5 1q14 -1 21 -12t1 -28q-19 -64 -67.5 -101.5t-113.5 -37.5z" />
    <glyph glyph-name="obreve" unicode="&#x14f;" horiz-adv-x="565" 
d="M261 -9q-69 0 -118 26t-75.5 75t-26.5 116q0 64 19.5 116.5t55 91.5t83.5 60t105 21q69 0 118 -26.5t75.5 -75t26.5 -115.5q0 -64 -19.5 -117t-55 -91.5t-83.5 -59.5t-105 -21zM263 69q52 0 87 29t53.5 77.5t18.5 107.5q0 66 -32 100.5t-88 34.5q-51 0 -86.5 -28.5
t-54 -77t-18.5 -108.5q0 -65 32 -100t88 -35zM343 550q-43 0 -75 20t-50.5 56.5t-20.5 86.5q-1 15 6 24.5t21 10.5q14 2 24 -4.5t10 -22.5q2 -52 25.5 -79.5t62.5 -27.5q38 0 66.5 28t38.5 80q4 14 13 21t23 5q14 -1 20.5 -12t2.5 -29q-11 -50 -34.5 -85t-57.5 -53.5
t-75 -18.5z" />
    <glyph glyph-name="Ohungarumlaut" unicode="&#x150;" horiz-adv-x="775" 
d="M374 -9q-91 0 -158.5 35t-105 104t-37.5 166q0 90 24.5 166t71.5 133t114 88t153 31q92 0 159.5 -35t104.5 -103.5t37 -165.5q0 -91 -24.5 -167t-71.5 -133t-114 -88t-153 -31zM376 81q82 0 138 42.5t85 116.5t29 168q0 110 -51.5 163t-143.5 53q-81 0 -137 -42t-85 -116
t-29 -168q0 -111 52 -164t142 -53zM423 769q-8 -11 -18 -12t-18 4t-10.5 14.5t3.5 19.5l76 131q8 15 20.5 20t25 2.5t20.5 -11t8.5 -20t-10.5 -25.5zM559 768q-8 -10 -18 -11t-17.5 4t-10 14.5t4.5 20.5l81 132q8 15 20.5 19.5t23.5 1t18.5 -12.5t7.5 -21t-11 -25z" />
    <glyph glyph-name="ohungarumlaut" unicode="&#x151;" horiz-adv-x="565" 
d="M261 -9q-69 0 -118 26t-75.5 75t-26.5 116q0 64 19.5 116.5t55 91.5t83.5 60t105 21q69 0 118 -26.5t75.5 -75t26.5 -115.5q0 -64 -19.5 -117t-55 -91.5t-83.5 -59.5t-105 -21zM263 69q52 0 87 29t53.5 77.5t18.5 107.5q0 66 -32 100.5t-88 34.5q-51 0 -86.5 -28.5
t-54 -77t-18.5 -108.5q0 -65 32 -100t88 -35zM434 562q-6 -13 -16.5 -16.5t-20 0t-14 12.5t-0.5 22l55 158q6 17 18 24.5t24.5 7t22 -8t13 -20t-4.5 -27.5zM296 562q-6 -13 -16 -16.5t-19.5 0t-14.5 12.5t0 22l55 158q7 17 18.5 24.5t24 7t22.5 -8t13.5 -20t-5.5 -27.5z" />
    <glyph glyph-name="OE" unicode="&#x152;" horiz-adv-x="1051" 
d="M415 0q-164 0 -252 78.5t-89 219.5q0 87 24 161t74 129.5t126.5 86t179.5 30.5h551q22 0 33.5 -8.5t11.5 -24.5q0 -25 -14 -38t-35 -13h-321l-35 -221h293q21 0 32 -8.5t11 -25.5q0 -24 -13.5 -37t-35.5 -13h-300l-37 -232h313q21 0 32.5 -8.5t11.5 -25.5
q0 -24 -13.5 -37t-35.5 -13h-512zM416 87h104l85 531h-129q-79 0 -134.5 -24t-91 -68t-52 -102t-16.5 -125q0 -103 59 -157.5t175 -54.5z" />
    <glyph glyph-name="oe" unicode="&#x153;" horiz-adv-x="912" 
d="M261 -9q-69 0 -118 26.5t-75.5 75.5t-26.5 116q0 63 19.5 116t55 91.5t83.5 59.5t105 21q74 0 123 -35.5t68 -98.5h-29q31 59 86 96.5t130 37.5q79 0 124 -35t62 -91t7 -119q-2 -19 -9.5 -25t-23.5 -6h-344l9 62h304l-17 -14q6 44 -3 79t-35.5 56.5t-74.5 21.5
t-80.5 -22.5t-50.5 -57.5t-25 -73l-4 -28q-13 -81 23.5 -128t113.5 -47q33 0 64.5 7t61.5 26q17 9 29 7.5t20 -9t9.5 -18.5t-4 -23.5t-19.5 -21.5q-34 -24 -80 -35.5t-87 -11.5q-79 0 -133 36t-75 99h34q-32 -61 -87.5 -98t-129.5 -37zM263 70q52 0 87 28.5t53.5 77
t18.5 107.5q0 66 -32 100.5t-88 34.5q-51 0 -86.5 -28.5t-54 -77t-18.5 -108.5q0 -65 32 -99.5t88 -34.5z" />
    <glyph glyph-name="Racute" unicode="&#x154;" horiz-adv-x="677" 
d="M95 -7q-24 0 -35.5 16t-6.5 45l95 599q4 26 19 39t41 13h210q115 0 174 -51.5t59 -140.5q0 -74 -34 -123t-93 -73t-135 -23v14h21q45 0 74 -26t47 -72l57 -150q8 -21 6 -36t-13.5 -23t-33.5 -8q-21 0 -33.5 10.5t-21.5 34.5l-68 179q-15 40 -39.5 57t-69.5 17h-122
l-38 -247q-4 -25 -19 -38t-41 -13zM206 369h186q75 0 116.5 35.5t41.5 100.5q0 59 -35 88t-110 29h-159zM457 770q-11 -11 -23.5 -11.5t-21.5 6.5t-11 18.5t7 22.5l93 123q11 15 25 18.5t26 -0.5t20 -13.5t7.5 -22.5t-13.5 -26z" />
    <glyph glyph-name="racute" unicode="&#x155;" horiz-adv-x="373" 
d="M82 -7q-24 0 -35 15t-7 42l63 396q4 25 18.5 37t38.5 12q23 0 34 -14.5t7 -42.5l-11 -67h-10q20 59 68 91.5t110 35.5q25 1 33.5 -7t8.5 -28q0 -26 -12 -38t-39 -15l-24 -3q-74 -7 -106 -44t-43 -101l-35 -221q-3 -24 -18 -36t-41 -12zM305 559q-10 -12 -21.5 -13.5
t-21 5t-11.5 18t6 24.5l103 156q10 16 23.5 20.5t26 0.5t20.5 -14t8.5 -23.5t-11.5 -26.5z" />
    <glyph glyph-name="uni0156" unicode="&#x156;" horiz-adv-x="677" 
d="M95 -7q-24 0 -35.5 16t-6.5 45l95 599q4 26 19 39t41 13h210q115 0 174 -51.5t59 -140.5q0 -74 -34 -123t-93 -73t-135 -23v14h21q45 0 74 -26t47 -72l57 -150q8 -21 6 -36t-13.5 -23t-33.5 -8q-21 0 -33.5 10.5t-21.5 34.5l-68 179q-15 40 -39.5 57t-69.5 17h-122
l-38 -247q-4 -25 -19 -38t-41 -13zM206 369h186q75 0 116.5 35.5t41.5 100.5q0 59 -35 88t-110 29h-159zM295 -256q-11 -11 -22.5 -11.5t-19 6t-7.5 17t12 22.5q14 15 21 30.5t9 32.5l3 -18q-28 0 -42.5 12.5t-14.5 34.5q0 28 17 43t46 15q26 0 39.5 -13t13.5 -39
q0 -24 -7 -48.5t-19.5 -46t-28.5 -37.5z" />
    <glyph glyph-name="uni0157" unicode="&#x157;" horiz-adv-x="373" 
d="M82 -7q-24 0 -35 15t-7 42l63 396q4 25 18.5 37t38.5 12q23 0 34 -14.5t7 -42.5l-11 -67h-10q20 59 68 91.5t110 35.5q25 1 33.5 -7t8.5 -28q0 -26 -12 -38t-39 -15l-24 -3q-74 -7 -106 -44t-43 -101l-35 -221q-3 -24 -18 -36t-41 -12zM66 -256q-11 -11 -22.5 -11.5
t-19 6t-7.5 17t12 22.5q14 15 21 30.5t9 32.5l3 -18q-28 0 -42.5 12.5t-14.5 34.5q0 28 17 43t46 15q26 0 39.5 -13t13.5 -39q0 -24 -7 -48.5t-19.5 -46t-28.5 -37.5z" />
    <glyph glyph-name="Rcaron" unicode="&#x158;" horiz-adv-x="677" 
d="M95 -7q-24 0 -35.5 16t-6.5 45l95 599q4 26 19 39t41 13h210q115 0 174 -51.5t59 -140.5q0 -74 -34 -123t-93 -73t-135 -23v14h21q45 0 74 -26t47 -72l57 -150q8 -21 6 -36t-13.5 -23t-33.5 -8q-21 0 -33.5 10.5t-21.5 34.5l-68 179q-15 40 -39.5 57t-69.5 17h-122
l-38 -247q-4 -25 -19 -38t-41 -13zM206 369h186q75 0 116.5 35.5t41.5 100.5q0 59 -35 88t-110 29h-159zM411 754q-20 0 -33.5 10.5t-25.5 29.5l-67 108q-9 15 -5.5 25.5t14 16t23.5 2.5t23 -17l77 -103l104 109q10 11 23 12t23 -5t12 -16.5t-7 -22.5l-92 -112
q-15 -19 -31 -28t-38 -9z" />
    <glyph glyph-name="rcaron" unicode="&#x159;" horiz-adv-x="373" 
d="M82 -7q-24 0 -35 15t-7 42l63 396q4 25 18.5 37t38.5 12q23 0 34 -14.5t7 -42.5l-11 -67h-10q20 59 68 91.5t110 35.5q25 1 33.5 -7t8.5 -28q0 -26 -12 -38t-39 -15l-24 -3q-74 -7 -106 -44t-43 -101l-35 -221q-3 -24 -18 -36t-41 -12zM265 542q-19 0 -33.5 9.5
t-22.5 29.5l-62 143q-6 15 -1.5 26t15 15.5t22.5 1.5t18 -16l70 -135l103 137q9 12 21 14.5t21 -3t12 -16t-6 -25.5l-92 -140q-13 -20 -29.5 -30.5t-35.5 -10.5z" />
    <glyph glyph-name="Sacute" unicode="&#x15a;" horiz-adv-x="622" 
d="M299 -9q-44 0 -87 6t-83 20.5t-74 37.5q-15 9 -20.5 23t-2.5 27.5t12 23.5t23.5 12t31.5 -8q48 -30 100.5 -42t108.5 -12q75 0 120.5 30.5t45.5 82.5q0 37 -27 63t-93 40l-106 26q-71 17 -113.5 59.5t-42.5 117.5q0 50 21 90t59 68.5t87 43t104 14.5q56 0 116.5 -15.5
t107.5 -51.5q14 -10 18.5 -24t1.5 -27.5t-12 -22t-23.5 -9.5t-34.5 11q-37 26 -83.5 38.5t-92.5 12.5q-48 0 -85.5 -15t-59 -41.5t-21.5 -63.5q0 -45 24 -67t71 -34l106 -26q92 -21 136.5 -66t44.5 -109q0 -53 -22 -93t-60.5 -66.5t-88.5 -40t-107 -13.5zM427 770
q-11 -11 -23.5 -11.5t-21.5 6.5t-11 18.5t7 22.5l93 123q11 15 25 18.5t26 -0.5t20 -13.5t7.5 -22.5t-13.5 -26z" />
    <glyph glyph-name="sacute" unicode="&#x15b;" horiz-adv-x="484" 
d="M224 -9q-47 0 -91 10.5t-76 27.5q-16 8 -22 20.5t-4.5 24.5t9 20.5t20 10.5t27.5 -6q32 -18 67 -26.5t71 -8.5q51 0 79 20t28 54q0 23 -15.5 38t-45.5 21l-93 21q-52 11 -81.5 43t-29.5 80q0 44 24.5 79t72 56t112.5 21q38 0 79 -11t70 -30q14 -9 19.5 -21.5t3 -24
t-10 -19t-20 -8.5t-27.5 8q-25 16 -56 24t-63 8q-52 0 -81.5 -21t-29.5 -56q0 -21 13 -36.5t42 -21.5l93 -21q56 -13 86.5 -43.5t30.5 -78.5q0 -73 -55 -113.5t-146 -40.5zM323 557q-10 -12 -21.5 -13.5t-21 5t-11.5 18t6 24.5l103 156q10 16 23.5 20.5t26 0.5t20.5 -14
t8.5 -23.5t-11.5 -26.5z" />
    <glyph glyph-name="Scircumflex" unicode="&#x15c;" horiz-adv-x="622" 
d="M299 -9q-44 0 -87 6t-83 20.5t-74 37.5q-15 9 -20.5 23t-2.5 27.5t12 23.5t23.5 12t31.5 -8q48 -30 100.5 -42t108.5 -12q75 0 120.5 30.5t45.5 82.5q0 37 -27 63t-93 40l-106 26q-71 17 -113.5 59.5t-42.5 117.5q0 50 21 90t59 68.5t87 43t104 14.5q56 0 116.5 -15.5
t107.5 -51.5q14 -10 18.5 -24t1.5 -27.5t-12 -22t-23.5 -9.5t-34.5 11q-37 26 -83.5 38.5t-92.5 12.5q-48 0 -85.5 -15t-59 -41.5t-21.5 -63.5q0 -45 24 -67t71 -34l106 -26q92 -21 136.5 -66t44.5 -109q0 -53 -22 -93t-60.5 -66.5t-88.5 -40t-107 -13.5zM285 769
q-10 -11 -22.5 -12t-21.5 5t-11 16t7 22l92 114q15 18 31 26.5t37 8.5q20 0 34 -10t26 -30l66 -108q9 -14 5.5 -25t-14.5 -16.5t-24.5 -2.5t-23.5 16l-76 104z" />
    <glyph glyph-name="scircumflex" unicode="&#x15d;" horiz-adv-x="484" 
d="M224 -9q-47 0 -91 10.5t-76 27.5q-16 8 -22 20.5t-4.5 24.5t9 20.5t20 10.5t27.5 -6q32 -18 67 -26.5t71 -8.5q51 0 79 20t28 54q0 23 -15.5 38t-45.5 21l-93 21q-52 11 -81.5 43t-29.5 80q0 44 24.5 79t72 56t112.5 21q38 0 79 -11t70 -30q14 -9 19.5 -21.5t3 -24
t-10 -19t-20 -8.5t-27.5 8q-25 16 -56 24t-63 8q-52 0 -81.5 -21t-29.5 -56q0 -21 13 -36.5t42 -21.5l93 -21q56 -13 86.5 -43.5t30.5 -78.5q0 -73 -55 -113.5t-146 -40.5zM422 588q6 -15 1 -25.5t-15.5 -15.5t-22 -2.5t-17.5 14.5l-70 134l-101 -135q-8 -11 -20 -13.5
t-21.5 3t-12 16.5t5.5 24l93 143q12 19 27 28.5t34 9.5t33 -9t23 -29z" />
    <glyph glyph-name="Scedilla" unicode="&#x15e;" horiz-adv-x="622" 
d="M299 -9q-44 0 -87 6t-83 20.5t-74 37.5q-15 9 -20.5 23t-2.5 27.5t12 23.5t23.5 12t31.5 -8q48 -30 100.5 -42t108.5 -12q75 0 120.5 30.5t45.5 82.5q0 37 -27 63t-93 40l-106 26q-71 17 -113.5 59.5t-42.5 117.5q0 50 21 90t59 68.5t87 43t104 14.5q56 0 116.5 -15.5
t107.5 -51.5q14 -10 18.5 -24t1.5 -27.5t-12 -22t-23.5 -9.5t-34.5 11q-37 26 -83.5 38.5t-92.5 12.5q-48 0 -85.5 -15t-59 -41.5t-21.5 -63.5q0 -45 24 -67t71 -34l106 -26q92 -21 136.5 -66t44.5 -109q0 -53 -22 -93t-60.5 -66.5t-88.5 -40t-107 -13.5zM277 -194
q-19 0 -36.5 3t-33.5 7q-14 4 -18.5 14.5t-2 21t12 16t23.5 0.5q11 -4 25 -6t28 -2q28 0 44 9t16 26q0 11 -8.5 17.5t-25.5 6.5q-8 0 -16.5 -1t-16.5 -3q-8 -1 -14 -1t-9 3q-4 5 -4.5 9.5t1.5 13.5l26 80h58l-25 -76l-27 9q12 3 24 5t22 2q36 0 57.5 -16.5t21.5 -47.5
q0 -40 -35 -65t-87 -25z" />
    <glyph glyph-name="scedilla" unicode="&#x15f;" horiz-adv-x="484" 
d="M224 -9q-47 0 -91 10.5t-76 27.5q-16 8 -22 20.5t-4.5 24.5t9 20.5t20 10.5t27.5 -6q32 -18 67 -26.5t71 -8.5q51 0 79 20t28 54q0 23 -15.5 38t-45.5 21l-93 21q-52 11 -81.5 43t-29.5 80q0 44 24.5 79t72 56t112.5 21q38 0 79 -11t70 -30q14 -9 19.5 -21.5t3 -24
t-10 -19t-20 -8.5t-27.5 8q-25 16 -56 24t-63 8q-52 0 -81.5 -21t-29.5 -56q0 -21 13 -36.5t42 -21.5l93 -21q56 -13 86.5 -43.5t30.5 -78.5q0 -73 -55 -113.5t-146 -40.5zM195 -194q-19 0 -36.5 3t-33.5 7q-14 4 -18.5 14.5t-2 21t12 16t23.5 0.5q11 -4 25 -6t28 -2
q28 0 44 9t16 26q0 11 -8.5 17.5t-25.5 6.5q-8 0 -16.5 -1t-16.5 -3q-8 -1 -14 -1t-9 3q-4 5 -4.5 9.5t1.5 13.5l26 80h58l-25 -76l-27 9q12 3 24 5t22 2q36 0 57.5 -16.5t21.5 -47.5q0 -40 -35 -65t-87 -25z" />
    <glyph glyph-name="Scaron" unicode="&#x160;" horiz-adv-x="622" 
d="M299 -9q-44 0 -87 6t-83 20.5t-74 37.5q-15 9 -20.5 23t-2.5 27.5t12 23.5t23.5 12t31.5 -8q48 -30 100.5 -42t108.5 -12q75 0 120.5 30.5t45.5 82.5q0 37 -27 63t-93 40l-106 26q-71 17 -113.5 59.5t-42.5 117.5q0 50 21 90t59 68.5t87 43t104 14.5q56 0 116.5 -15.5
t107.5 -51.5q14 -10 18.5 -24t1.5 -27.5t-12 -22t-23.5 -9.5t-34.5 11q-37 26 -83.5 38.5t-92.5 12.5q-48 0 -85.5 -15t-59 -41.5t-21.5 -63.5q0 -45 24 -67t71 -34l106 -26q92 -21 136.5 -66t44.5 -109q0 -53 -22 -93t-60.5 -66.5t-88.5 -40t-107 -13.5zM381 754
q-20 0 -33.5 10.5t-25.5 29.5l-67 108q-9 15 -5.5 25.5t14 16t23.5 2.5t23 -17l77 -103l104 109q10 11 23 12t23 -5t12 -16.5t-7 -22.5l-92 -112q-15 -19 -31 -28t-38 -9z" />
    <glyph glyph-name="scaron" unicode="&#x161;" horiz-adv-x="484" 
d="M224 -9q-47 0 -91 10.5t-76 27.5q-16 8 -22 20.5t-4.5 24.5t9 20.5t20 10.5t27.5 -6q32 -18 67 -26.5t71 -8.5q51 0 79 20t28 54q0 23 -15.5 38t-45.5 21l-93 21q-52 11 -81.5 43t-29.5 80q0 44 24.5 79t72 56t112.5 21q38 0 79 -11t70 -30q14 -9 19.5 -21.5t3 -24
t-10 -19t-20 -8.5t-27.5 8q-25 16 -56 24t-63 8q-52 0 -81.5 -21t-29.5 -56q0 -21 13 -36.5t42 -21.5l93 -21q56 -13 86.5 -43.5t30.5 -78.5q0 -73 -55 -113.5t-146 -40.5zM283 540q-19 0 -33.5 9.5t-22.5 29.5l-62 143q-6 15 -1.5 26t15 15.5t22.5 1.5t18 -16l70 -135
l103 137q9 12 21 14.5t21 -3t12 -16t-6 -25.5l-92 -140q-13 -20 -29.5 -30.5t-35.5 -10.5z" />
    <glyph glyph-name="uni0162" unicode="&#x162;" horiz-adv-x="611" 
d="M268 -7q-25 0 -36.5 16t-7.5 44l89 565h-203q-22 0 -34.5 9.5t-12.5 26.5q0 24 14.5 37.5t37.5 13.5h519q23 0 35 -9t12 -26q0 -25 -14 -38.5t-38 -13.5h-212l-91 -574q-4 -25 -18.5 -38t-39.5 -13zM248 -194q-19 0 -36.5 3t-33.5 7q-14 4 -18.5 14.5t-2 21t12 16
t23.5 0.5q11 -4 25 -6t28 -2q28 0 44 9t16 26q0 11 -8.5 17.5t-25.5 6.5q-8 0 -16.5 -1t-16.5 -3q-8 -1 -14 -1t-9 3q-4 5 -4.5 9.5t1.5 13.5l26 80h58l-25 -76l-27 9q12 3 24 5t22 2q36 0 57.5 -16.5t21.5 -47.5q0 -40 -35 -65t-87 -25z" />
    <glyph glyph-name="uni0163" unicode="&#x163;" horiz-adv-x="365" 
d="M247 -9q-60 0 -99.5 23t-55 64t-6.5 96l38 236h-54q-20 0 -31.5 9t-11.5 24q0 22 14.5 33.5t37.5 11.5h57l17 107q4 24 18 35.5t37 11.5q26 0 37 -14.5t7 -41.5l-15 -98h110q21 0 32 -8t11 -25q0 -19 -12.5 -32t-35.5 -13h-117l-37 -228q-9 -57 13 -82t65 -25
q19 0 30.5 3.5t20.5 3.5q12 0 17.5 -6.5t5.5 -22.5q0 -27 -8.5 -38t-24.5 -16q-11 -4 -28.5 -6t-31.5 -2zM172 -194q-19 0 -36.5 3t-33.5 7q-14 4 -18.5 14.5t-2 21t12 16t23.5 0.5q11 -4 25 -6t28 -2q28 0 44 9t16 26q0 11 -8.5 17.5t-25.5 6.5q-8 0 -16.5 -1t-16.5 -3
q-8 -1 -14 -1t-9 3q-4 5 -4.5 9.5t1.5 13.5l26 80h58l-25 -76l-27 9q12 3 24 5t22 2q36 0 57.5 -16.5t21.5 -47.5q0 -40 -35 -65t-87 -25z" />
    <glyph glyph-name="Tcaron" unicode="&#x164;" horiz-adv-x="611" 
d="M268 -7q-25 0 -36.5 16t-7.5 44l89 565h-203q-22 0 -34.5 9.5t-12.5 26.5q0 24 14.5 37.5t37.5 13.5h519q23 0 35 -9t12 -26q0 -25 -14 -38.5t-38 -13.5h-212l-91 -574q-4 -25 -18.5 -38t-39.5 -13zM384 754q-20 0 -33.5 10.5t-25.5 29.5l-67 108q-9 15 -5.5 25.5t14 16
t23.5 2.5t23 -17l77 -103l104 109q10 11 23 12t23 -5t12 -16.5t-7 -22.5l-92 -112q-15 -19 -31 -28t-38 -9z" />
    <glyph glyph-name="tcaron" unicode="&#x165;" horiz-adv-x="365" 
d="M247 -9q-60 0 -99.5 23t-55 64t-6.5 96l38 236h-54q-20 0 -31.5 9t-11.5 24q0 22 14.5 33.5t37.5 11.5h57l17 107q4 24 18 35.5t37 11.5q26 0 37 -14.5t7 -41.5l-15 -98h110q21 0 32 -8t11 -25q0 -19 -12.5 -32t-35.5 -13h-117l-37 -228q-9 -57 13 -82t65 -25
q19 0 30.5 3.5t20.5 3.5q12 0 17.5 -6.5t5.5 -22.5q0 -27 -8.5 -38t-24.5 -16q-11 -4 -28.5 -6t-31.5 -2zM332 521q-11 0 -17 7.5t-3 20.5l21 130q5 33 39 33q19 0 27 -10.5t2 -30.5l-38 -127q-4 -13 -12 -18t-19 -5z" />
    <glyph glyph-name="Tbar" unicode="&#x166;" horiz-adv-x="611" 
d="M268 -7q-25 0 -36.5 16t-7.5 44l89 565h-203q-22 0 -34.5 9.5t-12.5 26.5q0 24 14.5 37.5t37.5 13.5h519q23 0 35 -9t12 -26q0 -25 -14 -38.5t-38 -13.5h-212l-91 -574q-4 -25 -18.5 -38t-39.5 -13zM166 319q-20 0 -31.5 8t-11.5 24q0 22 13 33.5t35 11.5h309q21 0 32 -8
t11 -23q0 -22 -12.5 -34t-35.5 -12h-309z" />
    <glyph glyph-name="tbar" unicode="&#x167;" horiz-adv-x="365" 
d="M247 -9q-60 0 -99.5 23t-55 64t-6.5 96l38 236h-54q-20 0 -31.5 9t-11.5 24q0 22 14.5 33.5t37.5 11.5h57l17 107q4 24 18 35.5t37 11.5q26 0 37 -14.5t7 -41.5l-15 -98h110q21 0 32 -8t11 -25q0 -19 -12.5 -32t-35.5 -13h-117l-37 -228q-9 -57 13 -82t65 -25
q19 0 30.5 3.5t20.5 3.5q12 0 17.5 -6.5t5.5 -22.5q0 -27 -8.5 -38t-24.5 -16q-11 -4 -28.5 -6t-31.5 -2zM57 232q-17 0 -26 7t-9 20q0 17 10.5 27t29.5 10h228q36 0 36 -28q0 -17 -11 -26.5t-29 -9.5h-229z" />
    <glyph glyph-name="Utilde" unicode="&#x168;" horiz-adv-x="733" 
d="M338 -9q-67 0 -119 19t-86 58t-46.5 97.5t0.5 136.5l57 362q4 25 18.5 36.5t38.5 11.5q26 0 37.5 -14.5t7.5 -42.5l-57 -362q-17 -105 22.5 -158.5t132.5 -53.5q91 0 143.5 46t68.5 148l62 389q4 25 18.5 36.5t38.5 11.5q25 0 36.5 -14.5t7.5 -42.5l-60 -381
q-15 -93 -54 -156t-105 -95t-162 -32zM259 776q-12 1 -18 10t-2 25q16 57 49 83.5t78 26.5q28 0 51.5 -10.5t45 -24.5t41.5 -25t40 -11q24 0 42 13.5t27 40.5q4 13 11.5 18.5t21.5 4.5q13 -1 19 -10t2 -25q-15 -56 -49 -83.5t-79 -27.5q-28 0 -52 11t-45 25t-41 25t-40 11
q-24 0 -41.5 -13.5t-27.5 -41.5q-4 -12 -11.5 -17.5t-21.5 -4.5z" />
    <glyph glyph-name="utilde" unicode="&#x169;" horiz-adv-x="569" 
d="M206 -9q-52 0 -88.5 21.5t-52 67t-4.5 115.5l40 253q4 24 18 35.5t38 11.5t36 -14.5t8 -41.5l-39 -244q-9 -62 10.5 -92.5t69.5 -30.5q64 0 103 41.5t50 111.5l35 223q4 24 17.5 35.5t37.5 11.5q25 0 36.5 -14.5t7.5 -41.5l-63 -398q-7 -48 -55 -48q-23 0 -34.5 13
t-7.5 40l12 80l8 -19q-25 -56 -72.5 -86t-110.5 -30zM177 586q-13 1 -19.5 9.5t-2.5 22.5q6 27 17 48.5t26 36t33.5 22t39.5 7.5q25 0 42.5 -11t32.5 -25t30 -25t33 -11q21 0 38 15t24 40q3 12 12 17.5t21 4.5q13 -1 19 -9t3 -23q-8 -36 -25 -61.5t-40 -38.5t-52 -13
q-24 0 -42.5 10.5t-33 24.5t-29.5 25t-33 11q-20 0 -37 -15t-25 -40q-3 -11 -11.5 -17t-20.5 -5z" />
    <glyph glyph-name="Umacron" unicode="&#x16a;" horiz-adv-x="733" 
d="M338 -9q-67 0 -119 19t-86 58t-46.5 97.5t0.5 136.5l57 362q4 25 18.5 36.5t38.5 11.5q26 0 37.5 -14.5t7.5 -42.5l-57 -362q-17 -105 22.5 -158.5t132.5 -53.5q91 0 143.5 46t68.5 148l62 389q4 25 18.5 36.5t38.5 11.5q25 0 36.5 -14.5t7.5 -42.5l-60 -381
q-15 -93 -54 -156t-105 -95t-162 -32zM321 811q-35 0 -35 26q0 18 10.5 27.5t27.5 9.5h278q34 0 34 -26q0 -17 -10 -27t-28 -10h-277z" />
    <glyph glyph-name="umacron" unicode="&#x16b;" horiz-adv-x="569" 
d="M206 -9q-52 0 -88.5 21.5t-52 67t-4.5 115.5l40 253q4 24 18 35.5t38 11.5t36 -14.5t8 -41.5l-39 -244q-9 -62 10.5 -92.5t69.5 -30.5q64 0 103 41.5t50 111.5l35 223q4 24 17.5 35.5t37.5 11.5q25 0 36.5 -14.5t7.5 -41.5l-63 -398q-7 -48 -55 -48q-23 0 -34.5 13
t-7.5 40l12 80l8 -19q-25 -56 -72.5 -86t-110.5 -30zM221 622q-34 0 -34 27q0 17 10.5 27t27.5 10h248q34 0 34 -27q0 -17 -10 -27t-28 -10h-248z" />
    <glyph glyph-name="Ubreve" unicode="&#x16c;" horiz-adv-x="733" 
d="M338 -9q-67 0 -119 19t-86 58t-46.5 97.5t0.5 136.5l57 362q4 25 18.5 36.5t38.5 11.5q26 0 37.5 -14.5t7.5 -42.5l-57 -362q-17 -105 22.5 -158.5t132.5 -53.5q91 0 143.5 46t68.5 148l62 389q4 25 18.5 36.5t38.5 11.5q25 0 36.5 -14.5t7.5 -42.5l-60 -381
q-15 -93 -54 -156t-105 -95t-162 -32zM453 760q-69 0 -111.5 39.5t-49.5 103.5q-2 16 5 25.5t21 10.5q9 2 16.5 -1t12.5 -9t6 -16q3 -42 31.5 -65.5t71.5 -23.5q42 0 74.5 23t44.5 67q3 9 8 15t12.5 9t16.5 1q14 -1 21 -12t1 -28q-19 -64 -67.5 -101.5t-113.5 -37.5z" />
    <glyph glyph-name="ubreve" unicode="&#x16d;" horiz-adv-x="569" 
d="M206 -9q-52 0 -88.5 21.5t-52 67t-4.5 115.5l40 253q4 24 18 35.5t38 11.5t36 -14.5t8 -41.5l-39 -244q-9 -62 10.5 -92.5t69.5 -30.5q64 0 103 41.5t50 111.5l35 223q4 24 17.5 35.5t37.5 11.5q25 0 36.5 -14.5t7.5 -41.5l-63 -398q-7 -48 -55 -48q-23 0 -34.5 13
t-7.5 40l12 80l8 -19q-25 -56 -72.5 -86t-110.5 -30zM340 551q-43 0 -75 20t-50.5 56.5t-20.5 86.5q-1 15 6 24.5t21 10.5q14 2 24 -4.5t10 -22.5q2 -52 25.5 -79.5t62.5 -27.5q38 0 66.5 28t38.5 80q4 14 13 21t23 5q14 -1 20.5 -12t2.5 -29q-11 -50 -34.5 -85t-57.5 -53.5
t-75 -18.5z" />
    <glyph glyph-name="Uring" unicode="&#x16e;" horiz-adv-x="733" 
d="M338 -9q-67 0 -119 19t-86 58t-46.5 97.5t0.5 136.5l57 362q4 25 18.5 36.5t38.5 11.5q26 0 37.5 -14.5t7.5 -42.5l-57 -362q-17 -105 22.5 -158.5t132.5 -53.5q91 0 143.5 46t68.5 148l62 389q4 25 18.5 36.5t38.5 11.5q25 0 36.5 -14.5t7.5 -42.5l-60 -381
q-15 -93 -54 -156t-105 -95t-162 -32zM463 756q-34 0 -62 16.5t-44 43.5t-16 60q0 34 16 60.5t44 42t62 15.5q35 0 62.5 -15.5t43.5 -42t16 -60.5q0 -33 -16 -60t-43.5 -43.5t-62.5 -16.5zM463 806q31 0 50 20t19 50q0 29 -19 48.5t-50 19.5q-30 0 -49.5 -19.5t-19.5 -48.5
q0 -30 19.5 -50t49.5 -20z" />
    <glyph glyph-name="uring" unicode="&#x16f;" horiz-adv-x="569" 
d="M206 -9q-52 0 -88.5 21.5t-52 67t-4.5 115.5l40 253q4 24 18 35.5t38 11.5t36 -14.5t8 -41.5l-39 -244q-9 -62 10.5 -92.5t69.5 -30.5q64 0 103 41.5t50 111.5l35 223q4 24 17.5 35.5t37.5 11.5q25 0 36.5 -14.5t7.5 -41.5l-63 -398q-7 -48 -55 -48q-23 0 -34.5 13
t-7.5 40l12 80l8 -19q-25 -56 -72.5 -86t-110.5 -30zM349 547q-33 0 -61 16t-44.5 43t-16.5 60q0 34 16.5 60.5t44.5 42.5t61 16q35 0 62.5 -16t43.5 -42.5t16 -60.5q0 -33 -16 -60t-43.5 -43t-62.5 -16zM349 597q30 0 49.5 20t19.5 49q0 30 -19.5 49.5t-49.5 19.5
q-29 0 -48.5 -19.5t-19.5 -48.5q0 -31 19.5 -50.5t48.5 -19.5z" />
    <glyph glyph-name="Uhungarumlaut" unicode="&#x170;" horiz-adv-x="733" 
d="M338 -9q-67 0 -119 19t-86 58t-46.5 97.5t0.5 136.5l57 362q4 25 18.5 36.5t38.5 11.5q26 0 37.5 -14.5t7.5 -42.5l-57 -362q-17 -105 22.5 -158.5t132.5 -53.5q91 0 143.5 46t68.5 148l62 389q4 25 18.5 36.5t38.5 11.5q25 0 36.5 -14.5t7.5 -42.5l-60 -381
q-15 -93 -54 -156t-105 -95t-162 -32zM413 769q-8 -11 -18 -12t-18 4t-10.5 14.5t3.5 19.5l76 131q8 15 20.5 20t25 2.5t20.5 -11t8.5 -20t-10.5 -25.5zM549 768q-8 -10 -18 -11t-17.5 4t-10 14.5t4.5 20.5l81 132q8 15 20.5 19.5t23.5 1t18.5 -12.5t7.5 -21t-11 -25z" />
    <glyph glyph-name="uhungarumlaut" unicode="&#x171;" horiz-adv-x="569" 
d="M206 -9q-52 0 -88.5 21.5t-52 67t-4.5 115.5l40 253q4 24 18 35.5t38 11.5t36 -14.5t8 -41.5l-39 -244q-9 -62 10.5 -92.5t69.5 -30.5q64 0 103 41.5t50 111.5l35 223q4 24 17.5 35.5t37.5 11.5q25 0 36.5 -14.5t7.5 -41.5l-63 -398q-7 -48 -55 -48q-23 0 -34.5 13
t-7.5 40l12 80l8 -19q-25 -56 -72.5 -86t-110.5 -30zM431 563q-6 -13 -16.5 -16.5t-20 0t-14 12.5t-0.5 22l55 158q6 17 18 24.5t24.5 7t22 -8t13 -20t-4.5 -27.5zM293 563q-6 -13 -16 -16.5t-19.5 0t-14.5 12.5t0 22l55 158q7 17 18.5 24.5t24 7t22.5 -8t13.5 -20
t-5.5 -27.5z" />
    <glyph glyph-name="Uogonek" unicode="&#x172;" horiz-adv-x="733" 
d="M338 -9q-67 0 -119 19t-86 58t-46.5 97.5t0.5 136.5l57 362q4 25 18.5 36.5t38.5 11.5q26 0 37.5 -14.5t7.5 -42.5l-57 -362q-17 -105 22.5 -158.5t132.5 -53.5q91 0 143.5 46t68.5 148l62 389q4 25 18.5 36.5t38.5 11.5q25 0 36.5 -14.5t7.5 -42.5l-60 -381
q-15 -93 -54 -156t-105 -95t-162 -32zM360 -194q-51 0 -76.5 26t-25.5 65q0 47 28.5 83t80.5 59l29 -39q-23 -9 -38.5 -22.5t-24 -29.5t-8.5 -34q0 -22 14 -36t38 -14q9 0 17.5 1.5t18.5 4.5q14 4 21.5 -1.5t9 -16.5t-3 -21t-14.5 -14q-15 -5 -32.5 -8t-33.5 -3z" />
    <glyph glyph-name="uogonek" unicode="&#x173;" horiz-adv-x="569" 
d="M381 126l8 -19q-25 -56 -72.5 -86t-110.5 -30q-52 0 -88.5 21.5t-52 67t-4.5 115.5l40 253q4 23 18 35t38 12t36 -14.5t8 -41.5l-39 -244q-9 -62 10.5 -92.5t69.5 -30.5q64 0 103 41.5t50 111.5l35 223q4 23 17.5 35t37.5 12q25 0 36.5 -15t7.5 -42l-63 -397
q-3 -20 -12.5 -31t-25.5 -16q-32 -11 -48 -32.5t-16 -47.5q0 -22 14 -36t38 -14q8 0 16.5 1.5t19.5 4.5q14 4 21.5 -1.5t9 -16.5t-3 -21t-15.5 -14q-14 -5 -32 -8t-34 -3q-50 0 -75.5 26t-25.5 65q0 42 21.5 74.5t62.5 54.5l-9 -12q-3 7 -3.5 14.5t0.5 17.5z" />
    <glyph glyph-name="Wcircumflex" unicode="&#x174;" horiz-adv-x="1107" 
d="M278 -7q-21 0 -33.5 12.5t-17.5 36.5l-117 608q-6 29 7.5 45.5t40.5 16.5q20 0 32.5 -11.5t16.5 -36.5l104 -568h-38l293 577q11 20 24.5 29.5t33.5 9.5q18 0 29.5 -12t16.5 -38l104 -566h-33l291 578q9 20 21.5 29t32.5 9q30 0 40.5 -19.5t-3.5 -47.5l-313 -613
q-10 -20 -24.5 -29.5t-36.5 -9.5t-34.5 12.5t-17.5 36.5l-101 537h22l-279 -547q-10 -20 -24 -29.5t-37 -9.5zM535 769q-10 -11 -22.5 -12t-21.5 5t-11 16t7 22l92 114q15 18 31 26.5t37 8.5q20 0 34 -10t26 -30l66 -108q9 -14 5.5 -25t-14.5 -16.5t-24.5 -2.5t-23.5 16
l-76 104z" />
    <glyph glyph-name="wcircumflex" unicode="&#x175;" horiz-adv-x="846" 
d="M210 -7q-21 0 -35.5 11.5t-20.5 36.5l-84 382q-5 22 -0.5 38t16.5 25t30 9q20 0 30 -10.5t15 -34.5l72 -365h-25l198 378q9 17 21 24.5t30 7.5t30 -9.5t16 -30.5l74 -370h-21l193 373q11 20 23 28.5t32 8.5t30.5 -9t11.5 -23t-8 -31l-215 -400q-11 -20 -26.5 -29.5
t-35.5 -9.5q-21 0 -36 12t-21 36l-77 367h44l-198 -375q-11 -20 -26.5 -30t-36.5 -10zM602 588q6 -15 1 -25.5t-15.5 -15.5t-22 -2.5t-17.5 14.5l-70 134l-101 -135q-8 -11 -20 -13.5t-21.5 3t-12 16.5t5.5 24l93 143q12 19 27 28.5t34 9.5t33 -9t23 -29z" />
    <glyph glyph-name="Ycircumflex" unicode="&#x176;" horiz-adv-x="606" 
d="M263 -7q-25 0 -35.5 16t-6.5 44l49 311l11 -66l-189 340q-11 20 -9.5 36.5t14 27t33.5 10.5q19 0 30.5 -8.5t23.5 -29.5l150 -271h-24l243 278q15 18 27.5 24.5t30.5 6.5q19 0 31 -11t12 -28t-15 -35l-299 -340l33 66l-51 -320q-8 -51 -59 -51zM278 769
q-10 -11 -22.5 -12t-21.5 5t-11 16t7 22l92 114q15 18 31 26.5t37 8.5q20 0 34 -10t26 -30l66 -108q9 -14 5.5 -25t-14.5 -16.5t-24.5 -2.5t-23.5 16l-76 104z" />
    <glyph glyph-name="ycircumflex" unicode="&#x177;" horiz-adv-x="520" 
d="M121 -187q-19 0 -29.5 9t-11 24t8.5 31l95 157l-7 -43l-118 434q-5 20 -1.5 36t16.5 25t31 9q22 0 32.5 -10t16.5 -36l91 -367h-30l217 376q11 20 23 28.5t32 8.5q19 0 30.5 -9.5t12.5 -24t-9 -32.5l-345 -580q-11 -19 -23 -27.5t-32 -8.5zM434 588q6 -15 1 -25.5
t-15.5 -15.5t-22 -2.5t-17.5 14.5l-70 134l-101 -135q-8 -11 -20 -13.5t-21.5 3t-12 16.5t5.5 24l93 143q12 19 27 28.5t34 9.5t33 -9t23 -29z" />
    <glyph glyph-name="Ydieresis" unicode="&#x178;" horiz-adv-x="606" 
d="M263 -7q-25 0 -35.5 16t-6.5 44l49 311l11 -66l-189 340q-11 20 -9.5 36.5t14 27t33.5 10.5q19 0 30.5 -8.5t23.5 -29.5l150 -271h-24l243 278q15 18 27.5 24.5t30.5 6.5q19 0 31 -11t12 -28t-15 -35l-299 -340l33 66l-51 -320q-8 -51 -59 -51zM472 795q-22 0 -34 11
t-12 31q0 30 16 47t46 17q22 0 34.5 -10.5t12.5 -30.5q0 -30 -16.5 -47.5t-46.5 -17.5zM291 795q-21 0 -33.5 11t-12.5 31q0 30 16.5 47t46.5 17q22 0 34 -10.5t12 -30.5q0 -30 -16 -47.5t-47 -17.5z" />
    <glyph glyph-name="Zacute" unicode="&#x179;" horiz-adv-x="596" 
d="M59 0q-17 0 -28 8.5t-14.5 22.5t2 32t22.5 37l480 553l2 -35h-371q-22 0 -34 9.5t-12 26.5q0 25 14.5 38t37.5 13h421q21 0 33 -8.5t15.5 -22.5t-2.5 -31.5t-23 -35.5l-481 -555l-2 35h386q22 0 34 -8.5t12 -26.5q0 -25 -14 -38.5t-38 -13.5h-440zM425 770
q-11 -11 -23.5 -11.5t-21.5 6.5t-11 18.5t7 22.5l93 123q11 15 25 18.5t26 -0.5t20 -13.5t7.5 -22.5t-13.5 -26z" />
    <glyph glyph-name="zacute" unicode="&#x17a;" horiz-adv-x="468" 
d="M61 0q-16 0 -27 7t-15 18t-0.5 24.5t15.5 26.5l327 359l3 -24h-246q-19 0 -30 8.5t-11 23.5q0 21 12.5 33t33.5 12h297q17 0 28 -7t14.5 -18.5t-0.5 -25.5t-18 -29l-326 -358l-4 27h260q41 0 41 -32q0 -20 -12 -32.5t-34 -12.5h-308zM324 557q-10 -12 -21.5 -13.5t-21 5
t-11.5 18t6 24.5l103 156q10 16 23.5 20.5t26 0.5t20.5 -14t8.5 -23.5t-11.5 -26.5z" />
    <glyph glyph-name="Zdotaccent" unicode="&#x17b;" horiz-adv-x="596" 
d="M59 0q-17 0 -28 8.5t-14.5 22.5t2 32t22.5 37l480 553l2 -35h-371q-22 0 -34 9.5t-12 26.5q0 25 14.5 38t37.5 13h421q21 0 33 -8.5t15.5 -22.5t-2.5 -31.5t-23 -35.5l-481 -555l-2 35h386q22 0 34 -8.5t12 -26.5q0 -25 -14 -38.5t-38 -13.5h-440zM387 797q-23 0 -36 11
t-13 32q0 32 17.5 48.5t49.5 16.5q23 0 36 -10.5t13 -32.5q0 -29 -17.5 -47t-49.5 -18z" />
    <glyph glyph-name="zdotaccent" unicode="&#x17c;" horiz-adv-x="468" 
d="M61 0q-16 0 -27 7t-15 18t-0.5 24.5t15.5 26.5l327 359l3 -24h-246q-19 0 -30 8.5t-11 23.5q0 21 12.5 33t33.5 12h297q17 0 28 -7t14.5 -18.5t-0.5 -25.5t-18 -29l-326 -358l-4 27h260q41 0 41 -32q0 -20 -12 -32.5t-34 -12.5h-308zM293 600q-23 0 -36 11t-13 32
q0 31 17.5 48t49.5 17q23 0 36 -11t13 -31q0 -31 -18 -48.5t-49 -17.5z" />
    <glyph glyph-name="Zcaron" unicode="&#x17d;" horiz-adv-x="596" 
d="M59 0q-17 0 -28 8.5t-14.5 22.5t2 32t22.5 37l480 553l2 -35h-371q-22 0 -34 9.5t-12 26.5q0 25 14.5 38t37.5 13h421q21 0 33 -8.5t15.5 -22.5t-2.5 -31.5t-23 -35.5l-481 -555l-2 35h386q22 0 34 -8.5t12 -26.5q0 -25 -14 -38.5t-38 -13.5h-440zM379 754
q-20 0 -33.5 10.5t-25.5 29.5l-67 108q-9 15 -5.5 25.5t14 16t23.5 2.5t23 -17l77 -103l104 109q10 11 23 12t23 -5t12 -16.5t-7 -22.5l-92 -112q-15 -19 -31 -28t-38 -9z" />
    <glyph glyph-name="zcaron" unicode="&#x17e;" horiz-adv-x="468" 
d="M61 0q-16 0 -27 7t-15 18t-0.5 24.5t15.5 26.5l327 359l3 -24h-246q-19 0 -30 8.5t-11 23.5q0 21 12.5 33t33.5 12h297q17 0 28 -7t14.5 -18.5t-0.5 -25.5t-18 -29l-326 -358l-4 27h260q41 0 41 -32q0 -20 -12 -32.5t-34 -12.5h-308zM284 540q-19 0 -33.5 9.5t-22.5 29.5
l-62 143q-6 15 -1.5 26t15 15.5t22.5 1.5t18 -16l70 -135l103 137q9 12 21 14.5t21 -3t12 -16t-6 -25.5l-92 -140q-13 -20 -29.5 -30.5t-35.5 -10.5z" />
    <glyph glyph-name="uni0181" unicode="&#x181;" horiz-adv-x="817" 
d="M241 0q-29 0 -42.5 16t-8.5 44l90 569h-31q-52 0 -79.5 -23.5t-38.5 -79.5l-4 -22q-1 -9 -6.5 -16.5t-15 -11.5t-22.5 -4q-15 0 -24.5 6t-12.5 16.5t-2 24.5l4 22q12 83 61.5 123.5t149.5 40.5h310q76 0 124 -21t71 -58.5t23 -86.5q0 -77 -48.5 -126.5t-127.5 -61.5v16
q66 -12 103.5 -54t37.5 -104q0 -103 -66 -156t-186 -53h-259zM292 80h205q77 0 115.5 34.5t38.5 99.5q0 51 -34 77t-98 26h-189zM343 397h187q73 0 114.5 34t41.5 97q0 47 -32 72t-100 25h-175z" />
    <glyph glyph-name="uni018A" unicode="&#x18a;" horiz-adv-x="888" 
d="M241 0q-29 0 -42.5 16t-9.5 44l91 569h-30q-51 0 -80.5 -23.5t-38.5 -79.5l-4 -22q-1 -9 -6.5 -16.5t-15 -11.5t-22.5 -4q-15 0 -24.5 6t-13 16.5t-1.5 24.5l4 22q13 83 62 123.5t149 40.5h248q164 0 253 -78t89 -220q0 -85 -24.5 -158.5t-74 -129.5t-125 -87.5
t-177.5 -31.5h-207zM297 87h153q77 0 132.5 24.5t90.5 68t51.5 102t16.5 124.5q0 104 -59 158t-175 54h-126z" />
    <glyph glyph-name="uni018F" unicode="&#x18f;" horiz-adv-x="775" 
d="M369 -9q-83 0 -144 29.5t-98 81.5t-50 120t0 143q2 17 12 24.5t30 7.5h542l-13 -85h-501l33 41q-11 -80 5 -142.5t63 -97.5t127 -35q85 0 141 44t84 119.5t28 166.5q0 67 -27 115.5t-77.5 74.5t-121.5 26q-61 0 -112 -13t-96 -41q-17 -10 -31 -7.5t-23.5 12t-12 23.5
t4 27t21.5 22q57 36 123 51.5t142 15.5q95 0 166.5 -38.5t111.5 -108.5t40 -162q0 -87 -23.5 -162t-69.5 -132t-114.5 -88.5t-159.5 -31.5z" />
    <glyph glyph-name="florin" unicode="&#x192;" horiz-adv-x="600" 
d="M9 -189q-22 0 -32.5 9.5t-10.5 23.5q0 20 12 34t35 14h26q40 0 65.5 22t46.5 76l160 432l18 -12h-86q-25 0 -37 9.5t-12 23.5q0 21 13 33t37 12h109l-22 -16l25 69q31 88 82 130.5t144 42.5h15q21 0 30.5 -10t9.5 -24q0 -19 -12 -33.5t-31 -14.5h-23q-44 0 -71 -21.5
t-47 -76.5l-23 -62l-15 16h90q25 0 36.5 -9.5t11.5 -24.5q0 -20 -12.5 -32t-36.5 -12h-113l21 13l-165 -444q-24 -64 -54 -101t-70.5 -52t-98.5 -15h-15z" />
    <glyph glyph-name="Ohorn" unicode="&#x1a0;" horiz-adv-x="775" 
d="M374 -9q-91 0 -158.5 35t-105 104t-37.5 166q0 90 24.5 166t71.5 133t114 88t153 31q92 0 159.5 -35t104.5 -103.5t37 -165.5q0 -91 -24.5 -167t-71.5 -133t-114 -88t-153 -31zM376 81q82 0 138 42.5t85 116.5t29 168q0 110 -51.5 163t-143.5 53q-81 0 -137 -42t-85 -116
t-29 -168q0 -111 52 -164t142 -53zM531 649l-40 60q24 -1 43 -2.5t37 -1.5q41 0 64.5 13t35 36t15.5 52q4 19 16 27t33 8q22 0 33 -9t8 -27q-6 -46 -27 -81.5t-55 -55t-82 -19.5h-81z" />
    <glyph glyph-name="ohorn" unicode="&#x1a1;" horiz-adv-x="565" 
d="M261 -9q-69 0 -118 26t-75.5 75t-26.5 116q0 64 19.5 116.5t55 91.5t83.5 60t105 21q69 0 118 -26.5t75.5 -75t26.5 -115.5q0 -64 -19.5 -117t-55 -91.5t-83.5 -59.5t-105 -21zM263 69q52 0 87 29t53.5 77.5t18.5 107.5q0 66 -32 100.5t-88 34.5q-51 0 -86.5 -28.5
t-54 -77t-18.5 -108.5q0 -65 32 -100t88 -35zM421 431l-53 36l4 21q35 0 56.5 8.5t33.5 23t18 33t10 36.5q6 34 48 34q21 0 32.5 -9t8.5 -28q-9 -65 -48 -107.5t-110 -47.5z" />
    <glyph glyph-name="Uhorn" unicode="&#x1af;" horiz-adv-x="733" 
d="M338 -9q-67 0 -119 19t-86 58t-46.5 97.5t0.5 136.5l57 362q4 25 18.5 36.5t38.5 11.5q26 0 37.5 -14.5t7.5 -42.5l-57 -362q-17 -105 22.5 -158.5t132.5 -53.5q91 0 143.5 46t68.5 148l62 389q4 25 18.5 36.5t38.5 11.5q25 0 36.5 -14.5t7.5 -42.5l-60 -381
q-15 -93 -54 -156t-105 -95t-162 -32zM694 649l-51 35l3 21q40 1 64 11.5t36 32t17 51.5q4 17 16 25t33 8q22 0 33 -8.5t8 -24.5q-7 -45 -28 -77.5t-54 -51.5t-77 -22z" />
    <glyph glyph-name="uhorn" unicode="&#x1b0;" horiz-adv-x="569" 
d="M206 -9q-52 0 -88.5 21.5t-52 67t-4.5 115.5l40 253q4 23 18 35t38 12t36 -14.5t8 -41.5l-39 -244q-9 -62 10.5 -92.5t69.5 -30.5q64 0 103 41.5t50 111.5l34 218q4 23 17.5 35t35.5 13q33 2 51 14.5t28 34t16 49.5q6 34 48 34q21 0 32 -9t9 -28q-8 -59 -42 -100.5
t-96 -51.5l-62 -393q-7 -48 -55 -48q-23 0 -34.5 13t-7.5 40l12 80l8 -19q-25 -56 -72.5 -86t-110.5 -30z" />
    <glyph glyph-name="uni01B3" unicode="&#x1b3;" horiz-adv-x="616" 
d="M264 -7q-26 0 -37 15.5t-7 43.5l50 312l11 -66l-190 341q-11 19 -8.5 35.5t15.5 27t33 10.5q12 0 21 -3.5t16.5 -11.5t15.5 -23l150 -271h-24l200 227q28 32 52.5 50t51.5 26t59 8q33 0 51 -8t18 -32q0 -10 -5 -19.5t-12 -15t-13 -4.5q-4 0 -13.5 1t-16.5 1
q-22 0 -43.5 -12t-45.5 -39l-253 -288l33 66l-50 -319q-9 -52 -59 -52z" />
    <glyph glyph-name="uni01B4" unicode="&#x1b4;" horiz-adv-x="560" 
d="M122 -187q-20 0 -30.5 9t-11 24t8.5 31l95 157l-7 -43l-118 433q-5 20 -1 36t16.5 25.5t31.5 9.5q21 0 31.5 -10t16.5 -36l91 -367h-30l175 304q23 40 47 64.5t55 35.5t72 11t56.5 -10t15.5 -30q0 -17 -8.5 -30t-21.5 -13q-4 0 -15.5 1t-21.5 1q-29 0 -52.5 -15.5
t-48.5 -58.5l-291 -493q-11 -19 -23.5 -27.5t-31.5 -8.5z" />
    <glyph glyph-name="uni01C4" unicode="&#x1c4;" horiz-adv-x="1333" 
d="M104 0q-28 0 -41.5 16t-9.5 44l95 594q4 26 19 38.5t40 12.5h164q164 0 253 -78t89 -220q0 -85 -24 -158.5t-74 -129.5t-125 -87.5t-178 -31.5h-208zM161 87h153q77 0 132.5 24.5t90.5 68t51.5 102t16.5 124.5q0 104 -59 158t-175 54h-126zM795 0q-17 0 -28 8.5
t-14.5 22.5t2 32t22.5 37l480 553l2 -35h-371q-22 0 -34 9.5t-12 26.5q0 25 14.5 38t37.5 13h421q21 0 33 -8.5t15.5 -22.5t-2.5 -31.5t-23 -35.5l-481 -555l-2 35h386q22 0 34 -8.5t12 -26.5q0 -25 -14 -38.5t-38 -13.5h-440zM1115 754q-20 0 -33.5 10.5t-25.5 29.5
l-67 108q-9 15 -5.5 25.5t14 16t23.5 2.5t23 -17l77 -103l104 109q10 11 23 12t23 -5t12 -16.5t-7 -22.5l-92 -112q-15 -19 -31 -28t-38 -9z" />
    <glyph glyph-name="uni01C5" unicode="&#x1c5;" horiz-adv-x="1220" 
d="M104 0q-28 0 -41.5 16t-9.5 44l95 594q4 26 19 38.5t40 12.5h164q164 0 253 -78t89 -220q0 -85 -24 -158.5t-74 -129.5t-125 -87.5t-178 -31.5h-208zM161 87h153q77 0 132.5 24.5t90.5 68t51.5 102t16.5 124.5q0 104 -59 158t-175 54h-126zM812 0q-16 0 -27 7t-15 18
t-0.5 24.5t15.5 26.5l327 359l3 -24h-246q-19 0 -30 8.5t-11 23.5q0 21 12.5 33t33.5 12h297q17 0 28 -7t14.5 -18.5t-0.5 -25.5t-18 -29l-326 -358l-4 27h260q41 0 41 -32q0 -20 -12 -32.5t-34 -12.5h-308zM1036 540q-19 0 -33.5 9.5t-22.5 29.5l-62 143q-6 15 -1.5 26
t15 15.5t22.5 1.5t18 -16l70 -135l103 137q9 12 21 14.5t21 -3t12 -16t-6 -25.5l-92 -140q-13 -20 -29.5 -30.5t-35.5 -10.5z" />
    <glyph glyph-name="uni01C6" unicode="&#x1c6;" horiz-adv-x="1059" 
d="M226 -9q-56 0 -97.5 25.5t-65 72.5t-23.5 111q0 82 29 149.5t84 107.5t132 40q58 0 102.5 -28.5t61.5 -85.5l-7 1l44 280q4 26 18.5 37t39.5 11q23 0 34 -14.5t7 -42.5l-97 -611q-4 -25 -18.5 -38t-39.5 -13q-23 0 -33.5 16t-5.5 44l11 66l4 -21q-27 -49 -73 -78
t-107 -29zM263 69q51 0 86 29t53.5 77.5t18.5 107.5q0 66 -32 100.5t-88 34.5q-51 0 -86 -28.5t-54 -77t-19 -108.5q0 -65 32 -100t89 -35zM652 0q-16 0 -27 7t-15 18t-0.5 24.5t15.5 26.5l327 359l3 -24h-246q-19 0 -30 8.5t-11 23.5q0 21 12.5 33t33.5 12h297q17 0 28 -7
t14.5 -18.5t-0.5 -25.5t-18 -29l-326 -358l-4 27h260q41 0 41 -32q0 -20 -12 -32.5t-34 -12.5h-308zM875 540q-19 0 -33.5 9.5t-22.5 29.5l-62 143q-6 15 -1.5 26t15 15.5t22.5 1.5t18 -16l70 -135l103 137q9 12 21 14.5t21 -3t12 -16t-6 -25.5l-92 -140
q-13 -20 -29.5 -30.5t-35.5 -10.5z" />
    <glyph glyph-name="uni01C7" unicode="&#x1c7;" horiz-adv-x="929" 
d="M101 0q-27 0 -39.5 15t-8.5 42l97 608q4 24 17.5 35.5t37.5 11.5q26 0 38 -15t8 -41l-89 -567h301q23 0 35.5 -9.5t12.5 -26.5q0 -26 -14.5 -39.5t-38.5 -13.5h-357zM595 -7q-23 -1 -36.5 10t-12.5 32t11 32t31 12l31 2q51 4 80 33.5t38 86.5l74 463q4 25 17.5 36.5
t38.5 11.5t37 -15t8 -42l-74 -464q-9 -60 -33.5 -102t-68 -65t-110.5 -28z" />
    <glyph glyph-name="uni01C8" unicode="&#x1c8;" horiz-adv-x="798" 
d="M101 0q-27 0 -39.5 15t-8.5 42l97 608q4 24 17.5 35.5t37.5 11.5q26 0 38 -15t8 -41l-89 -567h301q23 0 35.5 -9.5t12.5 -26.5q0 -26 -14.5 -39.5t-38.5 -13.5h-357zM478 -191q-17 -1 -27 6.5t-13.5 19t-0.5 23.5t12 19.5t24 8.5q47 2 76 26t37 77l72 456q4 25 18.5 37.5
t39.5 12.5q23 0 34.5 -15.5t7.5 -43.5l-70 -439q-10 -63 -35 -103.5t-67.5 -61t-107.5 -23.5zM732 597q-28 0 -42.5 14t-11.5 39q2 30 21 45.5t51 15.5q28 0 42.5 -14t11.5 -39q-3 -30 -21.5 -45.5t-50.5 -15.5z" />
    <glyph glyph-name="uni01C9" unicode="&#x1c9;" horiz-adv-x="553" 
d="M191 -9q-77 0 -111.5 44.5t-21.5 130.5l80 496q4 25 18.5 37.5t39.5 12.5q23 0 34 -15t7 -44l-78 -486q-8 -49 8 -71t53 -22q12 0 19.5 2t13.5 2q8 0 13 -6t5 -23q0 -23 -10 -36t-26 -17q-8 -3 -21 -4t-23 -1zM232 -191q-17 -1 -27 6.5t-13.5 19t-0.5 23.5t12 19.5
t24 8.5q47 2 76 26t37 77l72 456q4 25 18.5 37.5t39.5 12.5q23 0 34.5 -15.5t7.5 -43.5l-70 -439q-10 -63 -35 -103.5t-67.5 -61t-107.5 -23.5zM486 597q-28 0 -42.5 14t-11.5 39q2 30 21 45.5t51 15.5q28 0 42.5 -14t11.5 -39q-3 -30 -21.5 -45.5t-50.5 -15.5z" />
    <glyph glyph-name="uni01CA" unicode="&#x1ca;" horiz-adv-x="1080" 
d="M93 -7q-22 0 -33.5 15t-7.5 42l98 618q4 23 17 33.5t31 10.5q20 0 30.5 -7.5t20.5 -24.5l320 -550h-22l84 535q4 24 18 35.5t38 11.5q22 0 32 -15t6 -41l-98 -618q-3 -23 -14 -34t-30 -11q-20 0 -32 8t-23 26l-320 548h22l-84 -535q-3 -24 -15.5 -35.5t-37.5 -11.5z
M746 -7q-23 -1 -36.5 10t-12.5 32t11 32t31 12l31 2q51 4 80 33.5t38 86.5l74 463q4 25 17.5 36.5t38.5 11.5t37 -15t8 -42l-74 -464q-9 -60 -33.5 -102t-68 -65t-110.5 -28z" />
    <glyph glyph-name="uni01CB" unicode="&#x1cb;" horiz-adv-x="989" 
d="M93 -7q-22 0 -33.5 15t-7.5 42l98 618q4 23 17 33.5t31 10.5q20 0 30.5 -7.5t20.5 -24.5l320 -550h-22l84 535q4 24 18 35.5t38 11.5q22 0 32 -15t6 -41l-98 -618q-3 -23 -14 -34t-30 -11q-20 0 -32 8t-23 26l-320 548h22l-84 -535q-3 -24 -15.5 -35.5t-37.5 -11.5z
M669 -191q-17 -1 -27 6.5t-13.5 19t-0.5 23.5t12 19.5t24 8.5q47 2 76 26t37 77l72 456q4 25 18.5 37.5t39.5 12.5q23 0 34.5 -15.5t7.5 -43.5l-70 -439q-10 -63 -35 -103.5t-67.5 -61t-107.5 -23.5zM923 597q-28 0 -42.5 14t-11.5 39q2 30 21 45.5t51 15.5q28 0 42.5 -14
t11.5 -39q-3 -30 -21.5 -45.5t-50.5 -15.5z" />
    <glyph glyph-name="uni01CC" unicode="&#x1cc;" horiz-adv-x="822" 
d="M82 -7q-23 0 -34 16t-7 44l62 392q4 25 19 37.5t39 12.5q22 0 33 -14t6 -42l-11 -74l-6 17q25 56 72.5 85.5t112.5 29.5q54 0 90.5 -22t52 -67t4.5 -114l-39 -251q-3 -25 -18 -37.5t-40 -12.5q-24 0 -35 16t-7 43l38 240q10 63 -10 93.5t-72 30.5q-67 0 -106.5 -41
t-50.5 -112l-35 -220q-7 -50 -58 -50zM502 -191q-17 -1 -27 6.5t-13.5 19t-0.5 23.5t12 19.5t24 8.5q47 2 76 26t37 77l72 456q4 25 18.5 37.5t39.5 12.5q23 0 34.5 -15.5t7.5 -43.5l-70 -439q-10 -63 -35 -103.5t-67.5 -61t-107.5 -23.5zM756 597q-28 0 -42.5 14t-11.5 39
q2 30 21 45.5t51 15.5q28 0 42.5 -14t11.5 -39q-3 -30 -21.5 -45.5t-50.5 -15.5z" />
    <glyph glyph-name="uni01CD" unicode="&#x1cd;" horiz-adv-x="736" 
d="M45 -7q-18 0 -30.5 8.5t-15 23t7.5 32.5l375 620q12 18 25.5 26.5t34.5 8.5t34.5 -10t19.5 -31l174 -611q7 -23 3 -38t-15.5 -22t-27.5 -7q-22 0 -34.5 11.5t-18.5 34.5l-41 155l35 -22h-420l45 20l-99 -168q-8 -16 -21 -23.5t-31 -7.5zM429 590l-206 -352l-23 18h349
l-25 -19l-93 353h-2zM449 754q-20 0 -33.5 10.5t-25.5 29.5l-67 108q-9 15 -5.5 25.5t14 16t23.5 2.5t23 -17l77 -103l104 109q10 11 23 12t23 -5t12 -16.5t-7 -22.5l-92 -112q-15 -19 -31 -28t-38 -9z" />
    <glyph glyph-name="uni01CE" unicode="&#x1ce;" horiz-adv-x="537" 
d="M196 -9q-43 0 -80 19.5t-59 53t-22 75.5q0 52 28.5 84t89.5 47.5t157 15.5h80l-9 -62h-62q-69 0 -109.5 -7t-57.5 -24.5t-17 -47.5q0 -40 26.5 -61t63.5 -21q34 0 63 15t49.5 43.5t26.5 68.5l19 120q9 53 -14.5 81t-83.5 28q-35 0 -67.5 -7t-65.5 -24q-15 -8 -28 -5.5
t-21 11t-9 20.5t6.5 24t25.5 21q40 20 85 29t86 9q73 0 115.5 -27t58 -75t5.5 -111l-38 -241q-3 -25 -17.5 -37.5t-37.5 -12.5q-22 0 -33 14.5t-7 41.5l11 73l8 -15q-13 -39 -39.5 -65.5t-59 -38.5t-67.5 -12zM316 540q-19 0 -33.5 9.5t-22.5 29.5l-62 143q-6 15 -1.5 26
t15 15.5t22.5 1.5t18 -16l70 -135l103 137q9 12 21 14.5t21 -3t12 -16t-6 -25.5l-92 -140q-13 -20 -29.5 -30.5t-35.5 -10.5z" />
    <glyph glyph-name="uni01D4" unicode="&#x1d4;" horiz-adv-x="569" 
d="M206 -9q-52 0 -88.5 21.5t-52 67t-4.5 115.5l40 253q4 24 18 35.5t38 11.5t36 -14.5t8 -41.5l-39 -244q-9 -62 10.5 -92.5t69.5 -30.5q64 0 103 41.5t50 111.5l35 223q4 24 17.5 35.5t37.5 11.5q25 0 36.5 -14.5t7.5 -41.5l-63 -398q-7 -48 -55 -48q-23 0 -34.5 13
t-7.5 40l12 80l8 -19q-25 -56 -72.5 -86t-110.5 -30zM329 541q-19 0 -33.5 9.5t-22.5 29.5l-62 143q-6 15 -1.5 26t15 15.5t22.5 1.5t18 -16l70 -135l103 137q9 12 21 14.5t21 -3t12 -16t-6 -25.5l-92 -140q-13 -20 -29.5 -30.5t-35.5 -10.5z" />
    <glyph glyph-name="uni01E5" unicode="&#x1e5;" horiz-adv-x="594" 
d="M252 -189q-59 0 -111 14.5t-92 39.5q-14 8 -18.5 20t-1.5 24t11.5 20.5t21 10.5t27.5 -7q34 -20 70.5 -32t79.5 -12q45 0 77.5 16t51.5 47l4 -11h-87q-20 0 -28.5 9.5t-8.5 23.5q0 18 12 25.5t27 7.5h109l-11 -13q1 6 2.5 12.5t2.5 11.5l22 133l5 -1q-24 -51 -73 -80.5
t-111 -29.5q-58 0 -101 25t-66 68t-23 98q0 54 18 102.5t51.5 85t78.5 57.5t101 21q60 0 104.5 -28.5t57.5 -84.5l-10 -21l13 83q4 25 18 37t39 12q23 0 33.5 -15.5t5.5 -43.5l-64 -409q-1 -8 -3 -15.5t-4 -15.5l-5 11h36q20 0 28.5 -9t8.5 -23q0 -16 -12 -25t-27 -9h-57
l17 11q-28 -70 -81 -105.5t-138 -35.5zM267 118q50 0 86 25t56.5 66.5t20.5 91.5q0 55 -32 86t-90 31q-48 0 -85 -24.5t-57.5 -66t-20.5 -91.5q0 -54 32 -86t90 -32z" />
    <glyph glyph-name="Gcaron" unicode="&#x1e6;" horiz-adv-x="731" 
d="M394 -9q-98 0 -170 35t-111.5 104t-39.5 169q0 92 26 167.5t75 131.5t119 86t159 30q63 0 117.5 -16t93.5 -46q16 -11 20.5 -26t0.5 -29.5t-14 -24.5t-24 -11.5t-30 9.5q-35 28 -77.5 40.5t-92.5 12.5q-83 0 -142 -41t-90.5 -113t-31.5 -166q0 -113 58 -167.5t167 -54.5
q45 0 84.5 8t75.5 21l-28 -48l38 233h-129q-20 0 -32 9t-12 25q0 21 13.5 32.5t35.5 11.5h172q24 0 35.5 -13t7.5 -37l-39 -252q-4 -19 -12.5 -30.5t-26.5 -18.5q-39 -15 -92 -23t-104 -8zM450 754q-20 0 -33.5 10.5t-25.5 29.5l-67 108q-9 15 -5.5 25.5t14 16t23.5 2.5
t23 -17l77 -103l104 109q10 11 23 12t23 -5t12 -16.5t-7 -22.5l-92 -112q-15 -19 -31 -28t-38 -9z" />
    <glyph glyph-name="gcaron" unicode="&#x1e7;" horiz-adv-x="594" 
d="M252 -189q-59 0 -111 14.5t-92 39.5q-14 8 -18.5 20t-1.5 24t11.5 20.5t21 10.5t27.5 -7q33 -20 70 -32t79 -12q63 0 101.5 30t49.5 95l17 105l8 -1q-24 -50 -71 -78t-107 -28q-59 0 -102.5 24t-68 69t-24.5 107q0 56 17 107.5t49 91.5t77.5 63t103.5 23q59 0 104 -28.5
t62 -85.5l-11 -20l13 83q4 25 18.5 37t38.5 12t34 -15.5t6 -43.5l-66 -417q-16 -103 -74.5 -155.5t-160.5 -52.5zM265 91q52 0 88 28t54.5 74.5t18.5 99.5q0 59 -32 92t-91 33q-51 0 -87 -28t-54.5 -74t-18.5 -99q0 -60 32 -93t90 -33zM341 540q-19 0 -33.5 9.5t-22.5 29.5
l-62 143q-6 15 -1.5 26t15 15.5t22.5 1.5t18 -16l70 -135l103 137q9 12 21 14.5t21 -3t12 -16t-6 -25.5l-92 -140q-13 -20 -29.5 -30.5t-35.5 -10.5z" />
    <glyph glyph-name="uni01E9" unicode="&#x1e9;" horiz-adv-x="516" 
d="M82 -7q-24 0 -34.5 15t-6.5 43l97 613q4 25 18.5 36.5t39.5 11.5q23 0 34 -15.5t7 -43.5l-60 -378h2l219 191q16 15 29 22t30 7q20 0 29.5 -11.5t7.5 -28.5t-18 -31l-224 -198l2 49l184 -210q14 -17 13 -33.5t-12.5 -27.5t-30.5 -11q-21 0 -33.5 9t-28.5 29l-175 196h-2
l-29 -186q-7 -48 -58 -48zM367 754q-20 0 -33.5 10.5t-25.5 29.5l-67 108q-9 15 -5.5 25.5t14 16t23.5 2.5t23 -17l77 -103l104 109q10 11 23 12t23 -5t12 -16.5t-7 -22.5l-92 -112q-15 -19 -31 -28t-38 -9z" />
    <glyph glyph-name="uni01EA" unicode="&#x1ea;" horiz-adv-x="775" 
d="M374 -9q-91 0 -158.5 35t-105 104t-37.5 166q0 90 24.5 166t71.5 133t114 88t153 31q92 0 159.5 -35t104.5 -103.5t37 -165.5q0 -91 -24.5 -167t-71.5 -133t-114 -88t-153 -31zM376 81q82 0 138 42.5t85 116.5t29 168q0 110 -51.5 163t-143.5 53q-81 0 -137 -42t-85 -116
t-29 -168q0 -111 52 -164t142 -53zM384 -194q-51 0 -76.5 26t-25.5 65q0 47 28.5 83t80.5 59l29 -39q-23 -9 -38.5 -22.5t-24 -29.5t-8.5 -34q0 -22 14 -36t38 -14q9 0 17.5 1.5t18.5 4.5q14 4 21.5 -1.5t9 -16.5t-3 -21t-14.5 -14q-15 -5 -32.5 -8t-33.5 -3z" />
    <glyph glyph-name="uni01EB" unicode="&#x1eb;" horiz-adv-x="565" 
d="M261 -9q-69 0 -118 26t-75.5 75t-26.5 116q0 64 19.5 116.5t55 91.5t83.5 60t105 21q69 0 118 -26.5t75.5 -75t26.5 -115.5q0 -64 -19.5 -117t-55 -91.5t-83.5 -59.5t-105 -21zM263 69q52 0 87 29t53.5 77.5t18.5 107.5q0 66 -32 100.5t-88 34.5q-51 0 -86.5 -28.5
t-54 -77t-18.5 -108.5q0 -65 32 -100t88 -35zM279 -194q-51 0 -76.5 26t-25.5 65q0 47 28.5 83t80.5 59l29 -39q-23 -9 -38.5 -22.5t-24 -29.5t-8.5 -34q0 -22 14 -36t38 -14q9 0 17.5 1.5t18.5 4.5q14 4 21.5 -1.5t9 -16.5t-3 -21t-14.5 -14q-15 -5 -32.5 -8t-33.5 -3z" />
    <glyph glyph-name="uni01EF" unicode="&#x1ef;" horiz-adv-x="504" 
d="M189 -189q-54 0 -110 13.5t-102 42.5q-14 9 -19 21.5t-2 24.5t11.5 20.5t21.5 9.5t28 -9q36 -25 78 -35t85 -10q76 0 116.5 39t40.5 108q0 47 -33 77t-98 30h-70q-17 0 -25 8.5t-6 21.5t15 24l255 236l-3 -26h-276q-22 0 -33.5 11.5t-8.5 29.5q7 40 48 40h335
q17 0 28 -7.5t14 -19t-2.5 -25t-20.5 -26.5l-241 -221l-25 26h60q60 0 102 -24t63.5 -63.5t21.5 -87.5q0 -66 -29 -117.5t-84.5 -81.5t-134.5 -30zM289 540q-19 0 -33.5 9.5t-22.5 29.5l-62 143q-6 15 -1.5 26t15 15.5t22.5 1.5t18 -16l70 -135l103 137q9 12 21 14.5t21 -3
t12 -16t-6 -25.5l-92 -140q-13 -20 -29.5 -30.5t-35.5 -10.5z" />
    <glyph glyph-name="Aringacute" unicode="&#x1fa;" horiz-adv-x="736" 
d="M45 -7q-18 0 -30.5 8.5t-15 23t7.5 32.5l375 620q12 18 25.5 26.5t34.5 8.5t34.5 -10t19.5 -31l174 -611q7 -23 3 -38t-15.5 -22t-27.5 -7q-22 0 -34.5 11.5t-18.5 34.5l-41 155l35 -22h-420l45 20l-99 -168q-8 -16 -21 -23.5t-31 -7.5zM429 590l-206 -352l-23 18h349
l-25 -19l-93 353h-2zM452 756q-33 0 -60 15.5t-42.5 42t-15.5 58.5q0 33 15.5 58.5t42.5 41t60 15.5q18 0 35 -4.5t30 -13.5l71 65q12 11 24.5 10t20 -9.5t7 -20.5t-12.5 -22l-73 -62q17 -25 17 -58q0 -32 -16 -58.5t-42.5 -42t-60.5 -15.5zM452 803q30 0 49.5 20t19.5 49
q0 30 -19.5 49.5t-49.5 19.5q-29 0 -48.5 -19.5t-19.5 -49.5q0 -29 19.5 -49t48.5 -20z" />
    <glyph glyph-name="aringacute" unicode="&#x1fb;" horiz-adv-x="537" 
d="M196 -9q-43 0 -80 19.5t-59 53t-22 75.5q0 52 28.5 84t89.5 47.5t157 15.5h80l-9 -62h-62q-69 0 -109.5 -7t-57.5 -24.5t-17 -47.5q0 -40 26.5 -61t63.5 -21q34 0 63 15t49.5 43.5t26.5 68.5l19 120q9 53 -14.5 81t-83.5 28q-35 0 -67.5 -7t-65.5 -24q-15 -8 -28 -5.5
t-21 11t-9 20.5t6.5 24t25.5 21q40 20 85 29t86 9q73 0 115.5 -27t58 -75t5.5 -111l-38 -241q-3 -25 -17.5 -37.5t-37.5 -12.5q-22 0 -33 14.5t-7 41.5l11 73l8 -15q-13 -39 -39.5 -65.5t-59 -38.5t-67.5 -12zM333 543q-33 0 -60 15t-42.5 41.5t-15.5 58.5t15.5 58.5
t42.5 41.5t60 15q18 0 35 -5t30 -14l70 65q13 12 25 11t20 -9.5t7.5 -21t-13.5 -22.5l-71 -61q15 -25 15 -58q0 -32 -15.5 -58.5t-42.5 -41.5t-60 -15zM333 589q30 0 49.5 19.5t19.5 49.5t-19.5 49t-49.5 19t-49.5 -19t-19.5 -49t19.5 -49.5t49.5 -19.5z" />
    <glyph glyph-name="AEacute" unicode="&#x1fc;" horiz-adv-x="987" 
d="M13 -7q-21 0 -32 10t-11 25.5t11 29.5l478 620q12 15 25.5 21t31.5 6h450q22 0 33.5 -8.5t11.5 -24.5q0 -25 -14 -38t-36 -13h-412l31 31l16 -280l-34 28h334q22 0 33.5 -8.5t11.5 -25.5q0 -24 -14 -37t-35 -13h-324l29 28l16 -292l-34 32h289q22 0 33.5 -8.5t11.5 -25.5
q0 -23 -13.5 -36.5t-36.5 -13.5h-292q-45 0 -48 45l-8 158l31 -31h-389l44 28l-135 -178q-11 -16 -23.5 -22.5t-29.5 -6.5zM491 587l-267 -356l-6 25h318l-23 -27l-20 358h-2zM600 770q-11 -11 -23.5 -11.5t-21.5 6.5t-11 18.5t7 22.5l93 123q11 15 25 18.5t26 -0.5
t20 -13.5t7.5 -22.5t-13.5 -26z" />
    <glyph glyph-name="aeacute" unicode="&#x1fd;" horiz-adv-x="863" 
d="M212 -9q-46 0 -86.5 17t-65.5 50.5t-25 80.5q0 52 28.5 84t89.5 47t157 15h80l-9 -62h-62q-68 0 -108.5 -7t-58 -24.5t-17.5 -46.5q0 -39 26.5 -60t63.5 -21q34 0 63.5 14t49.5 40.5t26 65.5l19 120q10 57 -14 86t-84 29q-35 0 -67.5 -7t-65.5 -24q-15 -8 -28 -5.5
t-21 11t-9 20.5t6.5 24t25.5 21q40 20 85 29t86 9q69 0 110.5 -29t53.5 -83h-31q32 51 83 81.5t118 30.5q62 0 102.5 -21.5t63 -57t29.5 -77.5t1 -83l-2 -13q-1 -11 -9 -16.5t-19 -5.5h-351l9 62h306l-17 -16q6 43 -3 78.5t-36 57t-75 21.5t-81 -22.5t-51.5 -57.5t-25.5 -74
l-4 -27q-13 -81 24.5 -128.5t114.5 -47.5q33 0 66 7.5t61 26.5q16 9 28.5 8.5t20 -8.5t9 -19.5t-3.5 -24t-19 -21.5q-35 -24 -82 -35.5t-88 -11.5q-84 0 -138.5 38.5t-71.5 107.5h26q-22 -75 -78.5 -110.5t-124.5 -35.5zM489 557q-10 -12 -21.5 -13.5t-21 5t-11.5 18t6 24.5
l103 156q10 16 23.5 20.5t26 0.5t20.5 -14t8.5 -23.5t-11.5 -26.5z" />
    <glyph glyph-name="Oslashacute" unicode="&#x1fe;" horiz-adv-x="775" 
d="M374 -9q-91 0 -158.5 35t-105 104t-37.5 166q0 90 24.5 166t71.5 133t114 88t153 31q92 0 159.5 -35t104.5 -103.5t37 -165.5q0 -91 -24.5 -167t-71.5 -133t-114 -88t-153 -31zM376 81q82 0 138 42.5t85 116.5t29 168q0 110 -51.5 163t-143.5 53q-81 0 -137 -42t-85 -116
t-29 -168q0 -111 52 -164t142 -53zM171 -24q-9 -11 -20.5 -14t-22 1t-17.5 12.5t-7 20.5t9 25l58 77l32 44l344 464l33 45l57 76q10 13 21.5 16t22.5 -1t17.5 -13t6.5 -21t-9 -25l-57 -76l-32 -44l-344 -464l-33 -44zM502 770q-11 -11 -23.5 -11.5t-21.5 6.5t-11 18.5
t7 22.5l93 123q11 15 25 18.5t26 -0.5t20 -13.5t7.5 -22.5t-13.5 -26z" />
    <glyph glyph-name="oslashacute" unicode="&#x1ff;" horiz-adv-x="565" 
d="M261 -9q-68 0 -117.5 26.5t-75.5 75.5t-26 116q0 63 19.5 116t55 91.5t83.5 59.5t105 21q69 0 118 -26.5t75.5 -75t26.5 -115.5q0 -64 -19.5 -117t-55 -91.5t-83.5 -59.5t-106 -21zM265 64q53 0 90 29t56 79t19 113q0 68 -33.5 103t-96.5 35q-52 0 -89 -28.5t-56.5 -78
t-19.5 -112.5q0 -69 34 -104.5t96 -35.5zM123 -26q-9 -12 -21 -13t-21.5 6t-12 19.5t7.5 25.5l369 501q9 12 21 13t21 -6t11 -19.5t-7 -25.5zM372 557q-10 -12 -21.5 -13.5t-21 5t-11.5 18t6 24.5l103 156q10 16 23.5 20.5t26 0.5t20.5 -14t8.5 -23.5t-11.5 -26.5z" />
    <glyph glyph-name="uni0200" unicode="&#x200;" horiz-adv-x="736" 
d="M45 -7q-18 0 -30.5 8.5t-15 23t7.5 32.5l375 620q12 18 25.5 26.5t34.5 8.5t34.5 -10t19.5 -31l174 -611q7 -23 3 -38t-15.5 -22t-27.5 -7q-22 0 -34.5 11.5t-18.5 34.5l-41 155l35 -22h-420l45 20l-99 -168q-8 -16 -21 -23.5t-31 -7.5zM429 590l-206 -352l-23 18h349
l-25 -19l-93 353h-2zM487 771l-74 120q-9 15 -6.5 27.5t12 20.5t22 10.5t24.5 -4t19 -22.5l52 -127q5 -12 1 -21.5t-13 -14.5t-19 -3t-18 14zM351 771l-79 121q-9 14 -7 26.5t11 20.5t22 10t25 -4t19 -22l58 -129q5 -11 1.5 -20.5t-12.5 -14t-19.5 -2t-18.5 13.5z" />
    <glyph glyph-name="uni0201" unicode="&#x201;" horiz-adv-x="537" 
d="M196 -9q-43 0 -80 19.5t-59 53t-22 75.5q0 52 28.5 84t89.5 47.5t157 15.5h80l-9 -62h-62q-69 0 -109.5 -7t-57.5 -24.5t-17 -47.5q0 -40 26.5 -61t63.5 -21q34 0 63 15t49.5 43.5t26.5 68.5l19 120q9 53 -14.5 81t-83.5 28q-35 0 -67.5 -7t-65.5 -24q-15 -8 -28 -5.5
t-21 11t-9 20.5t6.5 24t25.5 21q40 20 85 29t86 9q73 0 115.5 -27t58 -75t5.5 -111l-38 -241q-3 -25 -17.5 -37.5t-37.5 -12.5q-22 0 -33 14.5t-7 41.5l11 73l8 -15q-13 -39 -39.5 -65.5t-59 -38.5t-67.5 -12zM356 565l-51 153q-6 17 -0.5 29t17 18t25 5t24 -10t13.5 -27
l27 -157q3 -13 -3.5 -21t-17 -10.5t-20.5 3t-14 17.5zM219 565l-51 153q-5 17 0.5 29t16.5 18t24.5 5t24.5 -10t13 -27l28 -157q2 -13 -4.5 -21t-17 -10.5t-20.5 3t-14 17.5z" />
    <glyph glyph-name="uni0202" unicode="&#x202;" horiz-adv-x="736" 
d="M45 -7q-18 0 -30.5 8.5t-15 23t7.5 32.5l375 620q12 18 25.5 26.5t34.5 8.5t34.5 -10t19.5 -31l174 -611q7 -23 3 -38t-15.5 -22t-27.5 -7q-22 0 -34.5 11.5t-18.5 34.5l-41 155l35 -22h-420l45 20l-99 -168q-8 -16 -21 -23.5t-31 -7.5zM429 590l-206 -352l-23 18h349
l-25 -19l-93 353h-2zM302 757q-14 2 -21 13t-1 28q19 64 67 101.5t113 37.5q70 0 113 -39.5t49 -103.5q2 -16 -5 -25.5t-21 -11.5q-9 0 -16.5 2.5t-12 8.5t-6.5 16q-3 42 -31.5 66t-72.5 24q-41 0 -73 -23.5t-45 -68.5q-3 -8 -8 -14t-12 -8.5t-17 -2.5z" />
    <glyph glyph-name="uni0203" unicode="&#x203;" horiz-adv-x="537" 
d="M196 -9q-43 0 -80 19.5t-59 53t-22 75.5q0 52 28.5 84t89.5 47.5t157 15.5h80l-9 -62h-62q-69 0 -109.5 -7t-57.5 -24.5t-17 -47.5q0 -40 26.5 -61t63.5 -21q34 0 63 15t49.5 43.5t26.5 68.5l19 120q9 53 -14.5 81t-83.5 28q-35 0 -67.5 -7t-65.5 -24q-15 -8 -28 -5.5
t-21 11t-9 20.5t6.5 24t25.5 21q40 20 85 29t86 9q73 0 115.5 -27t58 -75t5.5 -111l-38 -241q-3 -25 -17.5 -37.5t-37.5 -12.5q-22 0 -33 14.5t-7 41.5l11 73l8 -15q-13 -39 -39.5 -65.5t-59 -38.5t-67.5 -12zM182 549q-14 2 -21 12.5t-2 28.5q11 50 35 85t57.5 53.5
t74.5 18.5q43 0 75.5 -20t51 -56t19.5 -87q1 -15 -6 -24t-21 -11q-13 -2 -22.5 4.5t-11.5 23.5q-3 52 -26 79t-62 27q-38 0 -66 -28t-40 -80q-3 -13 -12 -20t-23 -6z" />
    <glyph glyph-name="uni0204" unicode="&#x204;" horiz-adv-x="589" 
d="M105 0q-29 0 -42.5 15.5t-9.5 44.5l95 594q4 26 19 38.5t40 12.5h362q21 0 32.5 -8.5t11.5 -24.5q0 -25 -13.5 -38t-35.5 -13h-322l-35 -221h293q21 0 32 -8.5t11 -25.5q0 -24 -13.5 -37t-35.5 -13h-300l-38 -232h314q21 0 32.5 -8.5t11.5 -25.5q0 -24 -13.5 -37
t-35.5 -13h-360zM445 771l-74 120q-9 15 -6.5 27.5t12 20.5t22 10.5t24.5 -4t19 -22.5l52 -127q5 -12 1 -21.5t-13 -14.5t-19 -3t-18 14zM309 771l-79 121q-9 14 -7 26.5t11 20.5t22 10t25 -4t19 -22l58 -129q5 -11 1.5 -20.5t-12.5 -14t-19.5 -2t-18.5 13.5z" />
    <glyph glyph-name="uni0205" unicode="&#x205;" horiz-adv-x="537" 
d="M275 -9q-72 0 -124.5 26.5t-81 75.5t-28.5 116q0 80 33 145t92.5 104t138.5 39q59 0 99 -20.5t63 -55.5t30.5 -79t2.5 -90q-2 -19 -10 -25t-23 -6h-346l8 62h307l-18 -14q7 44 -2.5 79t-36.5 56.5t-75 21.5q-49 0 -82.5 -22.5t-52 -57.5t-25.5 -74l-4 -27
q-14 -80 24.5 -128t117.5 -48q33 0 66 8t61 26q16 9 28.5 8.5t20 -8.5t9.5 -19.5t-3.5 -24t-19.5 -21.5q-34 -24 -81 -35.5t-88 -11.5zM365 565l-51 153q-6 17 -0.5 29t17 18t25 5t24 -10t13.5 -27l27 -157q3 -13 -3.5 -21t-17 -10.5t-20.5 3t-14 17.5zM228 565l-51 153
q-5 17 0.5 29t16.5 18t24.5 5t24.5 -10t13 -27l28 -157q2 -13 -4.5 -21t-17 -10.5t-20.5 3t-14 17.5z" />
    <glyph glyph-name="uni0206" unicode="&#x206;" horiz-adv-x="589" 
d="M105 0q-29 0 -42.5 15.5t-9.5 44.5l95 594q4 26 19 38.5t40 12.5h362q21 0 32.5 -8.5t11.5 -24.5q0 -25 -13.5 -38t-35.5 -13h-322l-35 -221h293q21 0 32 -8.5t11 -25.5q0 -24 -13.5 -37t-35.5 -13h-300l-38 -232h314q21 0 32.5 -8.5t11.5 -25.5q0 -24 -13.5 -37
t-35.5 -13h-360zM260 757q-14 2 -21 13t-1 28q19 64 67 101.5t113 37.5q70 0 113 -39.5t49 -103.5q2 -16 -5 -25.5t-21 -11.5q-9 0 -16.5 2.5t-12 8.5t-6.5 16q-3 42 -31.5 66t-72.5 24q-41 0 -73 -23.5t-45 -68.5q-3 -8 -8 -14t-12 -8.5t-17 -2.5z" />
    <glyph glyph-name="uni0207" unicode="&#x207;" horiz-adv-x="537" 
d="M275 -9q-72 0 -124.5 26.5t-81 75.5t-28.5 116q0 80 33 145t92.5 104t138.5 39q59 0 99 -20.5t63 -55.5t30.5 -79t2.5 -90q-2 -19 -10 -25t-23 -6h-346l8 62h307l-18 -14q7 44 -2.5 79t-36.5 56.5t-75 21.5q-49 0 -82.5 -22.5t-52 -57.5t-25.5 -74l-4 -27
q-14 -80 24.5 -128t117.5 -48q33 0 66 8t61 26q16 9 28.5 8.5t20 -8.5t9.5 -19.5t-3.5 -24t-19.5 -21.5q-34 -24 -81 -35.5t-88 -11.5zM191 549q-14 2 -21 12.5t-2 28.5q11 50 35 85t57.5 53.5t74.5 18.5q43 0 75.5 -20t51 -56t19.5 -87q1 -15 -6 -24t-21 -11
q-13 -2 -22.5 4.5t-11.5 23.5q-3 52 -26 79t-62 27q-38 0 -66 -28t-40 -80q-3 -13 -12 -20t-23 -6z" />
    <glyph glyph-name="uni0208" unicode="&#x208;" horiz-adv-x="268" 
d="M97 -7q-27 0 -38 16t-7 45l97 607q4 25 18 38t40 13t37 -15.5t6 -45.5l-96 -606q-4 -25 -17.5 -38.5t-39.5 -13.5zM252 771l-74 120q-9 15 -6.5 27.5t12 20.5t22 10.5t24.5 -4t19 -22.5l52 -127q5 -12 1 -21.5t-13 -14.5t-19 -3t-18 14zM116 771l-79 121q-9 14 -7 26.5
t11 20.5t22 10t25 -4t19 -22l58 -129q5 -11 1.5 -20.5t-12.5 -14t-19.5 -2t-18.5 13.5z" />
    <glyph glyph-name="uni0209" unicode="&#x209;" horiz-adv-x="243" 
d="M81 -7q-23 0 -34 15.5t-7 43.5l63 393q4 25 18.5 37.5t39.5 12.5q23 0 34 -15.5t7 -43.5l-63 -393q-4 -25 -18 -37.5t-40 -12.5zM209 565l-51 153q-6 17 -0.5 29t17 18t25 5t24 -10t13.5 -27l27 -157q3 -13 -3.5 -21t-17 -10.5t-20.5 3t-14 17.5zM72 565l-51 153
q-5 17 0.5 29t16.5 18t24.5 5t24.5 -10t13 -27l28 -157q2 -13 -4.5 -21t-17 -10.5t-20.5 3t-14 17.5z" />
    <glyph glyph-name="uni020A" unicode="&#x20a;" horiz-adv-x="268" 
d="M97 -7q-27 0 -38 16t-7 45l97 607q4 25 18 38t40 13t37 -15.5t6 -45.5l-96 -606q-4 -25 -17.5 -38.5t-39.5 -13.5zM67 757q-14 2 -21 13t-1 28q19 64 67 101.5t113 37.5q70 0 113 -39.5t49 -103.5q2 -16 -5 -25.5t-21 -11.5q-9 0 -16.5 2.5t-12 8.5t-6.5 16
q-3 42 -31.5 66t-72.5 24q-41 0 -73 -23.5t-45 -68.5q-3 -8 -8 -14t-12 -8.5t-17 -2.5z" />
    <glyph glyph-name="uni020B" unicode="&#x20b;" horiz-adv-x="243" 
d="M81 -7q-23 0 -34 15.5t-7 43.5l63 393q4 25 18.5 37.5t39.5 12.5q23 0 34 -15.5t7 -43.5l-63 -393q-4 -25 -18 -37.5t-40 -12.5zM35 549q-14 2 -21 12.5t-2 28.5q11 50 35 85t57.5 53.5t74.5 18.5q43 0 75.5 -20t51 -56t19.5 -87q1 -15 -6 -24t-21 -11q-13 -2 -22.5 4.5
t-11.5 23.5q-3 52 -26 79t-62 27q-38 0 -66 -28t-40 -80q-3 -13 -12 -20t-23 -6z" />
    <glyph glyph-name="uni020C" unicode="&#x20c;" horiz-adv-x="775" 
d="M374 -9q-91 0 -158.5 35t-105 104t-37.5 166q0 90 24.5 166t71.5 133t114 88t153 31q92 0 159.5 -35t104.5 -103.5t37 -165.5q0 -91 -24.5 -167t-71.5 -133t-114 -88t-153 -31zM376 81q82 0 138 42.5t85 116.5t29 168q0 110 -51.5 163t-143.5 53q-81 0 -137 -42t-85 -116
t-29 -168q0 -111 52 -164t142 -53zM494 771l-74 120q-9 15 -6.5 27.5t12 20.5t22 10.5t24.5 -4t19 -22.5l52 -127q5 -12 1 -21.5t-13 -14.5t-19 -3t-18 14zM358 771l-79 121q-9 14 -7 26.5t11 20.5t22 10t25 -4t19 -22l58 -129q5 -11 1.5 -20.5t-12.5 -14t-19.5 -2
t-18.5 13.5z" />
    <glyph glyph-name="uni020D" unicode="&#x20d;" horiz-adv-x="565" 
d="M261 -9q-69 0 -118 26t-75.5 75t-26.5 116q0 64 19.5 116.5t55 91.5t83.5 60t105 21q69 0 118 -26.5t75.5 -75t26.5 -115.5q0 -64 -19.5 -117t-55 -91.5t-83.5 -59.5t-105 -21zM263 69q52 0 87 29t53.5 77.5t18.5 107.5q0 66 -32 100.5t-88 34.5q-51 0 -86.5 -28.5
t-54 -77t-18.5 -108.5q0 -65 32 -100t88 -35zM372 565l-51 153q-6 17 -0.5 29t17 18t25 5t24 -10t13.5 -27l27 -157q3 -13 -3.5 -21t-17 -10.5t-20.5 3t-14 17.5zM235 565l-51 153q-5 17 0.5 29t16.5 18t24.5 5t24.5 -10t13 -27l28 -157q2 -13 -4.5 -21t-17 -10.5t-20.5 3
t-14 17.5z" />
    <glyph glyph-name="uni020E" unicode="&#x20e;" horiz-adv-x="775" 
d="M374 -9q-91 0 -158.5 35t-105 104t-37.5 166q0 90 24.5 166t71.5 133t114 88t153 31q92 0 159.5 -35t104.5 -103.5t37 -165.5q0 -91 -24.5 -167t-71.5 -133t-114 -88t-153 -31zM376 81q82 0 138 42.5t85 116.5t29 168q0 110 -51.5 163t-143.5 53q-81 0 -137 -42t-85 -116
t-29 -168q0 -111 52 -164t142 -53zM309 757q-14 2 -21 13t-1 28q19 64 67 101.5t113 37.5q70 0 113 -39.5t49 -103.5q2 -16 -5 -25.5t-21 -11.5q-9 0 -16.5 2.5t-12 8.5t-6.5 16q-3 42 -31.5 66t-72.5 24q-41 0 -73 -23.5t-45 -68.5q-3 -8 -8 -14t-12 -8.5t-17 -2.5z" />
    <glyph glyph-name="uni020F" unicode="&#x20f;" horiz-adv-x="565" 
d="M261 -9q-69 0 -118 26t-75.5 75t-26.5 116q0 64 19.5 116.5t55 91.5t83.5 60t105 21q69 0 118 -26.5t75.5 -75t26.5 -115.5q0 -64 -19.5 -117t-55 -91.5t-83.5 -59.5t-105 -21zM263 69q52 0 87 29t53.5 77.5t18.5 107.5q0 66 -32 100.5t-88 34.5q-51 0 -86.5 -28.5
t-54 -77t-18.5 -108.5q0 -65 32 -100t88 -35zM198 549q-14 2 -21 12.5t-2 28.5q11 50 35 85t57.5 53.5t74.5 18.5q43 0 75.5 -20t51 -56t19.5 -87q1 -15 -6 -24t-21 -11q-13 -2 -22.5 4.5t-11.5 23.5q-3 52 -26 79t-62 27q-38 0 -66 -28t-40 -80q-3 -13 -12 -20t-23 -6z" />
    <glyph glyph-name="uni0210" unicode="&#x210;" horiz-adv-x="677" 
d="M95 -7q-24 0 -35.5 16t-6.5 45l95 599q4 26 19 39t41 13h210q115 0 174 -51.5t59 -140.5q0 -74 -34 -123t-93 -73t-135 -23v14h21q45 0 74 -26t47 -72l57 -150q8 -21 6 -36t-13.5 -23t-33.5 -8q-21 0 -33.5 10.5t-21.5 34.5l-68 179q-15 40 -39.5 57t-69.5 17h-122
l-38 -247q-4 -25 -19 -38t-41 -13zM206 369h186q75 0 116.5 35.5t41.5 100.5q0 59 -35 88t-110 29h-159zM449 771l-74 120q-9 15 -6.5 27.5t12 20.5t22 10.5t24.5 -4t19 -22.5l52 -127q5 -12 1 -21.5t-13 -14.5t-19 -3t-18 14zM313 771l-79 121q-9 14 -7 26.5t11 20.5t22 10
t25 -4t19 -22l58 -129q5 -11 1.5 -20.5t-12.5 -14t-19.5 -2t-18.5 13.5z" />
    <glyph glyph-name="uni0211" unicode="&#x211;" horiz-adv-x="373" 
d="M82 -7q-24 0 -35 15t-7 42l63 396q4 25 18.5 37t38.5 12q23 0 34 -14.5t7 -42.5l-11 -67h-10q20 59 68 91.5t110 35.5q25 1 33.5 -7t8.5 -28q0 -26 -12 -38t-39 -15l-24 -3q-74 -7 -106 -44t-43 -101l-35 -221q-3 -24 -18 -36t-41 -12zM305 567l-51 153q-6 17 -0.5 29
t17 18t25 5t24 -10t13.5 -27l27 -157q3 -13 -3.5 -21t-17 -10.5t-20.5 3t-14 17.5zM168 567l-51 153q-5 17 0.5 29t16.5 18t24.5 5t24.5 -10t13 -27l28 -157q2 -13 -4.5 -21t-17 -10.5t-20.5 3t-14 17.5z" />
    <glyph glyph-name="uni0212" unicode="&#x212;" horiz-adv-x="677" 
d="M95 -7q-24 0 -35.5 16t-6.5 45l95 599q4 26 19 39t41 13h210q115 0 174 -51.5t59 -140.5q0 -74 -34 -123t-93 -73t-135 -23v14h21q45 0 74 -26t47 -72l57 -150q8 -21 6 -36t-13.5 -23t-33.5 -8q-21 0 -33.5 10.5t-21.5 34.5l-68 179q-15 40 -39.5 57t-69.5 17h-122
l-38 -247q-4 -25 -19 -38t-41 -13zM206 369h186q75 0 116.5 35.5t41.5 100.5q0 59 -35 88t-110 29h-159zM264 757q-14 2 -21 13t-1 28q19 64 67 101.5t113 37.5q70 0 113 -39.5t49 -103.5q2 -16 -5 -25.5t-21 -11.5q-9 0 -16.5 2.5t-12 8.5t-6.5 16q-3 42 -31.5 66t-72.5 24
q-41 0 -73 -23.5t-45 -68.5q-3 -8 -8 -14t-12 -8.5t-17 -2.5z" />
    <glyph glyph-name="uni0213" unicode="&#x213;" horiz-adv-x="373" 
d="M82 -7q-24 0 -35 15t-7 42l63 396q4 25 18.5 37t38.5 12q23 0 34 -14.5t7 -42.5l-11 -67h-10q20 59 68 91.5t110 35.5q25 1 33.5 -7t8.5 -28q0 -26 -12 -38t-39 -15l-24 -3q-74 -7 -106 -44t-43 -101l-35 -221q-3 -24 -18 -36t-41 -12zM131 551q-14 2 -21 12.5t-2 28.5
q11 50 35 85t57.5 53.5t74.5 18.5q43 0 75.5 -20t51 -56t19.5 -87q1 -15 -6 -24t-21 -11q-13 -2 -22.5 4.5t-11.5 23.5q-3 52 -26 79t-62 27q-38 0 -66 -28t-40 -80q-3 -13 -12 -20t-23 -6z" />
    <glyph glyph-name="uni0214" unicode="&#x214;" horiz-adv-x="733" 
d="M338 -9q-67 0 -119 19t-86 58t-46.5 97.5t0.5 136.5l57 362q4 25 18.5 36.5t38.5 11.5q26 0 37.5 -14.5t7.5 -42.5l-57 -362q-17 -105 22.5 -158.5t132.5 -53.5q91 0 143.5 46t68.5 148l62 389q4 25 18.5 36.5t38.5 11.5q25 0 36.5 -14.5t7.5 -42.5l-60 -381
q-15 -93 -54 -156t-105 -95t-162 -32zM484 771l-74 120q-9 15 -6.5 27.5t12 20.5t22 10.5t24.5 -4t19 -22.5l52 -127q5 -12 1 -21.5t-13 -14.5t-19 -3t-18 14zM348 771l-79 121q-9 14 -7 26.5t11 20.5t22 10t25 -4t19 -22l58 -129q5 -11 1.5 -20.5t-12.5 -14t-19.5 -2
t-18.5 13.5z" />
    <glyph glyph-name="uni0215" unicode="&#x215;" horiz-adv-x="569" 
d="M206 -9q-52 0 -88.5 21.5t-52 67t-4.5 115.5l40 253q4 24 18 35.5t38 11.5t36 -14.5t8 -41.5l-39 -244q-9 -62 10.5 -92.5t69.5 -30.5q64 0 103 41.5t50 111.5l35 223q4 24 17.5 35.5t37.5 11.5q25 0 36.5 -14.5t7.5 -41.5l-63 -398q-7 -48 -55 -48q-23 0 -34.5 13
t-7.5 40l12 80l8 -19q-25 -56 -72.5 -86t-110.5 -30zM369 566l-51 153q-6 17 -0.5 29t17 18t25 5t24 -10t13.5 -27l27 -157q3 -13 -3.5 -21t-17 -10.5t-20.5 3t-14 17.5zM232 566l-51 153q-5 17 0.5 29t16.5 18t24.5 5t24.5 -10t13 -27l28 -157q2 -13 -4.5 -21t-17 -10.5
t-20.5 3t-14 17.5z" />
    <glyph glyph-name="uni0216" unicode="&#x216;" horiz-adv-x="733" 
d="M338 -9q-67 0 -119 19t-86 58t-46.5 97.5t0.5 136.5l57 362q4 25 18.5 36.5t38.5 11.5q26 0 37.5 -14.5t7.5 -42.5l-57 -362q-17 -105 22.5 -158.5t132.5 -53.5q91 0 143.5 46t68.5 148l62 389q4 25 18.5 36.5t38.5 11.5q25 0 36.5 -14.5t7.5 -42.5l-60 -381
q-15 -93 -54 -156t-105 -95t-162 -32zM299 757q-14 2 -21 13t-1 28q19 64 67 101.5t113 37.5q70 0 113 -39.5t49 -103.5q2 -16 -5 -25.5t-21 -11.5q-9 0 -16.5 2.5t-12 8.5t-6.5 16q-3 42 -31.5 66t-72.5 24q-41 0 -73 -23.5t-45 -68.5q-3 -8 -8 -14t-12 -8.5t-17 -2.5z" />
    <glyph glyph-name="uni0217" unicode="&#x217;" horiz-adv-x="569" 
d="M206 -9q-52 0 -88.5 21.5t-52 67t-4.5 115.5l40 253q4 24 18 35.5t38 11.5t36 -14.5t8 -41.5l-39 -244q-9 -62 10.5 -92.5t69.5 -30.5q64 0 103 41.5t50 111.5l35 223q4 24 17.5 35.5t37.5 11.5q25 0 36.5 -14.5t7.5 -41.5l-63 -398q-7 -48 -55 -48q-23 0 -34.5 13
t-7.5 40l12 80l8 -19q-25 -56 -72.5 -86t-110.5 -30zM195 550q-14 2 -21 12.5t-2 28.5q11 50 35 85t57.5 53.5t74.5 18.5q43 0 75.5 -20t51 -56t19.5 -87q1 -15 -6 -24t-21 -11q-13 -2 -22.5 4.5t-11.5 23.5q-3 52 -26 79t-62 27q-38 0 -66 -28t-40 -80q-3 -13 -12 -20
t-23 -6z" />
    <glyph glyph-name="uni0218" unicode="&#x218;" horiz-adv-x="622" 
d="M299 -9q-44 0 -87 6t-83 20.5t-74 37.5q-15 9 -20.5 23t-2.5 27.5t12 23.5t23.5 12t31.5 -8q48 -30 100.5 -42t108.5 -12q75 0 120.5 30.5t45.5 82.5q0 37 -27 63t-93 40l-106 26q-71 17 -113.5 59.5t-42.5 117.5q0 50 21 90t59 68.5t87 43t104 14.5q56 0 116.5 -15.5
t107.5 -51.5q14 -10 18.5 -24t1.5 -27.5t-12 -22t-23.5 -9.5t-34.5 11q-37 26 -83.5 38.5t-92.5 12.5q-48 0 -85.5 -15t-59 -41.5t-21.5 -63.5q0 -45 24 -67t71 -34l106 -26q92 -21 136.5 -66t44.5 -109q0 -53 -22 -93t-60.5 -66.5t-88.5 -40t-107 -13.5zM279 -256
q-11 -11 -22.5 -11.5t-19 6t-7.5 17t12 22.5q14 15 21 30.5t9 32.5l3 -18q-28 0 -42.5 12.5t-14.5 34.5q0 28 17 43t46 15q26 0 39.5 -13t13.5 -39q0 -24 -7 -48.5t-19.5 -46t-28.5 -37.5z" />
    <glyph glyph-name="uni0219" unicode="&#x219;" horiz-adv-x="484" 
d="M224 -9q-47 0 -91 10.5t-76 27.5q-16 8 -22 20.5t-4.5 24.5t9 20.5t20 10.5t27.5 -6q32 -18 67 -26.5t71 -8.5q51 0 79 20t28 54q0 23 -15.5 38t-45.5 21l-93 21q-52 11 -81.5 43t-29.5 80q0 44 24.5 79t72 56t112.5 21q38 0 79 -11t70 -30q14 -9 19.5 -21.5t3 -24
t-10 -19t-20 -8.5t-27.5 8q-25 16 -56 24t-63 8q-52 0 -81.5 -21t-29.5 -56q0 -21 13 -36.5t42 -21.5l93 -21q56 -13 86.5 -43.5t30.5 -78.5q0 -73 -55 -113.5t-146 -40.5zM197 -256q-11 -11 -22.5 -11.5t-19 6t-7.5 17t12 22.5q14 15 21 30.5t9 32.5l3 -18
q-28 0 -42.5 12.5t-14.5 34.5q0 28 17 43t46 15q26 0 39.5 -13t13.5 -39q0 -24 -7 -48.5t-19.5 -46t-28.5 -37.5z" />
    <glyph glyph-name="uni021A" unicode="&#x21a;" horiz-adv-x="611" 
d="M268 -7q-25 0 -36.5 16t-7.5 44l89 565h-203q-22 0 -34.5 9.5t-12.5 26.5q0 24 14.5 37.5t37.5 13.5h519q23 0 35 -9t12 -26q0 -25 -14 -38.5t-38 -13.5h-212l-91 -574q-4 -25 -18.5 -38t-39.5 -13zM250 -256q-11 -11 -22.5 -11.5t-19 6t-7.5 17t12 22.5q14 15 21 30.5
t9 32.5l3 -18q-28 0 -42.5 12.5t-14.5 34.5q0 28 17 43t46 15q26 0 39.5 -13t13.5 -39q0 -24 -7 -48.5t-19.5 -46t-28.5 -37.5z" />
    <glyph glyph-name="uni021B" unicode="&#x21b;" horiz-adv-x="365" 
d="M247 -9q-60 0 -99.5 23t-55 64t-6.5 96l38 236h-54q-20 0 -31.5 9t-11.5 24q0 22 14.5 33.5t37.5 11.5h57l17 107q4 24 18 35.5t37 11.5q26 0 37 -14.5t7 -41.5l-15 -98h110q21 0 32 -8t11 -25q0 -19 -12.5 -32t-35.5 -13h-117l-37 -228q-9 -57 13 -82t65 -25
q19 0 30.5 3.5t20.5 3.5q12 0 17.5 -6.5t5.5 -22.5q0 -27 -8.5 -38t-24.5 -16q-11 -4 -28.5 -6t-31.5 -2zM174 -256q-11 -11 -22.5 -11.5t-19 6t-7.5 17t12 22.5q14 15 21 30.5t9 32.5l3 -18q-28 0 -42.5 12.5t-14.5 34.5q0 28 17 43t46 15q26 0 39.5 -13t13.5 -39
q0 -24 -7 -48.5t-19.5 -46t-28.5 -37.5z" />
    <glyph glyph-name="uni021F" unicode="&#x21f;" horiz-adv-x="576" 
d="M82 -7q-24 0 -34.5 16t-6.5 44l96 609q4 25 18.5 37.5t39.5 12.5q23 0 34.5 -15t7.5 -43l-43 -272h-11q25 56 72.5 85.5t112.5 29.5q54 0 90.5 -22t52 -67t4.5 -114l-39 -251q-3 -24 -18 -37t-40 -13q-24 0 -35 15.5t-7 43.5l38 240q10 63 -10 93.5t-72 30.5
q-67 0 -106.5 -41t-50.5 -112l-35 -220q-7 -50 -58 -50zM368 754q-20 0 -33.5 10.5t-25.5 29.5l-67 108q-9 15 -5.5 25.5t14 16t23.5 2.5t23 -17l77 -103l104 109q10 11 23 12t23 -5t12 -16.5t-7 -22.5l-92 -112q-15 -19 -31 -28t-38 -9z" />
    <glyph glyph-name="uni0226" unicode="&#x226;" horiz-adv-x="736" 
d="M45 -7q-18 0 -30.5 8.5t-15 23t7.5 32.5l375 620q12 18 25.5 26.5t34.5 8.5t34.5 -10t19.5 -31l174 -611q7 -23 3 -38t-15.5 -22t-27.5 -7q-22 0 -34.5 11.5t-18.5 34.5l-41 155l35 -22h-420l45 20l-99 -168q-8 -16 -21 -23.5t-31 -7.5zM429 590l-206 -352l-23 18h349
l-25 -19l-93 353h-2zM457 797q-23 0 -36 11t-13 32q0 32 17.5 48.5t49.5 16.5q23 0 36 -10.5t13 -32.5q0 -29 -17.5 -47t-49.5 -18z" />
    <glyph glyph-name="uni0227" unicode="&#x227;" horiz-adv-x="537" 
d="M196 -9q-43 0 -80 19.5t-59 53t-22 75.5q0 52 28.5 84t89.5 47.5t157 15.5h80l-9 -62h-62q-69 0 -109.5 -7t-57.5 -24.5t-17 -47.5q0 -40 26.5 -61t63.5 -21q34 0 63 15t49.5 43.5t26.5 68.5l19 120q9 53 -14.5 81t-83.5 28q-35 0 -67.5 -7t-65.5 -24q-15 -8 -28 -5.5
t-21 11t-9 20.5t6.5 24t25.5 21q40 20 85 29t86 9q73 0 115.5 -27t58 -75t5.5 -111l-38 -241q-3 -25 -17.5 -37.5t-37.5 -12.5q-22 0 -33 14.5t-7 41.5l11 73l8 -15q-13 -39 -39.5 -65.5t-59 -38.5t-67.5 -12zM325 600q-23 0 -36 11t-13 32q0 31 17.5 48t49.5 17
q23 0 36 -11t13 -31q0 -31 -18 -48.5t-49 -17.5z" />
    <glyph glyph-name="uni0228" unicode="&#x228;" horiz-adv-x="589" 
d="M105 0q-29 0 -42.5 15.5t-9.5 44.5l95 594q4 26 19 38.5t40 12.5h362q21 0 32.5 -8.5t11.5 -24.5q0 -25 -13.5 -38t-35.5 -13h-322l-35 -221h293q21 0 32 -8.5t11 -25.5q0 -24 -13.5 -37t-35.5 -13h-300l-38 -232h314q21 0 32.5 -8.5t11.5 -25.5q0 -24 -13.5 -37
t-35.5 -13h-360zM273 -194q-19 0 -36.5 3t-33.5 7q-14 4 -18.5 14.5t-2 21t12 16t23.5 0.5q11 -4 25 -6t28 -2q28 0 44 9t16 26q0 11 -8.5 17.5t-25.5 6.5q-8 0 -16.5 -1t-16.5 -3q-8 -1 -14 -1t-9 3q-4 5 -4.5 9.5t1.5 13.5l26 80h58l-25 -76l-27 9q12 3 24 5t22 2
q36 0 57.5 -16.5t21.5 -47.5q0 -40 -35 -65t-87 -25z" />
    <glyph glyph-name="uni022A" unicode="&#x22a;" horiz-adv-x="775" 
d="M374 -9q-91 0 -158.5 35t-105 104t-37.5 166q0 90 24.5 166t71.5 133t114 88t153 31q92 0 159.5 -35t104.5 -103.5t37 -165.5q0 -91 -24.5 -167t-71.5 -133t-114 -88t-153 -31zM376 81q82 0 138 42.5t85 116.5t29 168q0 110 -51.5 163t-143.5 53q-81 0 -137 -42t-85 -116
t-29 -168q0 -111 52 -164t142 -53zM367 925q-17 0 -25.5 7.5t-8.5 19.5q0 17 10 26.5t29 9.5h239q19 0 27.5 -7t8.5 -19q0 -17 -9.5 -27t-29.5 -10h-241zM373 789q-24 0 -35.5 10t-11.5 27q0 26 16.5 38.5t43.5 12.5q23 0 35.5 -9.5t12.5 -28.5q0 -23 -15.5 -36.5
t-45.5 -13.5zM554 789q-24 0 -35.5 10t-11.5 27q0 26 16.5 38.5t43.5 12.5q23 0 35 -9.5t12 -28.5q0 -23 -15.5 -36.5t-44.5 -13.5z" />
    <glyph glyph-name="uni022B" unicode="&#x22b;" horiz-adv-x="565" 
d="M261 -9q-69 0 -118 26t-75.5 75t-26.5 116q0 64 19.5 116.5t55 91.5t83.5 60t105 21q69 0 118 -26.5t75.5 -75t26.5 -115.5q0 -64 -19.5 -117t-55 -91.5t-83.5 -59.5t-105 -21zM263 69q52 0 87 29t53.5 77.5t18.5 107.5q0 66 -32 100.5t-88 34.5q-51 0 -86.5 -28.5
t-54 -77t-18.5 -108.5q0 -65 32 -100t88 -35zM241 707q-17 0 -25.5 7.5t-8.5 19.5q0 17 10 27t28 10h240q19 0 27 -7t8 -20q0 -16 -9 -26.5t-29 -10.5h-241zM247 571q-24 0 -36 10.5t-12 27.5q0 26 17 38t44 12q23 0 35.5 -9.5t12.5 -27.5q0 -24 -16 -37.5t-45 -13.5z
M428 571q-24 0 -36 10.5t-12 27.5q0 26 17 38t44 12q23 0 35 -9.5t12 -27.5q0 -24 -16 -37.5t-44 -13.5z" />
    <glyph glyph-name="uni022C" unicode="&#x22c;" horiz-adv-x="775" 
d="M374 -9q-91 0 -158.5 35t-105 104t-37.5 166q0 90 24.5 166t71.5 133t114 88t153 31q92 0 159.5 -35t104.5 -103.5t37 -165.5q0 -91 -24.5 -167t-71.5 -133t-114 -88t-153 -31zM376 81q82 0 138 42.5t85 116.5t29 168q0 110 -51.5 163t-143.5 53q-81 0 -137 -42t-85 -116
t-29 -168q0 -111 52 -164t142 -53zM367 925q-18 0 -26.5 7.5t-8.5 19.5q0 17 10 26.5t29 9.5h240q18 0 26.5 -7t8.5 -19q0 -17 -9.5 -27t-29.5 -10h-240zM322 763q-12 1 -18 10.5t-1 24.5q13 37 38 56t60 19q28 0 50.5 -12t43 -24t39.5 -12q17 0 29 7.5t20 24.5
q4 11 11.5 16t19.5 4t18 -10t1 -24q-13 -37 -37.5 -56.5t-60.5 -19.5q-27 0 -50 12.5t-43 24.5t-40 12q-17 0 -29 -7.5t-20 -25.5q-4 -10 -11 -15.5t-20 -4.5z" />
    <glyph glyph-name="uni022D" unicode="&#x22d;" horiz-adv-x="565" 
d="M261 -9q-69 0 -118 26t-75.5 75t-26.5 116q0 64 19.5 116.5t55 91.5t83.5 60t105 21q69 0 118 -26.5t75.5 -75t26.5 -115.5q0 -64 -19.5 -117t-55 -91.5t-83.5 -59.5t-105 -21zM263 69q52 0 87 29t53.5 77.5t18.5 107.5q0 66 -32 100.5t-88 34.5q-51 0 -86.5 -28.5
t-54 -77t-18.5 -108.5q0 -65 32 -100t88 -35zM240 707q-17 0 -25.5 7.5t-8.5 19.5q0 17 10 27t29 10h239q18 0 27 -7t9 -20q0 -16 -10 -26.5t-29 -10.5h-241zM196 546q-12 1 -18 10t-1 24q12 38 37 57t60 19q27 0 50 -12.5t43.5 -24.5t39.5 -12q17 0 29.5 7.5t19.5 25.5
q4 10 12 15.5t19 4.5q13 -1 18.5 -10t0.5 -25q-12 -37 -36.5 -56t-60.5 -19q-27 0 -50.5 12t-43.5 24t-39 12q-17 0 -29.5 -7t-19.5 -25q-5 -11 -12 -16t-19 -4z" />
    <glyph glyph-name="uni0230" unicode="&#x230;" horiz-adv-x="775" 
d="M374 -9q-91 0 -158.5 35t-105 104t-37.5 166q0 90 24.5 166t71.5 133t114 88t153 31q92 0 159.5 -35t104.5 -103.5t37 -165.5q0 -91 -24.5 -167t-71.5 -133t-114 -88t-153 -31zM376 81q82 0 138 42.5t85 116.5t29 168q0 110 -51.5 163t-143.5 53q-81 0 -137 -42t-85 -116
t-29 -168q0 -111 52 -164t142 -53zM366 925q-17 0 -25.5 7.5t-8.5 19.5q0 17 10 26.5t29 9.5h239q19 0 27.5 -7t8.5 -19q0 -17 -9.5 -27t-29.5 -10h-241zM463 789q-24 0 -35.5 10t-11.5 27q0 26 16.5 38.5t43.5 12.5q23 0 35 -9.5t12 -28.5q0 -23 -15.5 -36.5t-44.5 -13.5z
" />
    <glyph glyph-name="uni0231" unicode="&#x231;" horiz-adv-x="565" 
d="M261 -9q-69 0 -118 26t-75.5 75t-26.5 116q0 64 19.5 116.5t55 91.5t83.5 60t105 21q69 0 118 -26.5t75.5 -75t26.5 -115.5q0 -64 -19.5 -117t-55 -91.5t-83.5 -59.5t-105 -21zM263 69q52 0 87 29t53.5 77.5t18.5 107.5q0 66 -32 100.5t-88 34.5q-51 0 -86.5 -28.5
t-54 -77t-18.5 -108.5q0 -65 32 -100t88 -35zM238 707q-18 0 -26.5 7.5t-8.5 19.5q0 17 10 27t29 10h240q18 0 26.5 -7t8.5 -20q0 -16 -9.5 -26.5t-29.5 -10.5h-240zM334 571q-24 0 -35.5 10.5t-11.5 27.5q0 26 16.5 38t44.5 12q22 0 34 -9.5t12 -27.5q0 -24 -15.5 -37.5
t-44.5 -13.5z" />
    <glyph glyph-name="uni0232" unicode="&#x232;" horiz-adv-x="606" 
d="M263 -7q-25 0 -35.5 16t-6.5 44l49 311l11 -66l-189 340q-11 20 -9.5 36.5t14 27t33.5 10.5q19 0 30.5 -8.5t23.5 -29.5l150 -271h-24l243 278q15 18 27.5 24.5t30.5 6.5q19 0 31 -11t12 -28t-15 -35l-299 -340l33 66l-51 -320q-8 -51 -59 -51zM249 811q-35 0 -35 26
q0 18 10.5 27.5t27.5 9.5h278q34 0 34 -26q0 -17 -10 -27t-28 -10h-277z" />
    <glyph glyph-name="uni0233" unicode="&#x233;" horiz-adv-x="520" 
d="M121 -187q-19 0 -29.5 9t-11 24t8.5 31l95 157l-7 -43l-118 434q-5 20 -1.5 36t16.5 25t31 9q22 0 32.5 -10t16.5 -36l91 -367h-30l217 376q11 20 23 28.5t32 8.5q19 0 30.5 -9.5t12.5 -24t-9 -32.5l-345 -580q-11 -19 -23 -27.5t-32 -8.5zM187 621q-34 0 -34 27
q0 17 10.5 27t27.5 10h248q34 0 34 -27q0 -17 -10 -27t-28 -10h-248z" />
    <glyph glyph-name="uni0237" unicode="&#x237;" horiz-adv-x="246" 
d="M-74 -191q-17 -1 -27 6.5t-13.5 19t-0.5 23.5t12 19.5t24 8.5q47 2 76 26t37 77l72 456q4 25 18.5 37.5t39.5 12.5q23 0 34.5 -15.5t7.5 -43.5l-70 -439q-10 -63 -35 -103.5t-67.5 -61t-107.5 -23.5z" />
    <glyph glyph-name="uni0253" unicode="&#x253;" horiz-adv-x="591" 
d="M306 -9q-58 0 -102.5 28t-61.5 85l8 18l-13 -79q-4 -25 -16.5 -37.5t-37.5 -12.5q-24 0 -35.5 15.5t-7.5 43.5l77 485q15 92 63.5 134.5t138.5 42.5q35 0 49 -10t14 -29q0 -18 -8.5 -30.5t-21.5 -12.5q-4 0 -12.5 1t-17.5 1q-42 0 -69 -24.5t-35 -74.5l-23 -146h-11
q27 51 73 79.5t107 28.5q56 0 98 -25.5t65 -72.5t23 -112q0 -81 -28.5 -148.5t-83.5 -107.5t-132 -40zM290 69q51 0 86 29t53.5 77.5t18.5 107.5q0 66 -32 100.5t-88 34.5q-50 0 -85.5 -28.5t-54.5 -77t-19 -108.5q0 -65 32 -100t89 -35z" />
    <glyph glyph-name="uni0257" unicode="&#x257;" horiz-adv-x="591" 
d="M226 -9q-56 0 -97.5 25.5t-65 72.5t-23.5 111q0 82 29 149.5t84 107.5t132 40q58 0 102.5 -28.5t61.5 -85.5l-7 1l24 153q15 92 63 134.5t137 42.5q35 0 49.5 -10t14.5 -29q0 -18 -8.5 -30.5t-22.5 -12.5q-4 0 -12.5 1t-16.5 1q-43 0 -69.5 -25t-34.5 -74l-78 -491
q-4 -25 -18.5 -38t-39.5 -13q-23 0 -33.5 16t-5.5 44l11 66l4 -21q-27 -49 -73 -78t-107 -29zM263 69q51 0 86 29t53.5 77.5t18.5 107.5q0 66 -32 100.5t-88 34.5q-51 0 -86 -28.5t-54 -77t-19 -108.5q0 -65 32 -100t89 -35z" />
    <glyph glyph-name="uni0259" unicode="&#x259;" horiz-adv-x="537" 
d="M232 -9q-79 0 -125 35.5t-62.5 92.5t-7.5 119q3 17 11 22.5t22 5.5h347l-10 -62h-306l23 15q-6 -42 3 -77.5t35.5 -57.5t71.5 -22q50 0 83 22.5t51.5 58t23.5 73.5l5 27q13 80 -23 127.5t-117 47.5q-34 0 -68 -8.5t-62 -26.5q-15 -10 -27.5 -9t-20.5 9t-10 20t3.5 24
t18.5 21q34 25 82.5 37t91.5 12q72 0 123.5 -27t79.5 -75.5t28 -115.5q0 -80 -33 -145.5t-92 -104t-139 -38.5z" />
    <glyph glyph-name="uni0292" unicode="&#x292;" horiz-adv-x="504" 
d="M189 -189q-54 0 -110 13.5t-102 42.5q-14 9 -19 21.5t-2 24.5t11.5 20.5t21.5 9.5t28 -9q36 -25 78 -35t85 -10q76 0 116.5 39t40.5 108q0 47 -33 77t-98 30h-70q-17 0 -25 8.5t-6 21.5t15 24l255 236l-3 -26h-276q-22 0 -33.5 11.5t-8.5 29.5q7 40 48 40h335
q17 0 28 -7.5t14 -19t-2.5 -25t-20.5 -26.5l-241 -221l-25 26h60q60 0 102 -24t63.5 -63.5t21.5 -87.5q0 -66 -29 -117.5t-84.5 -81.5t-134.5 -30z" />
    <glyph glyph-name="uni02B9" unicode="&#x2b9;" horiz-adv-x="231" 
d="M147 415q-17 0 -26.5 9.5t-8.5 32.5l15 205q2 21 17 35.5t39 14.5q26 0 41.5 -17t7.5 -47l-47 -198q-5 -19 -15 -27t-23 -8z" />
    <glyph glyph-name="uni02BA" unicode="&#x2ba;" horiz-adv-x="417" 
d="M147 415q-17 0 -26.5 9t-8.5 32l15 206q2 21 17 35.5t39 14.5q18 0 31 -7t19 -21t1 -34l-48 -200q-5 -19 -15.5 -27t-23.5 -8zM333 415q-17 0 -26.5 9t-8.5 32l15 206q2 21 17 35.5t39 14.5q18 0 31 -7t19 -21t1 -34l-48 -200q-5 -19 -15.5 -27t-23.5 -8z" />
    <glyph glyph-name="uni02BB" unicode="&#x2bb;" horiz-adv-x="500" 
d="M306 561q-26 0 -40 13t-14 39q0 24 7.5 48.5t20 46.5t28.5 37q11 11 22.5 11.5t19 -6t7.5 -17t-12 -22.5q-14 -15 -21 -30.5t-10 -32.5l-2 18q27 0 42 -12.5t15 -34.5q0 -28 -17.5 -43t-45.5 -15z" />
    <glyph glyph-name="uni02BC" unicode="&#x2bc;" horiz-adv-x="336" 
d="M246 582q-11 -11 -22 -11.5t-18.5 6t-7.5 17.5t11 22q14 15 21 31t10 32l2 -18q-27 0 -42 13t-15 35q0 27 17.5 42.5t45.5 15.5q26 0 40 -13.5t14 -39.5q0 -23 -7.5 -47.5t-19.5 -47t-29 -37.5z" />
    <glyph glyph-name="uni02BE" unicode="&#x2be;" horiz-adv-x="500" 
d="M329 556q-18 -5 -27 2.5t-7 19.5t10.5 17t21.5 10q18 7 28.5 22.5t10.5 34.5q0 13 -5.5 23t-16.5 17q-12 8 -19 13t-5 17t12 18t24 1q31 -9 47.5 -33t16.5 -54q0 -39 -26 -69t-65 -39z" />
    <glyph glyph-name="uni02BF" unicode="&#x2bf;" horiz-adv-x="500" 
d="M274 558q-30 10 -46.5 34t-16.5 54q0 39 26 69t65 39q18 4 26.5 -3t6.5 -19q-1 -13 -9.5 -17.5t-21.5 -10.5q-18 -6 -29 -22t-11 -34q0 -13 6 -23t17 -17q11 -8 18 -13.5t5 -16.5q-1 -12 -11 -18t-25 -2z" />
    <glyph glyph-name="circumflex" unicode="&#x2c6;" horiz-adv-x="482" 
d="M431 588q6 -15 1 -25.5t-15.5 -15.5t-22 -2.5t-17.5 14.5l-70 134l-101 -135q-8 -11 -20 -13.5t-21.5 3t-12 16.5t5.5 24l93 143q12 19 27 28.5t34 9.5t33 -9t23 -29z" />
    <glyph glyph-name="caron" unicode="&#x2c7;" horiz-adv-x="485" 
d="M300 540q-19 0 -33.5 9.5t-22.5 29.5l-62 143q-6 15 -1.5 26t15 15.5t22.5 1.5t18 -16l70 -135l103 137q9 12 21 14.5t21 -3t12 -16t-6 -25.5l-92 -140q-13 -20 -29.5 -30.5t-35.5 -10.5z" />
    <glyph glyph-name="uni02C8" unicode="&#x2c8;" horiz-adv-x="500" 
d="M305 587q-16 0 -24 11t-4 31l21 139q5 36 40 36q17 0 24.5 -11t3.5 -31l-21 -140q-5 -35 -40 -35z" />
    <glyph glyph-name="uni02C9" unicode="&#x2c9;" horiz-adv-x="500" 
d="M189 621q-34 0 -34 27q0 17 10.5 27t27.5 10h248q34 0 34 -27q0 -17 -10 -27t-28 -10h-248z" />
    <glyph glyph-name="uni02CA" unicode="&#x2ca;" horiz-adv-x="500" 
d="M337 557q-10 -12 -21.5 -13.5t-21 5t-12.5 18t6 24.5l95 156q10 16 23.5 20.5t26 0.5t21 -14t9 -23.5t-10.5 -26.5z" />
    <glyph glyph-name="uni02CB" unicode="&#x2cb;" horiz-adv-x="500" 
d="M256 562l-100 142q-11 16 -9.5 29.5t11 22.5t23.5 11.5t27.5 -4.5t23.5 -24l81 -149q8 -14 3.5 -25.5t-14.5 -17t-23 -3t-23 17.5z" />
    <glyph glyph-name="uni02CC" unicode="&#x2cc;" horiz-adv-x="500" 
d="M168 -277q-16 0 -24 11t-4 30l21 140q5 35 41 35q17 0 24.5 -11t3.5 -30l-22 -141q-5 -34 -40 -34z" />
    <glyph glyph-name="breve" unicode="&#x2d8;" horiz-adv-x="516" 
d="M322 550q-43 0 -75 20t-50.5 56.5t-20.5 86.5q-1 15 6 24.5t21 10.5q14 2 24 -4.5t10 -22.5q2 -52 25.5 -79.5t62.5 -27.5q38 0 66.5 28t38.5 80q4 14 13 21t23 5q14 -1 20.5 -12t2.5 -29q-11 -50 -34.5 -85t-57.5 -53.5t-75 -18.5z" />
    <glyph glyph-name="dotaccent" unicode="&#x2d9;" horiz-adv-x="314" 
d="M213 600q-23 0 -36 11t-13 32q0 31 17.5 48t49.5 17q23 0 36 -11t13 -31q0 -31 -18 -48.5t-49 -17.5z" />
    <glyph glyph-name="ring" unicode="&#x2da;" horiz-adv-x="448" 
d="M290 546q-33 0 -61 16t-44.5 43t-16.5 60q0 34 16.5 60.5t44.5 42.5t61 16q35 0 62.5 -16t43.5 -42.5t16 -60.5q0 -33 -16 -60t-43.5 -43t-62.5 -16zM290 596q30 0 49.5 20t19.5 49q0 30 -19.5 49.5t-49.5 19.5q-29 0 -48.5 -19.5t-19.5 -48.5q0 -31 19.5 -50.5
t48.5 -19.5z" />
    <glyph glyph-name="ogonek" unicode="&#x2db;" horiz-adv-x="397" 
d="M149 -194q-51 0 -76.5 26t-25.5 65q0 47 28.5 83t80.5 59l29 -39q-23 -9 -38.5 -22.5t-24 -29.5t-8.5 -34q0 -22 14 -36t38 -14q9 0 17.5 1.5t18.5 4.5q14 4 21.5 -1.5t9 -16.5t-3 -21t-14.5 -14q-15 -5 -32.5 -8t-33.5 -3z" />
    <glyph glyph-name="tilde" unicode="&#x2dc;" horiz-adv-x="557" 
d="M181 585q-13 1 -19.5 9.5t-2.5 22.5q6 27 17 48.5t26 36t33.5 22t39.5 7.5q25 0 42.5 -11t32.5 -25t30 -25t33 -11q21 0 38 15t24 40q3 12 12 17.5t21 4.5q13 -1 19 -9t3 -23q-8 -36 -25 -61.5t-40 -38.5t-52 -13q-24 0 -42.5 10.5t-33 24.5t-29.5 25t-33 11
q-20 0 -37 -15t-25 -40q-3 -11 -11.5 -17t-20.5 -5z" />
    <glyph glyph-name="hungarumlaut" unicode="&#x2dd;" horiz-adv-x="447" 
d="M342 562q-6 -13 -16.5 -16.5t-20 0t-14 12.5t-0.5 22l55 158q6 17 18 24.5t24.5 7t22 -8t13 -20t-4.5 -27.5zM204 562q-6 -13 -16 -16.5t-19.5 0t-14.5 12.5t0 22l55 158q7 17 18.5 24.5t24 7t22.5 -8t13.5 -20t-5.5 -27.5z" />
    <glyph glyph-name="gravecomb" unicode="&#x300;" 
d="M-31 561l-100 143q-12 16 -10 30t11.5 22.5t23 11t27 -4.5t23.5 -25l80 -147q8 -15 4 -26.5t-14 -17t-23 -3t-22 16.5z" />
    <glyph glyph-name="acutecomb" unicode="&#x301;" 
d="M49 557q-10 -12 -21.5 -13.5t-21 5t-11.5 18t6 24.5l103 156q10 16 23.5 20.5t26 0.5t20.5 -14t8.5 -23.5t-11.5 -26.5z" />
    </font>
</defs>
</svg>
